osu file format v14

[General]
AudioFilename: audio.mp3
AudioLeadIn: 0
PreviewTime: 45252
Countdown: 0
SampleSet: Soft
StackLeniency: 0.7
Mode: 0
LetterboxInBreaks: 0
WidescreenStoryboard: 0

[Editor]
DistanceSpacing: 1.4
BeatDivisor: 4
GridSize: 32
TimelineZoom: 1.6

[Metadata]
Title:Le zoo (TV Size)
TitleUnicode:Le zoo (TV Size)
Artist:YURiKA
ArtistUnicode:YURiKA
Creator:-Keitaro
Version:Hard
Source:BEASTARS
Tags:ending ed anime japanese mindmaster107 ビースターズ legosi legoshi louis studio orange itagaki
BeatmapID:2199552
BeatmapSetID:1052509

[Difficulty]
HPDrainRate:5
CircleSize:4
OverallDifficulty:6
ApproachRate:7.5
SliderMultiplier:1.6
SliderTickRate:1

[Events]
//Background and Video events
Video,-696,"beasat.mp4"
0,0,"bggggggg.jpg",0,0
//Break Periods
//Storyboard Layer 0 (Background)
//Storyboard Layer 1 (Fail)
//Storyboard Layer 2 (Pass)
//Storyboard Layer 3 (Foreground)
//Storyboard Layer 4 (Overlay)
//Storyboard Sound Samples

[TimingPoints]
526,538.116591928251,4,2,22,50,1,0
1627,545.454545454546,4,2,22,50,1,0
8164,545.454545454546,4,2,22,50,1,0
10343,545.454545454546,4,2,22,45,1,0
10343,-100,4,2,22,45,0,0
40888,-95.2380952380952,4,2,22,55,0,0
45252,-90.9090909090909,4,2,22,60,0,1
69275,545.454545454546,4,2,22,60,1,1
70888,545.454545454546,4,2,22,60,1,1
71433,545.454545454546,4,2,22,60,1,1
71433,-90.9090909090909,4,2,22,60,0,1
77978,-90.9090909090909,4,2,22,60,0,0
80168,545.454545454546,4,2,22,60,1,0
88758,-100,4,2,22,5,0,0

[Colours]
Combo1 : 113,188,67
Combo2 : 0,128,255
Combo3 : 13,157,157
Combo4 : 118,102,73

[HitObjects]
65,286,526,6,0,L|112:289,1,40.1573333333333,12|4,2:0|2:3,2:0:0:0:
136,205,795,2,0,L|96:207,1,40.1573333333333,4|4,2:3|2:3,2:0:0:0:
18,222,1064,1,8,2:0:0:0:
18,222,1198,2,0,P|1:184|6:130,1,80.0173333333333,4|0,2:3|2:0,2:0:0:0:
33,71,1627,6,0,P|93:70|138:132,1,120.026666666667,4|0,2:0|2:0,2:0:0:0:
137,129,2172,2,0,P|191:140|224:120,1,80.2133333333334,8|0,2:0|2:0,2:0:0:0:
313,15,2717,2,0,P|276:56|277:94,1,80.2133333333334,0|0,1:0|1:0,2:0:0:0:
322,223,3263,2,0,P|304:170|270:152,1,80.2133333333334,8|0,2:0|1:0,2:0:0:0:
214,280,3808,6,0,B|236:271|259:272|259:272|284:309|354:299,1,120.026666666667,0|0,1:0|2:0,2:0:0:0:
362,292,4354,2,0,L|457:299,1,80.2133333333334,8|0,2:0|2:0,2:0:0:0:
476,300,4763,1,0,1:0:0:0:
476,300,4899,2,0,P|484:251|469:222,1,80.2133333333334,0|0,1:0|1:0,2:0:0:0:
406,150,5445,1,8,2:0:0:0:
406,150,5581,1,0,1:0:0:0:
406,150,5717,1,0,1:0:0:0:
473,48,5990,6,0,L|317:60,1,120.026666666667,0|0,1:0|1:0,2:0:0:0:
314,62,6536,2,0,P|307:114|318:149,1,80.2133333333334,8|0,2:0|1:0,2:0:0:0:
353,248,7081,1,0,1:0:0:0:
260,218,7354,1,0,1:0:0:0:
196,282,7627,2,0,P|146:292|104:274,1,80.2133333333334,8|0,2:0|2:0,2:0:0:0:
30,316,8164,6,0,B|50:274|50:274|43:177,1,120.026666666667,0|0,1:0|2:0,2:0:0:0:
38,167,8709,1,8,2:0:0:0:
134,68,8982,1,0,1:0:0:0:
130,89,9119,1,8,2:0:0:0:
126,110,9255,1,8,2:0:0:0:
193,182,9528,1,4,3:0:0:0:
273,121,9800,2,0,L|268:70,2,40.1066666666667,8|0|0,2:0|1:0|1:0,2:0:0:0:
352,188,10343,6,0,P|408:185|461:125,1,120.026666666667,4|0,2:0|2:0,2:0:0:0:
464,120,10888,2,0,L|482:206,1,80.2133333333334,10|2,2:0|2:0,2:0:0:0:
512,327,11434,1,2,1:2:0:0:
378,350,11706,1,2,2:0:0:0:
409,274,11979,2,0,P|354:268|315:294,1,80.2133333333334,8|0,2:0|2:0,2:0:0:0:
322,294,12388,1,0,2:0:0:0:
322,294,12525,6,0,P|277:315|218:292,1,80.2133333333334,2|0,1:2|2:0,2:0:0:0:
152,260,13070,2,0,L|157:157,1,80.2133333333334,10|2,2:0|2:0,2:0:0:0:
170,165,13479,1,2,2:0:0:0:
170,165,13616,2,0,L|163:71,1,80.2133333333334,2|2,1:2|2:0,2:0:0:0:
248,30,14161,1,8,2:0:0:0:
248,30,14297,2,0,P|297:49|353:33,1,80.2133333333334,2|0,2:0|2:0,2:0:0:0:
364,17,14706,6,0,B|353:62|353:62|366:92|366:92|354:169,1,120.026666666667,2|0,1:2|2:0,2:0:0:0:
356,153,15252,2,0,L|456:149,1,80.2133333333334,10|2,2:0|2:0,2:0:0:0:
455,162,15661,1,2,2:0:0:0:
455,162,15797,2,0,P|474:216|466:246,1,80.2133333333334,2|2,1:2|2:0,2:0:0:0:
418,364,16343,1,8,2:0:0:0:
297,321,16616,1,2,2:0:0:0:
297,321,16752,1,2,2:0:0:0:
297,321,16888,2,0,P|242:337|181:299,1,120.026666666667,2|2,1:2|2:0,2:0:0:0:
176,296,17434,6,0,P|137:292|83:322,1,80.2133333333334,8|2,2:0|2:0,2:0:0:0:
85,320,17843,1,2,2:0:0:0:
85,320,17979,1,0,1:0:0:0:
24,225,18252,1,2,2:0:0:0:
81,128,18525,1,10,2:0:0:0:
31,27,18797,1,2,2:0:0:0:
142,42,19070,6,0,L|278:33,1,120.026666666667,0|0,1:0|2:0,2:0:0:0:
292,32,19616,2,0,L|264:138,1,80.2133333333334,10|2,2:0|2:0,2:0:0:0:
270,133,20025,1,2,2:0:0:0:
270,133,20161,2,0,P|318:122|362:144,1,80.2133333333334,2|2,1:2|2:0,2:0:0:0:
442,107,20706,2,0,L|453:201,1,80.2133333333334,8|2,2:0|2:0,2:0:0:0:
476,224,21116,1,2,2:0:0:0:
476,224,21252,6,0,B|378:220|378:220|342:259,1,120.026666666667,2|2,1:2|2:0,2:0:0:0:
340,259,21797,1,8,2:0:0:0:
275,168,22070,1,2,2:0:0:0:
275,168,22206,1,2,2:0:0:0:
275,168,22343,2,0,P|225:152|169:180,1,80.2133333333334,0|2,1:0|2:0,2:0:0:0:
100,280,22888,2,0,P|131:243|135:205,1,80.2133333333334,10|2,2:0|2:0,2:0:0:0:
99,98,23434,6,0,B|152:86|152:86|180:95|180:95|242:83,1,120.026666666667,0|0,1:0|2:0,2:0:0:0:
246,69,23979,1,10,2:0:0:0:
337,13,24252,1,2,2:0:0:0:
337,13,24388,1,2,2:0:0:0:
337,13,24525,2,0,L|346:99,1,80.2133333333334,2|2,1:2|2:0,2:0:0:0:
456,129,25070,2,0,L|451:220,1,80.2133333333334,8|2,2:0|2:0,2:0:0:0:
433,323,25616,6,0,P|391:290|302:302,1,120.026666666667,2|2,1:2|2:0,2:0:0:0:
312,298,26161,2,0,P|258:314|218:296,1,80.2133333333334,8|0,2:0|1:0,2:0:0:0:
116,211,26706,1,2,1:2:0:0:
139,358,26979,1,2,1:2:0:0:
119,356,27116,1,8,2:0:0:0:
99,354,27252,1,10,2:0:0:0:
17,277,27525,1,2,2:0:0:0:
116,211,27797,5,4,1:2:0:0:
99,354,28070,1,0,1:0:0:0:
170,289,28343,2,0,L|256:294,1,80.2133333333334,10|2,2:0|2:0,2:0:0:0:
322,341,28888,2,0,P|338:290|314:236,1,80.2133333333334,2|0,1:2|2:0,2:0:0:0:
315,230,29297,2,0,P|301:187|323:141,1,80.2133333333334,2|0,1:2|2:0,2:0:0:0:
318,114,29706,6,0,B|341:135|341:135|495:124,1,160.133333333333,2|2,1:2|1:2,2:0:0:0:
423,50,30525,1,10,2:0:0:0:
409,211,30797,1,2,1:2:0:0:
341,42,31070,2,0,P|293:41|244:85,1,80.2133333333334,10|0,2:0|2:0,2:0:0:0:
243,84,31479,1,0,1:0:0:0:
243,84,31616,2,0,P|188:98|112:54,1,120.026666666667,10|0,2:0|2:0,2:0:0:0:
109,51,32161,5,0,1:0:0:0:
58,188,32434,1,0,1:0:0:0:
142,175,32706,2,0,L|146:282,1,80.2133333333334,10|2,2:0|2:0,2:0:0:0:
49,356,33252,2,0,P|105:327|148:341,1,80.2133333333334,2|0,1:2|2:0,2:0:0:0:
151,342,33661,2,0,P|197:346|238:322,1,80.2133333333334,2|0,1:2|2:0,2:0:0:0:
252,312,34070,6,0,L|436:326,1,160.133333333333,2|2,1:2|1:2,2:0:0:0:
361,132,34888,1,10,2:0:0:0:
485,268,35161,1,2,2:0:0:0:
407,62,35434,2,0,P|343:51|302:79,1,80.2133333333334,10|0,2:0|2:0,2:0:0:0:
296,78,35843,1,0,1:0:0:0:
296,78,35979,2,0,P|246:98|206:86,1,80.2133333333334,10|0,2:0|1:0,2:0:0:0:
125,35,36525,5,4,1:2:0:0:
78,175,36797,1,0,1:0:0:0:
164,170,37070,2,0,L|153:275,1,80.2133333333334,10|2,2:0|2:0,2:0:0:0:
152,290,37479,1,2,2:0:0:0:
152,290,37616,2,0,P|196:310|247:289,1,80.2133333333334,2|2,1:2|2:0,2:0:0:0:
247,289,38025,2,0,P|293:285|331:318,1,80.2133333333334,2|0,1:2|2:0,2:0:0:0:
342,328,38434,6,0,P|396:325|440:229,1,160.133333333333,2|2,1:2|1:2,2:0:0:0:
393,150,39252,1,10,2:0:0:0:
464,64,39525,1,2,1:2:0:0:
464,64,39661,1,0,1:0:0:0:
464,64,39797,2,0,L|365:58,1,80.2133333333334,10|2,2:0|2:0,2:0:0:0:
313,154,40343,2,0,L|412:148,1,80.2133333333334,10|2,2:0|1:2,2:0:0:0:
243,84,40888,6,0,P|219:149|240:217,1,126.027996154785,4|0,1:2|2:0,2:0:0:0:
249,231,41434,2,0,B|205:218|205:218|150:236,1,84.2239974365236,8|0,2:0|1:0,2:0:0:0:
65,344,41979,1,0,1:0:0:0:
16,212,42252,1,0,1:0:0:0:
16,212,42388,1,0,1:0:0:0:
16,212,42525,2,0,L|30:104,1,84.2239974365236,8|0,2:0|1:0,2:0:0:0:
256,192,43070,12,4,44706,3:0:0:0:
72,34,45252,6,0,P|120:45|150:146,1,132.029337361653,6|0,1:2|1:0,2:0:0:0:
162,193,45797,2,0,P|120:208|93:253,1,88.2346693522137,10|2,2:0|1:2,2:0:0:0:
10,252,46206,2,0,P|39:293|77:376,1,132.029337361653,2|2,1:2|1:2,2:0:0:0:
178,283,46888,1,10,2:0:0:0:
320,373,47161,1,2,1:2:0:0:
320,373,47297,1,2,1:2:0:0:
320,373,47434,6,0,P|333:306|322:245,1,88.2346693522137,0|0,1:0|1:0,2:0:0:0:
289,214,47843,1,0,1:0:0:0:
289,214,47979,1,8,2:0:0:0:
447,157,48252,2,0,B|342:147|382:233|268:210,1,176.146672037761,2|2,1:2|1:2,2:0:0:0:
186,62,49070,1,10,2:0:0:0:
255,129,49343,1,2,1:2:0:0:
255,129,49479,1,2,1:2:0:0:
255,129,49616,6,0,P|180:153|141:132,1,88.2346693522137,0|2,1:0|1:2,2:0:0:0:
113,114,50025,1,0,1:0:0:0:
113,114,50161,2,0,P|135:190|137:236,1,88.2346693522137,10|2,2:0|1:2,2:0:0:0:
88,253,50570,2,0,B|168:228|137:307|243:275,1,132.029337361653,2|2,1:2|1:2,2:0:0:0:
320,186,51252,1,10,2:0:0:0:
283,363,51525,1,2,1:2:0:0:
283,363,51661,1,2,1:2:0:0:
283,363,51797,6,0,P|340:321|384:338,1,88.2346693522137,0|0,1:0|1:0,2:0:0:0:
429,349,52206,1,0,1:0:0:0:
429,349,52343,2,0,P|481:336|493:279,1,88.2346693522137,8|2,2:0|1:2,2:0:0:0:
448,126,52888,5,0,1:0:0:0:
454,216,53161,1,2,1:2:0:0:
377,76,53434,5,10,2:0:0:0:
356,249,53706,1,2,1:2:0:0:
297,116,53979,6,0,B|224:110|239:177|154:160,1,132.029337361653,0|0,1:0|1:0,2:0:0:0:
120,118,54525,2,0,P|82:144|73:204,1,88.2346693522137,10|2,2:0|1:2,2:0:0:0:
28,246,54934,2,0,P|62:280|96:331,1,88.2346693522137,2|0,1:2|2:0,2:0:0:0:
138,364,55343,1,2,1:2:0:0:
248,273,55616,1,8,2:0:0:0:
368,366,55888,1,0,1:0:0:0:
447,329,56161,6,0,B|457:265|401:272|430:173,1,132.029337361653,0|0,1:0|1:0,2:0:0:0:
487,150,56706,2,0,P|451:118|400:130,1,88.2346693522137,10|2,2:0|1:2,2:0:0:0:
344,155,57116,2,0,P|277:158|249:136,1,88.2346693522137,2|2,1:2|2:0,2:0:0:0:
197,93,57525,1,2,1:2:0:0:
27,164,57797,1,8,2:0:0:0:
76,21,58070,1,2,1:2:0:0:
76,21,58206,1,2,1:2:0:0:
76,21,58343,6,0,L|82:115,1,88.2346693522137,2|2,1:2|1:2,2:0:0:0:
114,181,58752,1,2,1:2:0:0:
114,181,58888,2,0,P|168:172|225:213,1,88.2346693522137,8|2,2:0|1:2,2:0:0:0:
252,238,59297,2,0,B|325:253|306:180|404:197,1,132.029337361653,0|2,1:0|1:2,2:0:0:0:
488,267,59979,1,8,2:0:0:0:
406,361,60252,1,0,1:0:0:0:
406,361,60388,1,0,1:0:0:0:
406,361,60525,6,0,P|388:290|391:256,1,88.2346693522137,8|4,2:0|2:3,2:0:0:0:
418,208,60934,1,4,2:3:0:0:
418,208,61070,2,0,P|428:149|409:94,1,88.2346693522137,8|4,2:0|2:3,2:0:0:0:
341,22,61616,1,8,2:0:0:0:
266,136,61888,1,4,2:3:0:0:
268,157,62025,1,4,2:3:0:0:
271,179,62161,1,8,2:0:0:0:
168,30,62434,1,0,1:0:0:0:
81,167,62706,6,0,L|99:290,1,88.2346693522137,6|2,1:2|1:2,2:0:0:0:
64,324,63116,1,0,1:0:0:0:
64,324,63252,2,0,P|122:306|162:323,1,88.2346693522137,10|2,2:0|1:2,2:0:0:0:
209,358,63661,2,0,B|285:378|264:318|366:334,1,132.029337361653,2|2,1:2|1:2,2:0:0:0:
469,220,64343,1,10,2:0:0:0:
415,364,64616,1,2,1:2:0:0:
415,364,64752,1,2,1:2:0:0:
415,364,64888,6,0,P|415:307|389:271,1,88.2346693522137,0|0,1:0|1:0,2:0:0:0:
336,241,65297,1,0,1:0:0:0:
336,241,65434,2,0,P|313:185|344:142,1,88.2346693522137,8|2,2:0|1:2,2:0:0:0:
454,28,65979,1,0,1:0:0:0:
398,130,66252,1,2,1:2:0:0:
308,14,66525,1,10,2:0:0:0:
227,72,66797,1,2,1:2:0:0:
227,72,66934,1,2,1:2:0:0:
227,72,67070,6,0,B|150:65|188:137|81:122,1,132.029337361653,0|0,1:0|1:0,2:0:0:0:
44,88,67616,2,0,B|24:126|24:126|48:167,1,88.2346693522137,8|2,2:0|1:2,2:0:0:0:
116,210,68025,1,0,1:0:0:0:
116,210,68161,1,2,2:0:0:0:
90,350,68434,1,2,1:2:0:0:
225,376,68706,1,10,2:0:0:0:
324,211,68979,6,0,P|377:191|421:300,1,183.421338704427,6|0,1:2|1:0,2:0:0:0:
334,361,69820,1,8,2:0:0:0:
235,244,70093,1,0,1:0:0:0:
233,222,70229,1,0,1:0:0:0:
231,200,70365,1,0,1:0:0:0:
123,306,70638,1,0,1:0:0:0:
73,174,70888,1,10,2:0:0:0:
130,335,71160,1,2,1:2:0:0:
235,244,71433,6,0,P|301:241|331:291,1,88.000002685547,2|2,1:2|1:2,2:0:0:0:
364,307,71842,2,0,P|408:311|456:270,1,88.000002685547,2|2,1:2|2:0,2:0:0:0:
489,226,72251,2,0,B|520:121|447:166|488:40,1,176.469338704427,2|2,1:2|1:2,2:0:0:0:
300,6,73069,1,10,2:0:0:0:
379,170,73342,1,2,1:2:0:0:
379,170,73478,1,0,1:0:0:0:
379,170,73614,5,2,1:2:0:0:
200,97,73887,1,2,1:2:0:0:
322,0,74160,1,10,2:0:0:0:
272,176,74433,2,0,P|198:208|108:146,1,176.469338704427,6|0,1:2|1:0,2:0:0:0:
20,22,75251,2,0,P|52:81|38:122,1,88.000002685547,10|0,2:0|1:2,2:0:0:0:
9,171,75660,1,0,1:2:0:0:
9,171,75796,6,0,P|5:230|61:278,1,132.35200402832,2|2,1:2|1:2,2:0:0:0:
100,341,76342,2,0,P|141:323|206:347,1,88.000002685547,8|2,2:0|1:2,2:0:0:0:
264,153,76887,1,8,2:0:0:0:
290,265,77160,1,0,1:0:0:0:
294,286,77296,1,0,1:0:0:0:
299,308,77433,1,8,2:0:0:0:
360,191,77705,1,0,1:0:0:0:
364,212,77842,1,0,1:0:0:0:
369,233,77978,5,4,2:0:0:0:
452,54,79614,5,4,2:3:0:0:
368,181,80168,6,0,P|317:214|237:184,1,120.32,4|0,2:0|2:0,2:0:0:0:
250,195,80713,2,0,P|198:187|158:217,1,80.5066666666667,8|0,2:0|2:0,2:0:0:0:
110,294,81259,1,0,1:0:0:0:
93,208,81531,1,0,1:0:0:0:
78,123,81804,2,0,L|-17:143,1,80.5066666666667,8|0,2:0|2:0,2:0:0:0:
133,49,82350,6,0,B|186:57|186:57|197:71|197:71|266:79,1,120,0|0,1:0|2:0,2:0:0:0:
270,79,82895,2,0,P|283:109|258:175,1,80.5066666666667,8|0,2:0|2:0,2:0:0:0:
196,245,83441,1,0,1:0:0:0:
283,235,83713,1,0,1:0:0:0:
342,300,83986,2,0,L|432:286,1,80,8|0,2:0|2:0,2:0:0:0:
495,232,84531,5,4,1:3:0:0:
502,213,84668,1,4,2:3:0:0:
506,194,84804,1,4,2:3:0:0:
505,174,84941,1,4,2:3:0:0:
500,154,85077,1,4,2:0:0:0:
256,192,85213,12,0,88759,2:0:0:0:
