osu file format v14

[General]
AudioFilename: audio.mp3
AudioLeadIn: 0
PreviewTime: 46891
Countdown: 0
SampleSet: Soft
StackLeniency: 0.4
Mode: 0
LetterboxInBreaks: 0
WidescreenStoryboard: 0

[Editor]
DistanceSpacing: 1
BeatDivisor: 4
GridSize: 4
TimelineZoom: 1.9

[Metadata]
Title:Sayonara Bystander (TV Size)
TitleUnicode:さよならバイスタンダー (TV Size)
Artist:YUKI
ArtistUnicode:YUKI
Creator:Glaceon
Version:Insane
Source:3月のライオン
Tags:March comes in like a Sangatsu 3-gatsu no Lion anime female vocals japanese jpop j-pop pop op opening second 2nd
BeatmapID:2982769
BeatmapSetID:1450814

[Difficulty]
HPDrainRate:5
CircleSize:4
OverallDifficulty:8
ApproachRate:9
SliderMultiplier:1.8
SliderTickRate:1

[Events]
//Background and Video events
Video,0,"Rei-1.m4v"
0,0,"rei.jpg",0,0
//Break Periods
//Storyboard Layer 0 (Background)
//Storyboard Layer 1 (Fail)
//Storyboard Layer 2 (Pass)
//Storyboard Layer 3 (Foreground)
//Storyboard Layer 4 (Overlay)
//Storyboard Sound Samples

[TimingPoints]
2094,368.098159509202,4,2,22,50,1,0
2094,-111.111111111111,4,2,22,50,0,0
2462,352.941176470588,4,2,22,50,1,0
2814,368.098159509202,4,2,22,50,1,0
3182,377.358490566038,4,2,22,65,1,0
3370,-100,4,2,22,5,0,0
3559,377.358490566038,4,2,22,65,1,0
3559,-111.111111111111,4,2,22,65,0,0
4125,370.828182941904,4,2,22,65,1,0
4125,-111.111111111111,4,2,22,65,0,0
4681,368.098159509202,4,2,22,65,1,0
4681,-111.111111111111,4,2,22,65,0,0
5417,361.44578313253,4,2,22,65,1,0
5417,-111.111111111111,4,2,22,65,0,0
6501,367.534456355283,4,2,22,65,1,0
6501,-111.111111111111,4,2,22,65,0,0
7052,-111.111111111111,4,2,22,65,0,0
7971,387.096774193548,4,2,22,65,1,0
8164,361.44578313253,4,2,22,50,1,0
8164,-111.111111111111,4,2,22,50,0,0
8525,408.163265306122,4,2,22,60,1,0
8729,360.36036036036,4,2,22,60,1,0
8729,-111.111111111111,4,2,22,60,0,0
9089,368.098159509202,4,2,22,60,1,0
9457,371.517027863777,4,2,22,65,1,0
9457,-111.111111111111,4,2,22,65,0,0
10014,361.44578313253,4,2,22,65,1,0
10014,-111.111111111111,4,2,22,65,0,0
10736,368.098159509202,4,2,22,65,1,0
10736,-111.111111111111,4,2,22,65,0,0
11288,387.096774193548,4,2,22,65,1,0
11288,-111.111111111111,4,2,22,65,0,0
11675,357.142857142857,4,2,22,65,1,0
12020,-111.111111111111,4,2,22,65,0,0
12300,-111.111111111111,4,2,22,5,0,0
12389,372.670807453416,4,2,22,50,1,0
12389,-166.666666666667,4,2,22,50,0,0
13507,365.853658536585,4,2,22,50,1,0
13507,-166.666666666667,4,2,22,50,0,0
14604,362.537764350453,4,2,22,50,1,0
14604,-166.666666666667,4,2,22,50,0,0
15329,368.369351669941,4,2,22,50,1,0
15329,-166.666666666667,4,2,22,50,0,0
18275,368.098159509202,4,2,22,50,1,0
18275,-166.666666666667,4,2,22,50,0,0
20483,366.97247706422,4,2,22,50,1,0
20483,-166.666666666667,4,2,22,50,0,0
21216,368.098159509202,4,2,22,50,1,0
21216,-166.666666666667,4,2,22,50,0,0
22320,357.142857142857,4,2,22,50,1,0
22677,368.098159509202,4,2,22,55,1,0
22677,-125,4,2,22,55,0,0
23045,375,4,2,22,55,1,0
23045,-125,4,2,22,55,0,0
23420,-125,4,2,22,55,0,0
23795,352.941176470588,4,2,22,55,1,0
24147,368.098159509202,4,2,22,60,1,0
24147,-125,4,2,22,60,0,0
24699,-125,4,2,22,60,0,0
25619,372.670807453416,4,2,22,60,1,0
25619,-125,4,2,22,60,0,0
26737,361.44578313253,4,2,22,60,1,0
26737,-125,4,2,22,60,0,0
27098,375,4,2,22,60,1,0
27098,-125,4,2,22,60,0,0
27848,368.098159509202,4,2,22,60,1,0
27848,-125,4,2,22,60,0,0
28216,355.029585798817,4,2,22,60,1,0
28393,-137.931034482759,4,2,22,60,0,0
28571,379.746835443038,4,2,22,60,1,0
29330,368.098159509202,4,2,22,60,1,0
29882,-130.718954248366,4,2,22,60,0,0
30066,379.746835443038,4,2,22,60,1,0
30635,-119.047619047619,4,2,22,60,0,0
30825,363.636363636364,4,2,22,60,1,0
31370,-125,4,2,22,60,0,0
31552,368.098159509202,4,2,22,60,1,0
32104,-125,4,2,22,60,0,0
32656,359.281437125748,4,2,22,60,1,0
32656,-125,4,2,22,60,0,0
32925,-125,4,2,22,5,0,0
33015,368.098159509202,4,2,22,60,1,0
33015,-125,4,2,22,60,0,0
33751,361.44578313253,4,2,22,60,1,0
34112,337.078651685393,4,2,22,60,1,0
34449,375,4,2,22,60,1,0
34449,-125,4,2,22,60,0,0
35199,379.746835443038,4,2,22,60,1,0
35199,-125,4,2,22,60,0,0
35578,-125,4,2,22,60,0,0
35958,365.853658536585,4,2,22,55,1,0
35958,-142.857142857143,4,2,22,55,0,0
37055,359.281437125748,4,2,22,55,1,0
37593,-142.857142857143,4,2,22,55,0,0
37773,368.715701758159,4,2,22,55,1,0
37957,-142.857142857143,4,2,22,55,0,0
38510,365.853658536585,4,2,22,55,1,0
38875,368.098159509202,4,2,22,55,1,0
38875,-142.857142857143,4,2,22,55,0,0
39979,363.636363636364,4,2,22,55,1,0
40342,-125,4,2,22,55,0,0
41069,368.098159509202,4,2,22,55,1,0
41069,-125,4,2,22,55,0,0
41805,375,4,2,22,65,1,0
41805,-111.111111111111,4,2,22,65,0,0
42367,-111.111111111111,4,2,22,65,0,0
42930,365.853658536585,4,2,22,65,1,0
42930,-111.111111111111,4,2,22,65,0,0
43661,-111.111111111111,4,2,22,65,0,0
44027,368.098159509202,4,2,22,65,1,0
44395,-111.111111111111,4,2,22,65,0,0
44763,372.670807453416,4,2,22,65,1,0
44763,-111.111111111111,4,2,22,65,0,0
45322,-111.111111111111,4,2,22,65,0,0
45881,382.165605095541,4,2,22,65,1,0
46454,368.098159509202,4,2,22,50,1,0
46454,-166.666666666667,4,2,22,50,0,0
46822,350.877192982456,4,2,22,60,1,0
46997,361.44578313253,4,2,22,60,1,0
46997,-100,4,2,22,60,0,0
47539,368.098159509202,4,2,22,70,1,1
47723,368.098159509202,4,2,22,70,1,1
48827,364.741641337386,4,2,22,70,1,1
49556,368.098159509202,4,2,22,70,1,1
50660,368.098159509202,4,2,22,70,1,1
53604,372.670807453416,4,2,22,70,1,1
54908,368.098159509202,4,2,22,70,1,1
55092,368.098159509202,4,2,22,70,1,1
57852,365.853658536585,4,2,22,70,1,1
58034,365.853658536585,4,2,22,70,1,1
59314,375,4,2,22,70,1,1
59501,375,4,2,22,70,1,1
60063,-97.4658869395711,4,2,22,70,0,1
60251,364.741641337386,4,2,22,70,1,1
61252,-100,4,2,22,5,0,1
61345,370.37037037037,4,2,22,70,1,1
62270,368.098159509202,4,2,22,70,1,1
62454,368.098159509202,4,2,22,70,1,1
64478,361.44578313253,4,2,22,70,1,1
65200,372.670807453416,4,2,22,70,1,1
65759,368.098159509202,4,2,22,70,1,1
66679,361.44578313253,4,2,22,70,1,1
67221,368.098159509202,4,2,22,70,1,1
68141,365.853658536585,4,2,22,70,1,1
68323,365.853658536585,4,2,22,70,1,1
69420,368.098159509202,4,2,22,70,1,1
69788,368.098159509202,4,2,22,70,1,1
70892,352.941176470588,4,2,22,70,1,1
71244,372.670807453416,4,2,22,60,1,0
71244,-125,4,2,22,60,0,0
72734,365.853658536585,4,2,22,60,1,0
73465,368.098159509202,4,2,22,60,1,0
73465,-125,4,2,22,60,0,0
74201,375,4,2,22,60,1,0
74201,-125,4,2,22,60,0,0
74951,368.098159509202,4,2,22,60,1,0
75503,-125,4,2,22,60,0,0
75687,368.098159509202,4,2,22,60,1,0
75871,-125,4,2,22,60,0,0
76239,-122.699386503067,4,2,22,60,0,0
76423,361.44578313253,4,2,22,60,1,0
76784,348.837209302326,4,2,22,60,1,0
76784,-125,4,2,22,60,0,0
77132,375,4,2,22,60,1,0
77132,-125,4,2,22,60,0,0
77882,368.098159509202,4,2,22,60,1,0
77882,-125,4,2,22,60,0,0
78618,368.098159509202,4,2,22,60,1,0
79354,-125,4,2,22,60,0,0
81378,-125,4,2,22,60,0,0
81746,-125,4,2,22,60,0,0
81930,372.670807453416,4,2,22,60,1,0
82116,-125,4,2,22,60,0,0
82675,-125,4,2,22,60,0,0
82954,-125,4,2,22,5,0,0
83048,372.670807453416,4,2,22,60,1,0
83793,368.098159509202,4,2,22,65,1,0
84529,333.333333333333,4,2,22,55,1,0
84862,400,4,2,22,65,1,0
85262,366.97247706422,4,2,22,60,1,0
85628,-125,4,2,22,60,0,0
85995,368.098159509202,4,2,22,65,1,0
86547,-111.111111111111,4,2,22,65,0,0
88571,357.142857142857,4,2,22,65,1,0
88928,368.098159509202,4,2,22,65,1,0
89112,-111.111111111111,4,2,22,65,0,0
89296,384.615384615385,4,2,22,65,1,0
89488,338.983050847458,4,2,22,65,1,0
89488,-111.111111111111,4,2,22,65,0,0
89826,422.535211267606,4,2,22,65,1,0
90037,368.098159509202,4,2,22,65,1,0

[Colours]
Combo1 : 130,255,130
Combo2 : 255,113,113
Combo3 : 249,249,249
Combo4 : 255,194,166

[HitObjects]
256,192,2093,12,0,3370,0:0:0:0:
141,82,3559,5,6,1:2:0:0:
208,240,3747,1,2,1:2:0:0:
268,114,3936,1,10,0:0:0:0:
92,241,4125,2,0,P|103:310|188:353,1,161.999995056153,6|2,1:2|1:2,0:0:0:0:
363,247,4681,6,0,B|314:271|275:247|287:241|243:214|186:250,1,161.999995056153,6|0,1:2|1:2,0:0:0:0:
405,336,5233,1,8,0:0:0:0:
405,336,5325,1,8,0:0:0:0:
405,336,5417,2,0,L|421:166,1,161.999995056153,8|2,0:0|1:2,0:0:0:0:
317,78,5959,2,0,L|314:37,2,40.4999987640381,10|8|10,0:0|0:0|0:0,0:0:0:0:
442,20,6320,1,2,1:2:0:0:
508,206,6501,5,6,1:2:0:0:
422,133,6684,1,2,1:2:0:0:
314,237,6868,1,10,0:0:0:0:
187,97,7052,2,0,P|145:127|151:247,1,161.999995056153,6|2,1:2|1:2,0:0:0:0:
232,375,7603,5,2,1:2:0:0:
232,375,8164,2,0,L|239:311,4,40.4999987640381,2|2|2|2|2,0:0|0:0|0:0|0:0|0:0,0:0:0:0:
367,311,8729,5,10,3:2:0:0:
385,287,8819,1,8,3:0:0:0:
396,259,8909,1,8,3:0:0:0:
398,228,8999,1,8,3:0:0:0:
391,199,9089,2,0,L|382:81,1,90,10|0,3:2|0:0,0:0:0:0:
210,42,9457,5,6,1:2:0:0:
279,214,9642,1,2,1:2:0:0:
163,153,9828,1,10,0:0:0:0:
66,290,10014,2,0,L|49:113,1,161.999995056153,6|2,1:2|1:2,0:0:0:0:
106,0,10556,1,10,0:0:0:0:
255,125,10736,6,0,P|305:165|415:125,1,161.999995056153,6|0,1:2|1:2,0:0:0:0:
392,5,11288,2,0,P|358:27|340:91,1,80.9999975280763,8|0,0:0|0:0,0:0:0:0:
497,195,11675,5,2,1:2:0:0:
497,195,12032,2,0,P|459:156|370:156,1,121.499996292114,2|0,1:2|0:0,0:0:0:0:
375,156,12389,6,0,L|363:277,1,107.999996704102,2|0,0:0|0:0,0:0:0:0:
267,192,12948,2,0,L|279:313,1,107.999996704102,2|0,0:0|0:0,0:0:0:0:
169,223,13507,2,0,L|157:344,1,107.999996704102,2|0,0:0|0:0,0:0:0:0:
54,251,14055,2,0,L|66:372,1,107.999996704102,2|0,0:0|0:0,0:0:0:0:
244,383,14604,2,0,L|251:309,1,53.9999983520508,2|0,0:0|0:0,0:0:0:0:
153,276,14966,2,0,L|158:329,1,53.9999983520508,2|0,0:0|0:0,0:0:0:0:
340,330,15329,6,0,P|325:275|264:244,1,107.999996704102,2|0,1:2|0:0,0:0:0:0:
345,175,15881,2,0,P|293:151|230:177,1,107.999996704102,2|0,0:0|0:0,0:0:0:0:
229,71,16434,2,0,P|177:95|157:160,1,107.999996704102,2|0,0:0|0:0,0:0:0:0:
74,93,16986,2,0,P|59:148|96:205,1,107.999996704102,2|0,0:0|0:0,0:0:0:0:
224,241,17539,2,0,P|184:223|151:225,1,53.9999983520508,2|0,0:0|0:0,0:0:0:0:
102,289,17907,2,0,P|106:332|124:360,1,53.9999983520508,2|0,0:0|1:2,0:0:0:0:
249,384,18275,6,0,L|373:370,1,107.999996704102,2|0,1:2|0:0,0:0:0:0:
421,290,18827,2,0,L|297:276,1,107.999996704102,2|0,0:0|0:0,0:0:0:0:
249,196,19379,2,0,L|373:182,1,107.999996704102,2|0,0:0|0:0,0:0:0:0:
421,102,19931,2,0,L|313:89,1,107.999996704102,2|0,0:0|0:0,0:0:0:0:
199,35,20483,2,0,L|190:108,1,53.9999983520508,2|0,0:0|0:0,0:0:0:0:
105,147,20849,2,0,L|114:220,1,53.9999983520508,2|0,0:0|0:0,0:0:0:0:
68,319,21216,6,0,P|104:288|180:293,1,107.999996704102,2|0,1:2|0:0,0:0:0:0:
211,357,21768,1,2,0:0:0:0:
294,333,21952,1,2,0:0:0:0:
297,246,22136,1,2,0:0:0:0:
215,217,22320,1,2,0:0:0:0:
162,285,22498,1,2,0:0:0:0:
294,333,22677,6,0,L|382:327,1,72,0|2,1:2|0:0,0:0:0:0:
392,342,22953,1,8,0:0:0:0:
392,342,23045,2,0,P|418:315|422:250,1,72,8|0,3:2|0:0,0:0:0:0:
475,159,23420,2,0,L|380:149,1,72,10|10,3:2|0:0,0:0:0:0:
385,142,23701,1,10,0:0:0:0:
385,142,23795,1,10,0:0:0:0:
304,228,23971,1,0,1:2:0:0:
188,127,24147,6,0,L|259:119,1,72,6|2,1:2|0:0,0:0:0:0:
196,229,24515,1,10,0:0:0:0:
88,112,24699,2,0,P|62:169|106:250,1,144,2|0,0:0|1:2,0:0:0:0:
214,339,25251,1,10,0:0:0:0:
196,229,25435,1,2,0:0:0:0:
320,338,25619,6,0,L|424:329,1,72,2|2,1:2|0:0,0:0:0:0:
507,263,25991,2,0,P|486:219|374:197,1,144,10|2,0:0|0:0,0:0:0:0:
268,271,26550,1,0,1:2:0:0:
265,119,26737,2,0,P|296:156|299:204,1,72,10|0,0:0|0:0,0:0:0:0:
113,265,27098,5,2,1:2:0:0:
206,191,27285,1,2,0:0:0:0:
56,108,27473,2,0,L|42:204,1,72,10|0,0:0|0:0,0:0:0:0:
170,35,27848,2,0,L|184:131,1,72,2|0,0:0|1:2,0:0:0:0:
83,14,28216,1,10,0:0:0:0:
271,28,28393,6,0,B|303:68|303:68|282:181,1,135.000005149842,2|2,0:0|0:0,0:0:0:0:
129,306,28950,1,10,0:0:0:0:
206,191,29140,1,2,0:0:0:0:
326,239,29330,2,0,L|424:223,1,90,2|2,0:0|1:2,0:0:0:0:
286,159,29698,1,10,0:0:0:0:
197,321,29882,6,0,P|132:308|103:221,1,139.679997101367,2|0,0:0|0:0,0:0:0:0:
199,92,30445,1,10,0:0:0:0:
199,92,30635,2,0,L|180:261,1,147.600002252197,2|2,0:0|1:2,0:0:0:0:
42,180,31188,1,10,0:0:0:0:
143,38,31370,6,0,P|175:19|222:23,1,72,2|0,0:0|1:2,0:0:0:0:
284,171,31736,1,2,0:0:0:0:
196,99,31920,1,10,0:0:0:0:
342,115,32104,2,0,P|312:94|267:95,1,72,2|0,0:0|0:0,0:0:0:0:
386,191,32472,1,2,1:2:0:0:
466,65,32656,2,0,L|478:182,1,108,10|0,0:0|0:0,0:0:0:0:
481,197,33015,5,0,1:2:0:0:
481,197,33383,2,0,L|471:280,1,72,8|0,0:0|0:0,0:0:0:0:
402,364,33751,1,2,0:0:0:0:
300,242,33931,1,8,0:0:0:0:
241,324,34112,1,2,0:0:0:0:
387,276,34280,1,0,1:2:0:0:
219,182,34449,6,0,L|133:177,2,72,10|0|0,0:0|1:2|1:2,0:0:0:0:
361,148,35105,1,0,1:2:0:0:
361,148,35199,2,0,P|346:113|308:90,1,72,2|0,1:2|0:0,0:0:0:0:
245,0,35578,2,0,P|216:21|203:54,1,72,10|0,0:0|0:0,0:0:0:0:
296,234,35958,6,0,P|258:177|131:191,1,188.999994232178,4|0,1:2|1:2,0:0:0:0:
57,305,36689,2,0,L|191:289,1,125.999996154785,10|2,0:0|0:0,0:0:0:0:
182,290,37414,5,0,1:2:0:0:
311,375,37593,2,0,L|229:364,1,62.9999980773926,8|2,0:0|1:2,0:0:0:0:
199,199,37957,2,0,B|229:201|253:227|253:227|331:205,1,125.999996154785,0|0,1:2|1:2,0:0:0:0:
460,168,38510,1,10,0:0:0:0:
460,168,38875,6,0,P|433:106|362:87,1,125.999996154785,0|2,1:2|0:0,0:0:0:0:
267,111,39427,1,2,1:2:0:0:
170,15,39611,2,0,L|323:3,1,125.999996154785,8|2,0:0|0:0,0:0:0:0:
267,111,40160,1,2,0:0:0:0:
94,116,40342,6,0,P|129:121|158:142,1,72,0|8,1:2|0:0,0:0:0:0:
210,271,40706,1,2,1:2:0:0:
95,199,40888,1,2,1:2:0:0:
30,340,41069,2,0,P|65:334|94:313,1,72,0|2,1:2|1:2,0:0:0:0:
115,299,41345,1,0,1:2:0:0:
115,299,41437,1,2,1:2:0:0:
223,371,41621,1,0,1:2:0:0:
311,214,41805,6,0,L|412:204,2,80.9999975280763,6|0|8,1:2|1:2|0:0,0:0:0:0:
216,98,42367,2,0,P|238:39|346:21,1,161.999995056153,6|2,1:2|1:2,0:0:0:0:
498,183,42930,6,0,P|471:121|287:127,1,242.999992584229,14|2,0:0|1:2,0:0:0:0:
307,138,43570,1,8,0:0:0:0:
307,138,43661,2,0,L|296:243,1,80.9999975280763,10|2,0:0|0:0,0:0:0:0:
393,331,44027,1,0,1:2:0:0:
208,377,44211,1,10,0:0:0:0:
208,377,44303,1,8,0:0:0:0:
208,377,44395,2,0,L|198:266,1,80.9999975280763,10|2,0:0|0:0,0:0:0:0:
84,152,44763,6,0,P|40:197|39:232,1,80.9999975280763,4|0,1:2|1:2,0:0:0:0:
200,296,45135,1,10,0:0:0:0:
177,101,45322,2,0,P|247:136|270:212,1,161.999995056153,6|2,1:2|1:2,0:0:0:0:
88,324,45881,5,2,1:2:0:0:
88,324,46454,2,0,L|138:318,4,26.9999991760254,2|2|2|2|2,0:0|0:0|0:0|0:0|0:0,0:0:0:0:
201,258,46997,5,10,2:3:0:0:
284,290,47177,1,10,2:3:0:0:
367,323,47358,1,10,2:3:0:0:
493,217,47539,6,0,P|472:167|347:160,1,180,6|0,1:2|1:2,0:0:0:0:
201,258,48091,2,0,P|250:212|197:101,1,180,10|0,0:0|0:0,0:0:0:0:
53,50,48643,1,2,1:2:0:0:
165,175,48827,1,8,0:0:0:0:
287,47,49009,6,0,B|406:24|406:24|489:60,1,180,2|0,1:2|1:2,0:0:0:0:
494,224,49556,1,8,0:0:0:0:
396,116,49740,1,2,0:0:0:0:
376,317,49924,2,0,L|389:196,1,90,2|2,1:2|1:2,0:0:0:0:
500,351,50292,1,10,0:0:0:0:
283,376,50476,6,0,L|266:177,1,180,2|0,1:2|1:2,0:0:0:0:
334,38,51028,1,10,0:0:0:0:
160,4,51212,2,0,P|195:41|198:91,1,90,2|0,0:0|1:2,0:0:0:0:
99,186,51580,1,2,1:2:0:0:
282,101,51764,1,10,0:0:0:0:
54,105,51948,6,0,P|11:146|35:262,1,180,6|0,1:2|1:2,0:0:0:0:
230,320,52500,1,10,0:0:0:0:
99,186,52684,1,6,1:2:0:0:
282,101,52868,1,2,0:0:0:0:
199,229,53052,1,2,1:2:0:0:
328,341,53236,1,10,0:0:0:0:
119,384,53420,5,6,1:2:0:0:
300,239,53604,2,0,B|334:245|364:225|364:225|402:245|402:245|437:215|489:224,1,180,2|8,0:0|0:0,0:0:0:0:
328,341,54163,1,2,0:0:0:0:
246,147,54349,2,0,L|257:47,1,90,2|0,1:2|1:2,0:0:0:0:
407,157,54722,1,10,0:0:0:0:
206,246,54908,6,0,P|152:206|175:72,1,180,2|0,1:2|1:2,0:0:0:0:
373,34,55460,1,8,0:0:0:0:
373,34,55828,2,0,L|386:132,1,90,2|0,1:2|1:2,0:0:0:0:
417,291,56196,1,10,0:0:0:0:
206,246,56380,6,0,P|243:212|300:211,1,90,6|0,1:2|0:0,0:0:0:0:
398,383,56748,1,2,1:2:0:0:
278,291,56932,1,8,0:0:0:0:
512,220,57116,6,0,P|475:186|418:185,1,90,6|0,1:2|0:0,0:0:0:0:
266,384,57484,1,2,1:2:0:0:
435,271,57668,1,8,0:0:0:0:
255,123,57852,6,0,B|208:96|158:116|187:127|132:146|77:114,1,180,6|2,1:2|1:2,0:0:0:0:
28,315,58399,1,10,0:0:0:0:
218,218,58582,1,2,1:2:0:0:
136,36,58765,1,10,0:0:0:0:
121,266,58948,1,10,0:0:0:0:
121,266,59040,1,8,0:0:0:0:
121,266,59131,1,10,0:0:0:0:
347,90,59314,5,6,1:2:0:0:
347,90,59688,1,0,1:2:0:0:
182,132,59876,1,10,0:0:0:0:
303,265,60063,2,0,P|371:262|422:148,1,181.799996393738,2|2,0:0|1:2,0:0:0:0:
258,61,60615,1,10,0:0:0:0:
337,179,60798,1,2,0:0:0:0:
508,90,60980,6,0,P|453:57|366:81,1,135,2|0,0:0|0:0,0:0:0:0:
346,88,61345,1,8,0:0:0:0:
241,200,61530,1,2,0:0:0:0:
344,268,61715,2,0,L|334:140,1,90,2|0,1:2|1:2,0:0:0:0:
186,119,62085,1,10,0:0:0:0:
77,243,62270,6,0,P|79:296|191:359,1,180,2|0,1:2|1:2,0:0:0:0:
241,200,62822,1,10,0:0:0:0:
384,313,63006,2,0,L|294:303,1,90,2|0,0:0|1:2,0:0:0:0:
247,88,63374,1,2,1:2:0:0:
379,200,63558,1,10,0:0:0:0:
153,259,63742,6,0,B|117:216|117:216|140:87,1,180,6|0,1:2|1:2,0:0:0:0:
319,2,64294,1,10,0:0:0:0:
452,124,64478,1,6,1:2:0:0:
287,163,64658,1,2,0:0:0:0:
417,32,64839,1,2,1:2:0:0:
493,214,65020,1,10,0:0:0:0:
275,74,65200,5,6,1:2:0:0:
260,259,65386,2,0,P|235:318|122:332,1,180,2|8,0:0|0:0,0:0:0:0:
18,219,65943,1,2,0:0:0:0:
144,108,66127,2,0,L|163:219,1,90,2|0,1:2|1:2,0:0:0:0:
11,336,66495,1,10,0:0:0:0:
260,259,66679,6,0,B|331:254|331:254|359:272|359:272|461:259,1,180,2|0,1:2|1:2,0:0:0:0:
512,99,67221,1,8,0:0:0:0:
381,181,67405,1,2,0:0:0:0:
257,39,67589,2,0,L|247:142,1,90,2|0,1:2|0:0,0:0:0:0:
248,163,67865,1,8,0:0:0:0:
248,163,67957,1,10,0:0:0:0:
141,347,68141,6,0,P|91:313|89:247,1,90,6|0,1:2|0:0,0:0:0:0:
129,96,68505,1,2,1:2:0:0:
167,265,68688,1,8,0:0:0:0:
257,39,68871,6,0,P|307:73|309:139,1,90,6|0,1:2|0:0,0:0:0:0:
273,322,69237,1,2,1:2:0:0:
231,121,69420,1,8,0:0:0:0:
410,339,69604,6,0,P|458:308|457:165,1,180,6|2,1:2|1:2,0:0:0:0:
257,39,70156,1,10,0:0:0:0:
376,228,70340,1,2,0:0:0:0:
160,223,70524,1,2,1:2:0:0:
340,118,70708,1,2,1:2:0:0:
151,26,70892,1,10,0:0:0:0:
260,186,71068,1,2,1:2:0:0:
41,230,71244,6,0,P|46:173|136:120,1,144,4|0,1:2|0:0,0:0:0:0:
160,223,71803,1,2,1:2:0:0:
0,347,71989,2,0,L|143:356,1,144,10|2,0:0|0:0,0:0:0:0:
254,292,72548,1,2,1:2:0:0:
372,369,72734,5,0,1:2:0:0:
474,232,72916,1,8,0:0:0:0:
474,232,73282,1,2,1:2:0:0:
395,144,73465,2,0,B|313:130|343:193|238:158,1,144,10|2,0:0|0:0,0:0:0:0:
174,83,74017,1,2,1:2:0:0:
55,165,74201,6,0,B|70:190|92:203|92:203|73:306,1,144,0|0,1:2|0:0,0:0:0:0:
159,371,74763,1,2,1:2:0:0:
270,255,74951,1,10,0:0:0:0:
176,269,75135,1,2,0:0:0:0:
258,384,75319,1,2,0:0:0:0:
383,355,75503,6,0,L|393:270,1,72,2|0,0:0|1:2,0:0:0:0:
379,267,75779,1,2,0:0:0:0:
379,267,75871,2,0,L|369:182,1,72,10|0,0:0|0:0,0:0:0:0:
415,90,76239,2,0,P|385:137|293:146,1,145.80000355957,2|2,1:2|1:2,0:0:0:0:
345,0,76784,2,0,L|336:71,1,72,2|0,1:2|0:0,0:0:0:0:
191,158,77132,6,0,P|273:185|292:255,1,144,4|0,1:2|0:0,0:0:0:0:
187,274,77694,1,2,1:2:0:0:
83,141,77882,2,0,L|68:300,1,144,10|2,0:0|0:0,0:0:0:0:
144,377,78434,1,2,1:2:0:0:
267,305,78618,5,0,1:2:0:0:
432,375,78802,1,8,0:0:0:0:
432,375,79170,1,2,1:2:0:0:
505,256,79354,2,0,P|485:209|387:189,1,144,10|2,0:0|0:0,0:0:0:0:
269,173,79906,1,2,0:0:0:0:
216,308,80090,5,0,1:2:0:0:
53,212,80274,1,8,0:0:0:0:
53,212,80642,1,2,1:2:0:0:
138,67,80826,1,10,0:0:0:0:
147,164,81010,1,2,1:2:0:0:
55,121,81194,1,2,0:0:0:0:
217,27,81378,6,0,L|302:36,1,72,2|8,1:2|0:0,0:0:0:0:
321,151,81746,2,0,L|236:160,1,72,2|0,1:2|1:2,0:0:0:0:
390,69,82116,2,0,P|439:117|417:210,1,144,10|2,0:0|1:2,0:0:0:0:
344,353,82675,2,0,L|360:225,1,108,10|0,2:3|0:0,0:0:0:0:
362,221,83048,5,4,1:2:0:0:
121,62,84529,5,2,0:0:0:0:
37,153,85262,5,2,1:2:0:0:
103,263,85445,1,8,0:0:0:0:
103,263,85537,1,8,0:0:0:0:
103,263,85628,2,0,L|164:267,3,36,10|8|8|8,0:0|0:0|0:0|0:0,0:0:0:0:
165,254,85995,5,6,1:2:0:0:
282,162,86179,1,2,1:2:0:0:
348,248,86363,1,10,0:0:0:0:
459,148,86547,2,0,P|511:210|499:291,1,161.999995056153,6|2,1:2|1:2,0:0:0:0:
369,378,87099,1,10,0:0:0:0:
232,296,87283,6,0,B|168:290|168:290|148:309|148:309|66:304,1,161.999995056153,6|0,1:2|1:2,0:0:0:0:
16,171,87835,2,0,L|115:156,1,80.9999975280763,8|0,0:0|0:0,0:0:0:0:
127,157,88111,1,8,0:0:0:0:
127,157,88203,1,2,1:2:0:0:
253,57,88387,1,2,1:2:0:0:
138,44,88571,1,10,0:0:0:0:
246,168,88749,5,10,0:0:0:0:
246,168,88838,1,8,0:0:0:0:
246,168,88928,1,6,1:2:0:0:
362,68,89112,2,0,L|366:16,2,40.4999987640381,2|8|0,0:0|0:0|1:2,0:0:0:0:
475,202,89488,2,0,B|500:238|500:238|477:310|477:310|460:291|426:284,1,161.999995056153,6|2,1:2|1:2,0:0:0:0:
297,316,90037,5,6,1:2:0:0:
