osu file format v14

[General]
AudioFilename: audio.mp3
AudioLeadIn: 0
PreviewTime: 51156
Countdown: 0
SampleSet: Soft
StackLeniency: 0.7
Mode: 0
LetterboxInBreaks: 0
WidescreenStoryboard: 0

[Editor]
Bookmarks: 16555,28426,40205,51984,75542,84377,96156,107935,121095,127076,144653,153579
DistanceSpacing: 0.8
BeatDivisor: 4
GridSize: 4
TimelineZoom: 2.2

[Metadata]
Title:Sayonara Bystander
TitleUnicode:さよならバイスタンダー
Artist:YUKI
ArtistUnicode:YUKI
Creator:Milan-
Version:pishi's Insane
Source:3月のライオン
Tags:pishifat March comes in like a Sangatsu 3-gatsu no Lion
BeatmapID:1453786
BeatmapSetID:678610

[Difficulty]
HPDrainRate:6
CircleSize:4
OverallDifficulty:8
ApproachRate:9
SliderMultiplier:2
SliderTickRate:1

[Events]
//Background and Video events
0,0,"[HorribleSubs] 3-gatsu no Lion - 01 [720p].mkv_snapshot_03.48_[2017.07.04_19.53.17].png",0,0
//Break Periods
//Storyboard Layer 0 (Background)
//Storyboard Layer 1 (Fail)
//Storyboard Layer 2 (Pass)
//Storyboard Layer 3 (Foreground)
//Storyboard Sound Samples

[TimingPoints]
543,368.098159509202,4,2,0,20,1,0
543,-200,4,2,0,20,0,0
911,-153.846153846154,4,2,0,25,0,0
1279,-125,4,2,0,30,0,0
1647,-105.263157894737,4,2,0,35,0,0
1831,-90.9090909090909,4,2,0,40,0,0
2015,-100,4,2,0,70,0,1
2567,-133.333333333333,4,2,0,70,0,1
2843,-133.333333333333,4,2,0,5,0,1
2935,-133.333333333333,4,2,0,70,0,1
3119,-100,4,2,0,70,0,1
5512,-133.333333333333,4,2,0,70,0,1
5788,-133.333333333333,4,2,0,5,0,1
5880,-100,4,2,0,70,0,1
6064,-100,4,2,0,70,0,0
6156,-100,4,2,0,5,0,0
6616,-200,4,2,0,40,0,0
7168,-200,4,2,0,70,0,0
7904,-100,4,2,0,70,0,1
8457,-133.333333333333,4,2,0,70,0,1
8733,-133.333333333333,4,2,0,5,0,1
8825,-133.333333333333,4,2,0,70,0,1
9193,-100,4,2,0,70,0,1
11401,-133.333333333333,4,2,0,70,0,1
12138,-100,4,2,0,70,0,1
14346,-133.333333333333,4,2,0,70,0,1
14622,-133.333333333333,4,2,0,5,0,1
14714,-133.333333333333,4,2,0,70,0,1
14898,-153.846153846153,4,2,0,70,0,1
15174,-153.846153846153,4,2,0,31,0,1
15266,-153.846153846153,4,2,0,70,0,1
15450,-133.333333333333,4,2,0,70,0,1
15635,-117.647058823529,4,2,0,70,0,1
15819,-105.263157894737,4,2,0,70,0,1
16003,-105.263157894737,4,2,0,70,0,0
16371,-100,4,2,0,70,0,1
16647,-100,4,2,0,5,0,1
16739,-200,4,2,0,50,0,0
19316,-166.666666666667,4,2,0,50,0,0
19592,-200,4,2,0,5,0,0
19684,-200,4,2,0,50,0,0
27046,-166.666666666667,4,2,0,55,0,0
27782,-133.333333333333,4,2,0,55,0,0
28518,-133.333333333333,4,2,0,55,0,0
33671,-117.647058823529,4,2,0,55,0,0
33947,-105.263157894737,4,2,0,55,0,0
34776,-133.333333333333,4,2,0,55,0,0
40297,-153.846153846153,4,2,0,62,0,0
45450,-133.333333333333,4,2,0,62,0,0
46187,-117.647058823529,4,2,0,62,0,0
47015,-117.647058823529,4,2,0,5,0,0
47107,-117.647058823529,4,2,0,62,0,0
49131,-105.263157894737,4,2,0,62,0,0
49684,-95.2380952380954,4,2,0,70,0,0
50236,-86.9565217391304,4,2,0,70,0,0
50420,-86.9565217391304,4,2,0,5,0,0
50788,-200,4,2,0,40,0,0
51340,-200,4,2,0,60,0,0
51892,-90.9090909090909,4,2,0,80,0,1
60727,-125,4,2,0,80,0,1
61003,-125,4,2,0,5,0,1
61095,-125,4,2,0,80,0,1
61463,-100,4,2,0,80,0,1
61739,-100,4,2,0,5,0,1
61831,-100,4,2,0,80,0,1
62199,-83.3333333333333,4,2,0,80,0,1
63119,-90.9090909090909,4,2,0,80,0,0
63671,-90.9090909090909,4,2,0,80,0,1
72506,-125,4,2,0,80,0,1
72782,-125,4,2,0,5,0,1
72874,-125,4,2,0,80,0,1
73242,-100,4,2,0,80,0,1
73518,-100,4,2,0,5,0,1
73610,-100,4,2,0,80,0,1
73978,-83.3333333333333,4,2,0,80,0,1
75635,-153.846153846153,4,2,0,70,0,0
81340,-153.846153846153,4,2,0,55,0,0
81432,-153.846153846153,4,2,0,70,0,0
82996,-153.846153846153,4,2,0,40,0,0
83089,-153.846153846153,4,2,0,55,0,0
83917,-133.333333333333,4,2,0,40,0,0
84101,-105.263157894737,4,2,0,50,0,0
84285,-86.9565217391303,4,2,0,60,0,0
84469,-100,4,2,0,70,0,1
85021,-133.333333333333,4,2,0,70,0,1
85297,-133.333333333333,4,2,0,5,0,1
85389,-133.333333333333,4,2,0,70,0,1
85573,-100,4,2,0,70,0,1
87966,-133.333333333333,4,2,0,70,0,1
88242,-133.333333333333,4,2,0,5,0,1
88334,-133.333333333333,4,2,0,70,0,1
88518,-100,4,2,0,70,0,1
90911,-133.333333333333,4,2,0,70,0,1
91187,-133.333333333333,4,2,0,5,0,1
91279,-133.333333333333,4,2,0,70,0,1
91371,-100,4,2,0,70,0,1
93855,-133.333333333333,4,2,0,70,0,1
94131,-133.333333333333,4,2,0,5,0,1
94223,-133.333333333333,4,2,0,70,0,1
94408,-100,4,2,0,70,0,0
94500,-86.9565217391303,4,2,0,5,0,0

[Colours]
Combo1 : 175,101,148
Combo2 : 91,191,114
Combo3 : 166,123,191
Combo4 : 90,119,171

[HitObjects]
483,382,543,6,0,P|492:374|505:361,3,25,2|0|0|0,0:0|0:0|0:0|0:0,0:0:0:0:
446,286,911,2,0,P|443:306|437:322,3,32.4999985122681,2|0|0|0,0:0|0:0|0:0|0:0,0:0:0:0:
336,316,1279,2,0,P|356:300|388:267,3,40,2|0|0|0,0:0|0:0|0:0|0:0,0:0:0:0:
311,196,1647,2,0,P|308:220|298:249,1,47.4999987316132,2|0,0:0|0:0,0:0:0:0:
187,249,1831,2,0,P|212:232|235:203,1,55.0000016784668,2|0,0:0|0:0,0:0:0:0:
105,33,2015,5,4,0:0:0:0:
100,112,2199,1,0,0:0:0:0:
155,169,2383,1,0,1:0:0:0:
328,36,2567,6,0,L|208:76,1,112.500004291535,4|0,0:0|0:0,0:0:0:0:
207,77,2935,1,2,0:0:0:0:
472,201,3119,6,0,B|447:127|381:107|381:107|288:138,1,200,4|0,0:0|0:0,0:0:0:0:
331,366,3671,1,0,3:0:0:0:
342,359,3763,1,0,3:0:0:0:
352,354,3855,5,0,1:0:0:0:
357,316,3947,1,0,1:0:0:0:
362,279,4039,1,0,1:0:0:0:
367,242,4131,1,0,1:0:0:0:
372,205,4223,6,0,L|295:232,1,50,0|0,1:0|3:0,0:0:0:0:
247,239,4408,1,0,1:0:0:0:
198,224,4500,1,0,1:0:0:0:
151,210,4592,1,0,1:0:0:0:
74,233,4776,1,0,3:0:0:0:
177,30,4960,5,4,0:0:0:0:
249,62,5144,1,0,0:0:0:0:
274,136,5328,1,0,1:0:0:0:
54,88,5512,6,0,L|174:128,1,112.500004291535,4|0,0:0|0:0,0:0:0:0:
176,131,5880,1,2,0:0:0:0:
26,248,6064,6,0,L|79:230,1,50,4|0,0:0|0:0,0:0:0:0:
148,264,6616,6,0,L|176:276,4,25,2|0|0|0|2,0:0|0:0|0:0|0:0|0:0,0:0:0:0:
246,308,7168,5,0,1:0:0:0:
280,293,7260,1,0,1:0:0:0:
314,279,7352,1,0,3:0:0:0:
322,286,7444,1,0,3:0:0:0:
329,294,7536,2,0,P|370:299|401:327,1,75,8|0,0:3|0:0,0:0:0:0:
400,328,7904,5,4,0:0:0:0:
465,281,8089,1,0,0:0:0:0:
453,201,8273,1,0,1:0:0:0:
408,47,8457,6,0,L|381:156,1,112.500004291535,4|0,0:0|0:0,0:0:0:0:
378,170,8825,1,2,0:0:0:0:
317,79,9009,1,0,1:0:0:0:
143,121,9193,6,0,B|195:94|245:126|245:126|267:228,1,200,4|0,0:2|0:0,0:0:0:0:
117,338,9745,1,0,1:0:0:0:
229,294,9929,2,0,L|211:360,1,50,0|0,3:0|3:0,0:0:0:0:
210,360,10113,6,0,L|183:262,1,100,2|0,0:0|0:0,0:0:0:0:
112,25,10481,2,0,L|85:121,1,100,0|0,1:0|1:0,0:0:0:0:
74,159,10757,1,0,1:0:0:0:
65,198,10849,5,4,0:0:0:0:
96,270,11033,1,0,0:0:0:0:
45,332,11217,1,0,1:0:0:0:
296,251,11401,6,0,L|159:285,1,112.500004291535,4|0,0:0|0:0,0:0:0:0:
172,282,11769,1,2,0:0:0:0:
215,186,11954,1,0,1:0:0:0:
358,370,12138,6,0,L|260:347,1,100,4|0,0:0|0:0,0:0:0:0:
437,156,12506,2,0,L|340:178,1,100,2|0,0:0|1:0,0:0:0:0:
472,337,12874,1,8,0:3:0:0:
470,297,12966,1,8,0:3:0:0:
441,269,13058,1,8,0:3:0:0:
362,285,13242,1,4,0:3:0:0:
322,275,13334,1,4,0:3:0:0:
283,266,13426,1,4,0:3:0:0:
205,286,13610,1,4,0:3:0:0:
99,93,13794,5,4,0:0:0:0:
144,228,13978,1,4,0:3:0:0:
155,149,14162,1,8,0:3:0:0:
18,311,14346,6,0,L|33:199,1,112.500004291535,4|0,0:0|0:0,0:0:0:0:
36,185,14714,1,2,0:0:0:0:
209,291,14898,6,0,P|260:292|310:271,1,97.4999955368044,4|0,0:0|0:0,0:0:0:0:
302,275,15266,6,0,L|308:232,1,32.4999985122681,2|0,0:0|0:0,0:0:0:0:
323,223,15450,2,0,L|327:260,1,37.5000014305115,2|0,0:0|0:0,0:0:0:0:
345,297,15635,2,0,L|350:253,1,42.5000008106232,2|0,0:0|0:0,0:0:0:0:
366,205,15819,2,0,L|371:252,1,47.4999987316132,2|0,0:0|0:0,0:0:0:0:
450,272,16003,5,0,1:0:0:0:
228,278,16371,6,0,B|302:293|294:235|371:252,1,150,0|0,1:0|0:0,0:0:0:0:
450,272,16739,6,0,P|453:303|466:337,2,50,4|0|0,0:3|0:0|0:0,0:0:0:0:
493,204,17291,1,2,0:0:0:0:
506,209,17475,1,0,0:0:0:0:
401,101,17843,6,0,P|407:76|409:52,2,50,2|0|0,0:0|0:0|0:0,0:0:0:0:
319,146,18395,2,0,P|317:121|310:97,1,50,2|0,0:0|0:0,0:0:0:0:
298,85,18763,1,0,0:0:0:0:
221,61,18947,1,2,0:0:0:0:
91,8,19316,6,2,P|86:52|67:93,1,89.9999972534181,2|0,0:0|0:0,0:0:0:0:
59,108,19684,6,0,P|83:101|108:102,2,50,4|0|0,0:3|0:0|0:0,0:0:0:0:
2,166,20236,1,2,0:0:0:0:
7,179,20420,1,0,0:0:0:0:
216,171,20788,6,0,P|191:164|166:165,2,50,2|0|0,0:0|0:0|0:0,0:0:0:0:
259,250,21340,2,0,P|234:249|209:255,2,50,2|0|0,0:0|0:0|0:0,0:0:0:0:
334,288,21892,2,0,P|358:294|383:293,1,50,2|0,0:0|0:0,0:0:0:0:
455,252,22260,1,2,0:0:0:0:
362,193,22444,1,4,0:3:0:0:
459,141,22628,1,4,0:3:0:0:
282,24,22996,5,0,0:0:0:0:
225,81,23181,1,2,0:0:0:0:
212,86,23365,1,0,0:0:0:0:
295,231,23733,6,0,P|292:262|279:296,2,50,2|0|0,0:0|0:0|0:0,0:0:0:0:
252,163,24285,1,2,0:0:0:0:
239,168,24469,1,0,0:0:0:0:
225,173,24653,1,0,0:0:0:0:
146,142,24837,2,0,P|139:117|137:93,1,50,2|0,0:0|0:0,0:0:0:0:
179,24,25205,1,2,0:0:0:0:
275,77,25389,1,4,0:3:0:0:
225,173,25573,1,4,0:3:0:0:
392,251,26125,5,2,0:3:0:0:
501,241,26309,1,2,0:3:0:0:
442,186,26493,1,2,0:3:0:0:
425,107,26677,1,2,0:3:0:0:
451,31,26862,1,2,0:3:0:0:
351,75,27046,6,0,P|317:70|272:58,1,59.9999981689454,4|0,0:3|3:0,0:0:0:0:
262,50,27322,1,0,1:0:0:0:
233,34,27414,2,0,L|223:-8,3,29.9999990844727,0|0|0|0,3:0|3:0|3:0|3:0,3:0:0:0:
150,38,27782,6,0,P|140:80|139:140,1,75.0000028610231,4|0,0:3|0:0,0:0:0:0:
146,151,28058,1,0,1:0:0:0:
160,189,28150,1,0,1:0:0:0:
122,260,28334,1,4,0:3:0:0:
190,372,28518,6,0,P|226:370|273:355,1,75.0000028610231,4|0,0:0|0:0,0:0:0:0:
326,312,28886,1,0,1:0:0:0:
413,350,29070,1,2,0:0:0:0:
433,173,29438,5,4,0:3:0:0:
379,234,29622,2,0,P|343:232|296:217,1,75.0000028610231,2|0,1:2|0:0,0:0:0:0:
244,145,29990,2,0,P|281:142|317:132,1,75.0000028610231,4|0,0:3|0:0,0:0:0:0:
374,71,30358,1,0,1:0:0:0:
379,54,30542,1,0,0:0:0:0:
266,61,30727,2,0,P|228:58|192:48,1,75.0000028610231,2|0,0:0|0:0,0:0:0:0:
317,131,31095,2,2,P|281:142|243:144,1,75.0000028610231,2|0,1:2|0:0,0:0:0:0:
121,94,31463,6,0,P|123:131|133:167,1,75.0000028610231,4|0,0:3|0:0,0:0:0:0:
188,227,31831,1,0,1:0:0:0:
40,237,32015,1,2,0:0:0:0:
30,224,32199,2,0,P|32:186|42:150,1,75.0000028610231
140,13,32567,5,2,1:2:0:0:
121,94,32751,2,0,P|123:131|133:167,1,75.0000028610231,2|4,0:2|0:3,0:0:0:0:
216,128,33119,1,2,0:0:0:0:
206,115,33303,2,0,P|208:77|218:41,1,75.0000028610231,0|0,1:0|0:0,0:0:0:0:
323,176,33671,2,0,P|301:133|290:87,1,85.0000016212464,2|0,0:0|0:0,0:0:0:0:
458,171,34039,2,0,P|419:145|386:111,1,94.9999974632264,2|0,1:2|0:0,0:0:0:0:
473,81,34408,1,4,0:3:0:0:
412,290,34776,5,0,1:0:0:0:
313,251,34960,1,2,0:0:0:0:
63,344,35328,5,4,0:3:0:0:
141,321,35512,1,0,1:0:0:0:
204,371,35696,2,0,P|240:360|277:358,1,75.0000028610231,0|4,0:0|0:3,0:0:0:0:
357,372,36064,1,0,0:3:0:0:
365,384,36248,1,0,1:0:0:0:
275,227,36432,2,0,P|312:229|348:239,1,75.0000028610231,2|0,0:0|0:0,0:0:0:0:
415,285,36800,1,4,0:3:0:0:
394,106,36984,2,0,P|428:120|458:142,1,75.0000028610231,2|0,1:2|0:0,0:0:0:0:
498,213,37352,1,4,0:3:0:0:
297,38,37720,5,0,1:0:0:0:
210,107,37904,1,2,0:0:0:0:
194,99,38089,2,0,P|157:101|121:111,1,75.0000028610231,0|0,0:0|1:0,0:0:0:0:
26,218,38457,1,2,0:0:0:0:
107,332,38641,1,4,0:3:0:0:
201,226,38825,5,0,1:0:0:0:
278,249,39009,1,4,0:3:0:0:
354,272,39193,2,0,L|442:282,1,75.0000028610231,8|4,0:3|0:3,0:0:0:0:
435,292,39469,1,4,0:3:0:0:
440,301,39561,1,4,0:3:0:0:
491,236,39745,1,4,0:3:0:0:
450,148,39929,1,8,1:3:0:0:
508,53,40113,1,8,3:3:0:0:
508,53,40297,6,0,P|465:7|395:4,1,129.999994049073,4|0,0:0|0:0,0:0:0:0:
328,30,40849,1,4,0:3:0:0:
256,146,41033,1,0,1:0:0:0:
256,146,41401,2,0,P|212:155|187:183,1,64.9999970245363,2|0,0:0|0:0,0:0:0:0:
162,293,41769,5,4,0:3:0:0:
216,349,41954,1,0,1:0:0:0:
291,328,42138,2,0,P|335:337|360:365,2,64.9999970245363
216,349,42690,1,4,0:3:0:0:
162,293,42874,1,0,1:0:0:0:
86,312,43058,1,0,0:0:0:0:
54,185,43242,6,0,P|97:139|167:136,1,129.999994049073,4|0,0:3|0:0,0:0:0:0:
233,162,43794,1,4,0:3:0:0:
347,285,43978,1,0,1:0:0:0:
419,256,44162,2,0,P|437:229|440:197,1,64.9999970245363,2|0,0:0|0:0,0:0:0:0:
394,133,44530,1,0,0:0:0:0:
233,162,44714,5,4,0:3:0:0:
269,231,44898,1,0,1:0:0:0:
311,165,45082,2,0,P|307:132|289:106,1,64.9999970245363,2|0,0:0|0:0,0:0:0:0:
177,25,45450,6,0,P|173:57|150:92,1,75.0000028610231,2|8,0:3|0:3,0:0:0:0:
123,105,45727,1,8,0:3:0:0:
93,108,45819,1,4,0:3:0:0:
20,73,46003,1,4,0:3:0:0:
49,216,46187,6,0,P|90:240|150:242,1,85.0000016212464,4|0,0:0|0:0,0:0:0:0:
210,232,46555,1,0,1:0:0:0:
102,355,46739,2,0,P|179:357|228:372,1,127.50000243187,4|0,0:0|0:0,0:0:0:0:
244,376,47107,1,0,0:0:0:0:
210,232,47291,2,0,P|257:216|291:187,1,85.0000016212464,0|0,1:0|0:0,0:0:0:0:
343,41,47659,6,0,P|333:89|341:133,1,85.0000016212464,2|0,0:0|3:0,0:0:0:0:
360,158,47935,1,0,1:0:0:0:
395,176,48027,1,0,1:0:0:0:
493,246,48211,1,4,0:3:0:0:
452,247,48303,1,4,0:3:0:0:
419,269,48395,1,4,0:3:0:0:
306,332,48579,1,0,1:0:0:0:
328,288,48671,1,0,1:0:0:0:
326,240,48763,1,0,1:0:0:0:
238,266,48947,1,4,0:3:0:0:
114,160,49131,6,0,P|113:119|136:66,1,94.9999974632264,4|0,0:0|0:0,0:0:0:0:
202,25,49500,1,0,1:0:0:0:
419,269,49684,6,0,P|418:221|392:166,1,104.999996795654,4|0,0:3|0:0,0:0:0:0:
337,109,50052,1,4,0:3:0:0:
117,358,50236,6,0,P|116:317|146:247,1,115.000002193451,4|0,0:0|0:0,0:0:0:0:
228,273,50788,6,0,L|250:263,4,25,2|0|0|0|2,0:0|0:0|0:0|0:0|0:0,0:0:0:0:
273,344,51340,5,0,1:0:0:0:
343,337,51524,1,0,1:0:0:0:
412,329,51708,1,0,1:0:0:0:
243,177,51892,6,0,B|360:147|332:240|452:211,1,220.000006713867,4|0,0:0|0:0,0:0:0:0:
280,277,52444,2,0,B|315:158|381:229|414:113,1,220.000006713867,2|0,1:2|0:0,0:0:0:0:
269,7,52996,2,0,P|303:49|317:102,1,110.000003356934,2|0,0:2|1:0,0:0:0:0:
148,297,53365,6,0,P|210:193|210:47,1,220.000006713867,2|0,0:2|0:0,0:0:0:0:
50,36,53917,1,0,1:0:0:0:
219,96,54101,5,2,0:0:0:0:
135,70,54285,1,2,0:0:0:0:
63,126,54469,1,2,0:0:0:0:
154,184,54653,1,0,1:0:0:0:
61,312,54837,6,0,P|152:280|253:369,1,220.000006713867,4|0,0:0|0:0,0:0:0:0:
410,229,55389,1,0,1:0:0:0:
410,229,55573,2,0,P|326:267|303:322,1,110.000003356934,2|0,0:0|0:0,0:0:0:0:
140,86,55941,5,2,0:0:0:0:
224,203,56125,1,0,1:0:0:0:
460,20,56309,6,0,P|362:67|313:163,1,220.000006713867,4|0,0:0|0:0,0:0:0:0:
313,163,56862,1,0,1:0:0:0:
140,86,57046,5,4,0:0:0:0:
0,149,57230,2,0,P|53:154|124:211,1,110.000003356934,2|0,0:0|0:0,0:0:0:0:
150,285,57598,1,0,1:0:0:0:
419,167,57782,5,4,0:0:0:0:
497,259,57966,2,0,P|377:285|308:351,1,220.000006713867,2|0,0:0|1:0,0:0:0:0:
227,113,58518,5,2,0:0:0:0:
151,178,58702,2,0,P|138:226|160:302,1,110.000003356934,2|0,0:0|0:0,0:0:0:0:
133,82,59070,1,0,1:0:0:0:
229,337,59254,6,0,P|349:311|418:245,1,220.000006713867,4|0,0:0|0:0,0:0:0:0:
149,284,59806,2,0,P|57:246|39:216,1,110.000003356934,0|0,1:0|0:0,0:0:0:0:
413,147,60174,2,0,P|410:57|381:12,1,110.000003356934,4|0,0:0|1:0,0:0:0:0:
362,10,60450,1,0,1:0:0:0:
313,18,60542,1,0,1:0:0:0:
196,159,60727,6,0,B|136:170|136:170|88:135,1,120,4|0,0:0|0:0,0:0:0:0:
88,135,61095,1,4,0:3:0:0:
156,83,61279,1,0,1:0:0:0:
176,300,61463,6,0,B|115:254|115:254|39:266,1,150,4|0,0:0|0:0,0:0:0:0:
42,265,61831,1,4,0:3:0:0:
92,345,62015,1,0,1:0:0:0:
156,83,62199,5,4,0:0:0:0:
127,214,62383,1,0,1:0:0:0:
413,118,62567,5,4,0:0:0:0:
221,21,62751,1,0,1:0:0:0:
233,236,62935,2,0,P|272:253|320:246,1,59.9999981689454,0|0,1:0|1:0,1:0:0:0:
367,218,63119,5,0,1:0:0:0:
402,204,63211,1,0,1:0:0:0:
442,208,63303,1,0,1:0:0:0:
475,227,63395,1,0,1:0:0:0:
496,258,63487,1,0,1:0:0:0:
251,373,63671,6,0,B|222:253|315:281|285:164,1,220.000006713867,4|0,0:0|0:0,0:0:0:0:
248,5,64223,1,0,1:0:0:0:
402,31,64408,2,0,P|342:44|298:88,1,110.000003356934,2|0,0:0|0:0,0:0:0:0:
198,205,64776,1,2,0:2:0:0:
56,82,64960,2,0,P|115:95|159:139,1,110.000003356934,0|0,1:0|0:0,0:0:0:0:
100,328,65328,6,0,P|176:251|283:231,1,220.000006713867,2|0,0:0|1:0,0:0:0:0:
370,258,65880,1,2,0:0:0:0:
426,95,66064,2,0,P|445:176|419:235,1,110.000003356934,2|0,0:0|0:0,0:0:0:0:
304,321,66432,1,0,1:0:0:0:
184,53,66616,6,0,P|322:113|355:183,1,220.000006713867,2|0,0:0|0:0,0:0:0:0:
175,143,67168,1,0,1:0:0:0:
213,231,67352,5,8,0:3:0:0:
199,272,67444,1,8,0:3:0:0:
161,295,67536,1,8,0:3:0:0:
270,155,67720,1,4,0:3:0:0:
312,146,67812,1,4,0:3:0:0:
351,168,67904,1,4,0:3:0:0:
203,377,68089,6,0,B|83:406|111:313|-6:343,1,220.000006713867,4|0,0:0|0:0,0:0:0:0:
161,295,68641,1,0,1:0:0:0:
113,103,68825,5,6,0:0:0:0:
16,221,69009,2,0,P|64:194|119:193,1,110.000003356934,2|0,0:0|0:0,0:0:0:0:
256,283,69377,1,0,1:0:0:0:
427,171,69561,5,4,0:0:0:0:
501,263,69745,2,0,P|447:258|318:376,1,220.000006713867,2|0,0:0|1:0,0:0:0:0:
391,85,70297,5,2,0:0:0:0:
335,163,70481,2,0,P|257:184|195:156,1,110.000003356934,2|0,0:0|0:0,0:0:0:0:
427,171,70849,1,0,1:0:0:0:
251,287,71033,6,0,P|157:234|121:132,1,220.000006713867,2|0,0:0|0:0,0:0:0:0:
305,360,71585,2,0,P|356:341|393:301,1,110.000003356934,0|0,1:0|0:0,0:0:0:0:
50,77,71954,2,0,P|76:29|121:0,1,110.000003356934,4|0,0:0|1:0,0:0:0:0:
164,9,72230,1,0,1:0:0:0:
193,41,72322,1,0,1:0:0:0:
316,159,72506,6,0,B|376:170|376:170|424:135,1,120,4|0,0:0|0:0,0:0:0:0:
423,135,72874,2,0,P|435:115|440:83,1,40,0|0,1:0|1:0,0:0:0:0:
353,77,73058,1,0,1:0:0:0:
336,300,73242,6,0,B|397:254|397:254|473:264,1,150,4|0,0:0|0:0,0:0:0:0:
469,263,73610,1,4,0:3:0:0:
421,346,73794,1,0,1:0:0:0:
230,124,73978,5,4,0:0:0:0:
389,227,74162,1,0,1:0:0:0:
203,37,74346,5,4,0:0:0:0:
20,170,74530,1,0,1:0:0:0:
228,261,74714,2,0,P|263:207|263:168,1,59.9999981689454,0|0,1:0|1:0,1:0:0:0:
230,124,74898,5,0,1:0:0:0:
138,175,75082,1,0,1:0:0:0:
214,122,75266,5,8,0:3:0:0:
153,173,75450,1,4,0:3:0:0:
324,315,75635,6,0,P|418:322|495:386,1,194.999991073609,4|4,0:0|0:3,0:0:0:0:
493,383,76371,1,0,1:0:0:0:
315,107,76739,5,2,0:3:0:0:
298,185,76923,1,0,0:0:0:0:
191,210,77107,5,4,0:3:0:0:
212,286,77291,2,0,P|130:312|101:361,1,129.999994049073,0|4,1:0|0:3,0:0:0:0:
106,345,77843,1,0,1:0:0:0:
195,6,78211,5,2,0:3:0:0:
212,84,78395,1,0,0:0:0:0:
319,109,78579,5,4,0:3:0:0:
298,185,78763,2,0,P|380:211|409:260,1,129.999994049073,0|4,1:0|0:3,0:0:0:0:
473,296,79316,2,0,P|459:330|439:354,1,64.9999970245363,0|0,1:0|0:0,0:0:0:0:
341,306,79684,5,2,0:3:0:0:
265,281,79868,1,0,0:0:0:0:
169,326,80052,5,0,1:0:0:0:
98,371,80236,2,0,P|84:336|64:312,1,64.9999970245363,4|0,0:3|0:0,0:0:0:0:
18,243,80604,2,0,P|68:199|72:122,1,129.999994049073,0|0,1:0|0:0,0:0:0:0:
46,64,81156,2,0,P|-1:48|-20:29,1,64.9999970245363,8|4,0:3|0:3,0:0:0:0:
76,138,81524,5,4,0:0:0:0:
268,276,82996,5,0,0:0:0:0:
53,380,83733,5,0,1:0:0:0:
53,380,83917,2,0,P|40:347|38:315,1,37.5000014305115,0|0,1:0|1:0,1:0:0:0:
64,259,84101,2,0,P|81:277|99:292,1,47.4999987316132,0|0,1:0|1:0,1:0:0:0:
197,345,84285,2,0,P|179:309|175:275,1,57.5000010967255,0|0,1:0|1:0,1:0:0:0:
284,144,84469,5,4,0:0:0:0:
312,217,84653,1,0,0:0:0:0:
265,280,84837,1,0,1:0:0:0:
82,177,85021,6,0,L|200:199,1,112.500004291535,4|0,0:0|0:0,0:0:0:0:
208,203,85389,1,2,0:0:0:0:
283,143,85573,1,0,1:0:0:0:
175,293,85757,6,0,B|185:349|242:373|242:373|344:357,1,200,4|0,0:0|0:0,0:0:0:0:
510,261,86309,2,0,L|411:242,1,100,0|0,1:0|1:0,0:0:0:0:
372,234,86585,1,0,1:0:0:0:
332,226,86677,1,0,1:0:0:0:
269,175,86862,1,0,3:0:0:0:
192,196,87046,1,0,3:0:0:0:
131,143,87230,1,0,1:0:0:0:
91,150,87322,1,0,1:0:0:0:
51,158,87414,5,4,0:0:0:0:
2,94,87598,1,0,0:0:0:0:
23,16,87782,1,0,1:0:0:0:
191,195,87966,6,0,L|216:63,1,112.500004291535,4|0,0:0|0:0,0:0:0:0:
214,70,88334,1,2,0:0:0:0:
334,13,88518,1,0,1:0:0:0:
366,215,88702,6,0,B|307:228|277:181|277:181|295:83,1,200,4|0,0:0|0:0,0:0:0:0:
458,254,89254,2,0,L|432:122,1,100,2|0,0:0|1:0,0:0:0:0:
439,115,89530,1,0,1:0:0:0:
463,83,89622,1,0,1:0:0:0:
366,215,89806,1,8,0:3:0:0:
326,216,89898,1,8,0:3:0:0:
290,197,89990,1,8,0:3:0:0:
334,79,90174,2,0,P|343:104|343:151,1,50,2|2,0:0|0:0,0:0:0:0:
300,295,90358,5,4,0:0:0:0:
229,257,90542,1,0,0:0:0:0:
151,279,90727,1,0,1:0:0:0:
38,150,90911,6,0,L|156:172,1,112.500004291535,4|0,0:0|0:0,0:0:0:0:
164,176,91279,1,2,0:0:0:0:
46,5,91463,6,0,B|49:47|77:74|77:74|203:99,1,200,4|0,0:0|0:0,0:0:0:0:
348,24,92015,1,0,1:0:0:0:
317,49,92107,1,0,1:0:0:0:
303,86,92199,2,0,L|427:69,1,100,0|4,1:0|0:3,0:0:0:0:
441,65,92475,1,4,0:3:0:0:
480,58,92567,1,8,0:3:0:0:
493,182,92751,1,4,0:3:0:0:
453,174,92843,1,4,0:3:0:0:
413,165,92935,2,0,L|313:178,1,100,4|0,0:2|1:3,0:0:0:0:
278,198,93211,1,0,1:0:0:0:
268,236,93303,5,4,0:0:0:0:
265,317,93487,1,0,1:0:0:0:
225,309,93579,1,0,1:0:0:0:
199,278,93671,1,0,1:0:0:0:
142,138,93855,6,0,L|119:256,1,112.500004291535,4|0,0:0|0:0,0:0:0:0:
116,264,94223,1,2,0:0:0:0:
70,32,94408,6,0,L|84:108,1,50,4|0,0:0|0:0,0:0:0:0:
