osu file format v14

[General]
AudioFilename: audio.mp3
AudioLeadIn: 0
PreviewTime: 51156
Countdown: 0
SampleSet: Soft
StackLeniency: 0.7
Mode: 0
LetterboxInBreaks: 0
WidescreenStoryboard: 1

[Editor]
Bookmarks: 2015,7904,16555,28426,40205,51984,63763,75542,84377,96156,107935,121095,127076,144653,153579
DistanceSpacing: 1
BeatDivisor: 2
GridSize: 32
TimelineZoom: 1.1

[Metadata]
Title:Sayonara Bystander
TitleUnicode:さよならバイスタンダー
Artist:YUKI
ArtistUnicode:YUKI
Creator:Milan-
Version:Normal
Source:3月のライオン
Tags:pishifat March comes in like a Sangatsu 3-gatsu no Lion
BeatmapID:1453785
BeatmapSetID:678610

[Difficulty]
HPDrainRate:3
CircleSize:3
OverallDifficulty:4
ApproachRate:4.5
SliderMultiplier:1
SliderTickRate:1

[Events]
//Background and Video events
0,0,"[HorribleSubs] 3-gatsu no Lion - 01 [720p].mkv_snapshot_03.48_[2017.07.04_19.53.17].png",0,0
//Break Periods
//Storyboard Layer 0 (Background)
//Storyboard Layer 1 (Fail)
//Storyboard Layer 2 (Pass)
//Storyboard Layer 3 (Foreground)
//Storyboard Sound Samples

[TimingPoints]
543,368.098159509202,4,2,0,20,1,0
911,-100,4,2,0,25,0,0
1279,-100,4,2,0,30,0,0
1647,-100,4,2,0,35,0,0
1831,-100,4,2,0,40,0,0
2015,-100,4,2,0,70,0,0
2567,-100,4,2,0,70,0,0
2843,-100,4,2,0,5,0,0
2935,-100,4,2,0,70,0,0
3119,-100,4,2,0,70,0,0
3855,-100,4,2,0,70,0,0
5512,-100,4,2,0,70,0,0
5788,-100,4,2,0,5,0,0
5880,-100,4,2,0,70,0,0
6064,-100,4,2,0,70,0,0
6156,-100,4,2,0,5,0,0
6616,-100,4,2,0,40,0,0
7168,-100,4,2,0,70,0,0
7352,-100,4,2,0,70,0,0
7536,-100,4,2,0,70,0,0
7904,-100,4,2,0,70,0,0
8457,-100,4,2,0,70,0,0
8733,-100,4,2,0,5,0,0
8825,-100,4,2,0,70,0,0
9193,-100,4,2,0,70,0,0
10113,-100,4,2,0,70,0,0
10481,-100,4,2,0,70,0,0
10849,-100,4,2,0,70,0,0
11401,-100,4,2,0,70,0,0
12138,-100,4,2,0,70,0,0
13058,-100,4,2,0,70,0,0
13426,-100,4,2,0,70,0,0
13794,-100,4,2,0,70,0,0
14346,-100,4,2,0,70,0,0
14622,-100,4,2,0,5,0,0
14714,-100,4,2,0,70,0,0
14898,-100,4,2,0,70,0,0
15174,-100,4,2,0,31,0,0
15266,-100,4,2,0,70,0,0
16003,-100,4,2,0,70,0,0
16371,-100,4,2,0,70,0,0
16647,-100,4,2,0,5,0,0
16739,-125,4,2,0,50,0,0
17291,-125,4,2,0,50,0,0
18947,-125,4,2,0,50,0,0
19316,-125,4,2,0,50,0,0
19592,-125,4,2,0,5,0,0
19684,-125,4,2,0,50,0,0
21892,-125,4,2,0,50,0,0
22260,-125,4,2,0,50,0,0
22628,-125,4,2,0,50,0,0
24837,-125,4,2,0,50,0,0
25573,-125,4,2,0,50,0,0
26125,-125,4,2,0,50,0,0
27046,-125,4,2,0,55,0,0
27782,-125,4,2,0,55,0,0
28518,-111.111111111111,4,2,0,55,0,0
40297,-125,4,2,0,62,0,0
46187,-111.111111111111,4,2,0,62,0,0
46739,-111.111111111111,4,2,0,62,0,0
47015,-111.111111111111,4,2,0,5,0,0
47107,-111.111111111111,4,2,0,62,0,0
47291,-111.111111111111,4,2,0,62,0,0
47843,-111.111111111111,4,2,0,62,0,0
49684,-111.111111111111,4,2,0,70,0,0
50236,-111.111111111111,4,2,0,70,0,0
50420,-111.111111111111,4,2,0,5,0,0
50788,-111.111111111111,4,2,0,40,0,0
51340,-111.111111111111,4,2,0,60,0,0
51892,-100,4,2,0,80,0,0
56309,-100,4,2,0,80,0,0
57046,-100,4,2,0,80,0,0
57782,-100,4,2,0,80,0,0
58334,-100,4,2,0,80,0,0
60727,-100,4,2,0,80,0,0
61003,-100,4,2,0,5,0,0
61095,-100,4,2,0,80,0,0
61463,-100,4,2,0,80,0,0
61739,-100,4,2,0,5,0,0
61831,-100,4,2,0,80,0,0
62199,-100,4,2,0,80,0,0
63671,-100,4,2,0,80,0,0
68089,-100,4,2,0,80,0,0
68825,-100,4,2,0,80,0,0
69561,-100,4,2,0,80,0,0
70113,-100,4,2,0,80,0,0
72506,-100,4,2,0,80,0,0
72782,-100,4,2,0,5,0,0
72874,-100,4,2,0,80,0,0
73242,-100,4,2,0,80,0,0
73518,-100,4,2,0,5,0,0
73610,-100,4,2,0,80,0,0
73978,-100,4,2,0,80,0,0
74530,-100,4,2,0,80,0,0
75635,-111.111111111111,4,2,0,70,0,0
81340,-111.111111111111,4,2,0,44,0,0
81432,-111.111111111111,4,2,0,70,0,0
82996,-111.111111111111,4,2,0,30,0,0
83089,-111.111111111111,4,2,0,55,0,0
83733,-111.111111111111,4,2,0,55,0,0
83917,-111.111111111111,4,2,0,40,0,0
84101,-111.111111111111,4,2,0,50,0,0
84285,-111.111111111111,4,2,0,60,0,0
84469,-100,4,2,0,70,0,0
85021,-100,4,2,0,70,0,0
85297,-100,4,2,0,5,0,0
85389,-100,4,2,0,70,0,0
85757,-100,4,2,0,70,0,0
86677,-100,4,2,0,70,0,0
87414,-100,4,2,0,70,0,0
87966,-100,4,2,0,70,0,0
88242,-100,4,2,0,5,0,0
88334,-100,4,2,0,70,0,0
88702,-100,4,2,0,70,0,0
89622,-100,4,2,0,70,0,0
89990,-100,4,2,0,70,0,0
90358,-100,4,2,0,70,0,0
90911,-100,4,2,0,70,0,0
91187,-100,4,2,0,5,0,0
91279,-100,4,2,0,70,0,0
91463,-100,4,2,0,70,0,0
92199,-100,4,2,0,70,0,0
92567,-100,4,2,0,70,0,0
92935,-100,4,2,0,70,0,0
93303,-100,4,2,0,70,0,0
93855,-100,4,2,0,70,0,0
94131,-100,4,2,0,5,0,0
94223,-100,4,2,0,70,0,0
94408,-100,4,2,0,70,0,0
94500,-100,4,2,0,5,0,0

[Colours]
Combo1 : 175,101,148
Combo2 : 91,191,114
Combo3 : 166,123,191
Combo4 : 90,119,171

[HitObjects]
40,64,2015,6,0,L|143:79,1,100,4|0,0:0|1:0,0:0:0:0:
165,115,2567,2,0,L|268:100,1,100,4|2,0:0|0:0,0:0:0:0:
295,68,3119,2,0,L|398:83,1,100,4|0,0:0|0:0,0:0:0:0:
466,135,3855,1,0,1:0:0:0:
426,215,4223,1,0,1:0:0:0:
464,296,4592,1,0,1:0:0:0:
398,358,4960,6,0,L|299:343,1,100,4|0,0:0|1:0,0:0:0:0:
279,303,5512,2,0,L|180:317,1,100,4|2,0:0|0:0,0:0:0:0:
143,344,6064,1,4,0:0:0:0:
60,87,7168,6,0,B|84:129|84:129|78:180,1,100,0|8,1:0|0:3,0:0:0:0:
78,180,7904,6,0,L|192:156,1,100,4|0,0:0|1:0,0:0:0:0:
191,116,8457,2,0,L|305:140,1,100,4|2,0:0|0:0,0:0:0:0:
332,125,9009,1,0,1:0:0:0:
332,125,9193,2,0,P|405:121|437:199,1,150,4|0,0:2|1:0,0:0:0:0:
477,262,10113,1,2,0:0:0:0:
387,255,10481,1,0,1:0:0:0:
312,306,10849,6,0,L|198:282,1,100,4|0,0:0|1:0,0:0:0:0:
189,247,11402,2,0,L|75:271,1,100,4|0,0:0|0:0,0:0:0:0:
59,299,11954,1,0,1:0:0:0:
59,299,12138,2,0,P|4:250|29:171,1,150,4|0,0:0|1:0,0:0:0:0:
85,121,13058,1,8,0:3:0:0:
81,31,13426,1,4,0:3:0:0:
170,33,13794,6,0,L|279:16,1,100,4|8,0:0|0:3,0:0:0:0:
309,35,14346,2,0,P|354:86|458:54,1,150,4|4,0:0|0:0,0:0:0:0:
434,350,16003,6,0,B|433:302|433:302|391:244,1,100,0|0,1:0|1:0,0:0:0:0:
403,260,16739,6,0,L|260:245,2,120,4|2|2,0:3|0:0|0:0,0:0:0:0:
379,130,18395,2,0,L|234:149,1,120,2|2,0:0|0:0,0:0:0:0:
174,122,19316,1,2,0:0:0:0:
118,190,19684,6,0,P|56:189|4:126,2,120,4|2|2,0:3|0:0|0:0,0:0:0:0:
110,58,21340,2,0,P|155:20|213:20,1,120,2|2,0:0|0:0,0:0:0:0:
295,53,22260,1,2,0:0:0:0:
374,15,22628,6,0,L|501:25,2,120,4|2|2,0:3|0:0|0:0,0:0:0:0:
368,147,24285,2,0,L|248:156,1,120,2|2,0:0|0:0,0:0:0:0:
171,114,25205,1,2,0:0:0:0:
84,131,25573,6,0,P|28:176|23:234,2,120,4|2|2,0:3|0:3|0:3,0:0:0:0:
143,195,27046,2,0,L|153:299,1,80,4|0,0:3|3:0,0:0:0:0:
238,276,27782,2,0,L|230:196,1,80,4|0,0:3|1:0,0:0:0:0:
263,166,28334,1,4,0:3:0:0:
295,135,28518,6,0,P|387:100|471:134,1,179.999994506836,4|0,0:0|0:0,0:0:0:0:
502,205,29622,2,0,P|420:239|336:214,1,179.999994506836,2|0,1:2|1:0,0:0:0:0:
246,209,30727,1,2,0:0:0:0:
207,290,31095,1,2,1:2:0:0:
127,331,31463,6,0,P|78:295|44:181,1,179.999994506836,4|0,0:3|0:0,0:0:0:0:
132,174,32567,2,0,P|181:138|215:24,1,179.999994506836,2|0,1:2|1:0,0:0:0:0:
304,17,33671,1,2,0:0:0:0:
387,50,34039,1,2,1:2:0:0:
471,81,34408,6,0,L|483:268,1,179.999994506836,4|0,0:3|0:0,0:0:0:0:
417,322,35512,2,0,L|237:333,2,179.999994506836,2|0|2,1:2|1:0|1:2,0:0:0:0:
394,234,37352,6,0,L|282:213,1,89.9999972534181,4|0,0:3|1:0,0:0:0:0:
283,178,37904,2,0,L|171:199,1,89.9999972534181,2|0,0:0|1:0,0:0:0:0:
154,215,38457,1,2,0:0:0:0:
64,209,38825,2,0,P|19:177|49:62,1,179.999994506836,0|4,1:0|0:3,0:0:0:0:
128,83,39929,1,8,1:3:0:0:
222,49,40297,6,0,P|295:29|393:144,1,240,4|2,0:0|0:0,0:0:0:0:
471,179,41769,2,0,P|398:159|300:274,1,240,4|0,0:3|1:0,0:0:0:0:
319,355,43242,6,0,P|244:364|110:242,1,240,4|0,0:3|0:0,0:0:0:0:
40,229,44714,2,0,P|115:238|249:116,1,240,4|4,0:3|0:3,0:0:0:0:
320,102,46187,6,0,L|312:1,1,89.9999972534181,4|0,0:0|1:0,0:0:0:0:
358,12,46739,2,0,L|448:55,1,89.9999972534181,4|0,0:0|0:0,0:0:0:0:
417,90,47291,2,0,L|334:146,1,89.9999972534181,4|2,0:0|0:0,0:0:0:0:
353,184,47843,2,0,P|316:243|230:252,1,134.999995880127,0|4,3:0|0:3,0:0:0:0:
184,203,48763,1,0,1:0:0:0:
122,268,49131,6,0,L|94:369,1,89.9999972534181,4|0,0:0|1:0,0:0:0:0:
54,368,49684,2,0,L|33:200,1,134.999995880127,4|4,0:3|0:0,0:0:0:0:
61,21,51340,6,0,L|16:7,2,44.999998626709,0|0|0,1:0|1:0|1:0,0:0:0:0:
88,61,51892,2,0,P|190:49|213:3,1,150,4|2,0:0|1:2,0:0:0:0:
309,15,52812,2,0,P|384:30|412:74,1,100,0|0,0:0|1:0,0:0:0:0:
444,63,53365,2,0,P|409:120|437:228,1,150,2|0,0:2|1:0,0:0:0:0:
462,289,54285,2,0,L|538:276,2,50,2|2|0,0:0|0:0|1:0,0:0:0:0:
434,331,54837,6,0,L|276:320,1,150,4|0,0:0|1:0,0:0:0:0:
192,360,55757,2,0,L|61:337,1,100,0|0,0:0|1:0,0:0:0:0:
69,298,56309,6,0,P|117:235|199:230,1,150,4|0,0:0|1:0,0:0:0:0:
226,255,57046,2,0,P|242:181|327:174,1,150,4|0,0:0|1:0,0:0:0:0:
357,175,57782,2,0,P|327:104|393:63,1,150,4|0,0:0|1:0,0:0:0:0:
473,89,58702,6,0,L|489:4,2,50,2|0|0,0:0|0:0|1:0,0:0:0:0:
444,129,59254,2,0,L|472:318,1,150,4|0,0:0|1:0,0:0:0:0:
387,338,60174,2,0,L|281:301,1,100,4|0,0:0|1:0,0:0:0:0:
244,318,60727,6,0,P|250:241|191:175,1,150,4|0,0:0|1:0,0:0:0:0:
163,206,61463,2,0,P|173:131|90:89,1,150,4|0,0:0|1:0,0:0:0:0:
80,119,62199,2,0,P|35:50|-32:102,1,150,4|0,0:0|1:0,0:0:0:0:
0,163,63119,1,0,1:0:0:0:
18,261,63487,1,0,1:0:0:0:
37,306,63671,6,0,B|92:253|92:253|187:250,1,150,4|0,0:0|1:0,0:0:0:0:
247,191,64592,2,0,L|266:325,1,100,0|0,0:0|1:0,0:0:0:0:
305,311,65144,2,0,P|379:322|436:254,1,150,0|0,0:0|1:0,0:0:0:0:
476,185,66064,2,0,L|461:85,1,100,2|0,0:0|1:0,0:0:0:0:
436,43,66616,2,0,P|375:64|278:2,1,150,2|0,0:0|1:0,0:0:0:0:
202,58,67536,2,0,P|143:27|74:32,1,100,8|4,0:3|0:3,0:0:0:0:
67,50,68089,6,0,B|91:119|91:119|85:197,1,150,4|0,0:0|1:0,0:0:0:0:
133,183,68825,2,0,B|187:232|187:232|198:329,1,150,6|0,0:0|1:0,0:0:0:0:
236,279,69561,2,0,B|311:291|311:291|343:383,1,150,4|0,0:0|1:0,0:0:0:0:
423,313,70481,6,0,P|451:323|484:329,2,50,2|0|0,0:0|0:0|1:0,0:0:0:0:
410,264,71033,2,0,P|441:207|402:107,1,150,2|0,0:0|1:0,0:0:0:0:
421,27,71954,2,0,P|352:9|302:24,1,100,4|0,0:0|1:0,0:0:0:0:
291,50,72506,6,0,B|223:77|223:77|140:73,1,150,4|0,0:0|1:0,0:0:0:0:
113,111,73242,2,0,B|49:150|49:150|27:235,1,150,4|0,0:0|1:0,0:0:0:0:
77,240,73978,2,0,B|150:253|150:253|170:361,1,150,4|0,0:0|1:0,0:0:0:0:
251,278,74898,1,0,1:0:0:0:
344,313,75266,1,8,0:3:0:0:
438,345,75635,6,0,P|480:307|470:158,1,179.999994506836,4|0,0:0|1:0,0:0:0:0:
448,110,76739,2,0,L|341:95,1,89.9999972534181,2|4,0:3|0:3,0:0:0:0:
317,115,77291,1,0,1:0:0:0:
235,77,77659,1,4,0:3:0:0:
205,42,77843,2,0,P|158:58|105:109,1,89.9999972534181,0|2,1:0|0:3,0:0:0:0:
75,156,78579,6,0,L|15:139,2,44.999998626709,4|0|0,0:3|1:0|0:0,0:0:0:0:
150,206,79316,2,0,P|169:273|167:310,1,89.9999972534181,0|2,1:0|0:3,0:0:0:0:
232,356,80052,2,0,P|276:352|318:337,1,89.9999972534181,0|0,1:0|0:0,0:0:0:0:
361,349,80604,2,0,P|430:310|439:227,1,134.999995880127,0|8,1:0|0:3,0:0:0:0:
409,177,81524,1,4,0:0:0:0:
473,43,83733,6,0,B|433:67|433:67|374:63,1,89.9999972534181,0|0,1:0|1:0,0:0:0:0:
389,64,84469,6,0,L|275:88,1,100,4|0,0:0|1:0,0:0:0:0:
259,117,85022,2,0,L|145:93,1,100,4|0,0:0|0:0,0:0:0:0:
126,67,85574,1,0,1:0:0:0:
126,67,85758,2,0,P|53:63|21:141,1,150,4|0,0:0|0:0,0:0:0:0:
85,182,86678,1,0,1:0:0:0:
120,264,87046,1,0,3:0:0:0:
85,347,87414,6,0,L|199:371,1,100,4|0,0:0|1:0,0:0:0:0:
212,333,87967,2,0,L|326:309,1,100,4|0,0:0|0:0,0:0:0:0:
353,323,88519,1,0,1:0:0:0:
353,323,88703,2,0,P|408:274|383:195,1,150,4|0,0:0|0:0,0:0:0:0:
459,144,89623,1,0,1:0:0:0:
415,65,89991,1,8,0:3:0:0:
340,15,90359,6,0,L|231:32,1,100,4|0,0:0|1:0,0:0:0:0:
223,71,90911,2,0,L|94:57,1,100,4|2,0:0|0:0,0:0:0:0:
90,90,91463,2,0,P|43:133|33:186,1,100,4|0,0:0|0:0,0:0:0:0:
108,215,92199,1,0,1:0:0:0:
181,266,92567,2,0,L|171:370,1,100,8|4,0:3|0:0,0:0:0:0:
261,365,93303,6,0,L|270:265,1,100,4|0,0:0|1:0,0:0:0:0:
306,238,93855,2,0,P|362:239|431:141,1,150,4|4,0:0|0:0,0:0:0:0:
