osu file format v14

[General]
AudioFilename: audio.mp3
AudioLeadIn: 0
PreviewTime: 51156
Countdown: 0
SampleSet: Soft
StackLeniency: 0.7
Mode: 0
LetterboxInBreaks: 0
WidescreenStoryboard: 1

[Editor]
Bookmarks: 2015,7904,16555,28426,40205,51984,63763,75542,84377,96156,107935,121095,127076,144653,153579
DistanceSpacing: 1.6
BeatDivisor: 4
GridSize: 32
TimelineZoom: 2.1

[Metadata]
Title:Sayonara Bystander
TitleUnicode:さよならバイスタンダー
Artist:YUKI
ArtistUnicode:YUKI
Creator:Milan-
Version:Insane
Source:3月のライオン
Tags:pishifat March comes in like a Sangatsu 3-gatsu no Lion
BeatmapID:1434891
BeatmapSetID:678610

[Difficulty]
HPDrainRate:6
CircleSize:4
OverallDifficulty:7
ApproachRate:9
SliderMultiplier:1.4
SliderTickRate:1

[Events]
//Background and Video events
0,0,"[HorribleSubs] 3-gatsu no Lion - 01 [720p].mkv_snapshot_03.48_[2017.07.04_19.53.17].png",0,0
//Break Periods
//Storyboard Layer 0 (Background)
//Storyboard Layer 1 (Fail)
//Storyboard Layer 2 (Pass)
//Storyboard Layer 3 (Foreground)
//Storyboard Sound Samples

[TimingPoints]
543,368.098159509202,4,2,0,20,1,0
911,-100,4,2,0,25,0,0
1279,-100,4,2,0,30,0,0
1647,-100,4,2,0,35,0,0
1831,-100,4,2,0,40,0,0
2015,-90.9090909090909,4,2,0,70,0,0
2567,-76.9230769230769,4,2,0,70,0,0
2843,-76.9230769230769,4,2,0,5,0,0
2935,-76.9230769230769,4,2,0,70,0,0
3119,-181.818181818182,4,2,0,70,0,0
3855,-90.9090909090909,4,2,0,70,0,0
5512,-76.9230769230769,4,2,0,70,0,0
5788,-76.9230769230769,4,2,0,5,0,0
5880,-76.9230769230769,4,2,0,70,0,0
6064,-181.818181818182,4,2,0,70,0,0
6156,-181.818181818182,4,2,0,5,0,0
6616,-133.333333333333,4,2,0,40,0,0
7168,-133.333333333333,4,2,0,70,0,0
7352,-90.9090909090909,4,2,0,70,0,0
7536,-111.111111111111,4,2,0,70,0,0
7904,-90.9090909090909,4,2,0,70,0,0
8457,-76.9230769230769,4,2,0,70,0,0
8733,-76.9230769230769,4,2,0,5,0,0
8825,-76.9230769230769,4,2,0,70,0,0
9193,-181.818181818182,4,2,0,70,0,0
10113,-76.9230769230769,4,2,0,70,0,0
10481,-66.6666666666667,4,2,0,70,0,0
10849,-90.9090909090909,4,2,0,70,0,0
11401,-76.9230769230769,4,2,0,70,0,0
12138,-181.818181818182,4,2,0,70,0,0
13058,-76.9230769230769,4,2,0,70,0,0
13426,-100,4,2,0,70,0,0
13794,-90.9090909090909,4,2,0,70,0,0
14346,-76.9230769230769,4,2,0,70,0,0
14622,-76.9230769230769,4,2,0,5,0,0
14714,-76.9230769230769,4,2,0,70,0,0
14898,-181.818181818182,4,2,0,70,0,0
15174,-181.818181818182,4,2,0,31,0,0
15266,-181.818181818182,4,2,0,70,0,0
16003,-68.0272108843537,4,2,0,70,0,0
16371,-100,4,2,0,70,0,0
16647,-100,4,2,0,5,0,0
16739,-100,4,2,0,50,0,0
17291,-200,4,2,0,50,0,0
18947,-133.333333333333,4,2,0,50,0,0
19316,-100,4,2,0,50,0,0
19592,-100,4,2,0,5,0,0
19684,-200,4,2,0,50,0,0
21892,-133.333333333333,4,2,0,50,0,0
22260,-100,4,2,0,50,0,0
22628,-200,4,2,0,50,0,0
24837,-133.333333333333,4,2,0,50,0,0
25573,-200,4,2,0,50,0,0
26125,-133.333333333333,4,2,0,50,0,0
27046,-133.333333333333,4,2,0,55,0,0
27782,-100,4,2,0,55,0,0
28518,-100,4,2,0,55,0,0
40297,-133.333333333333,4,2,0,62,0,0
46187,-100,4,2,0,62,0,0
46739,-76.9230769230769,4,2,0,62,0,0
47015,-76.9230769230769,4,2,0,5,0,0
47107,-76.9230769230769,4,2,0,62,0,0
47291,-100,4,2,0,62,0,0
47843,-90.9090909090909,4,2,0,62,0,0
49684,-76.9230769230769,4,2,0,70,0,0
50236,-200,4,2,0,70,0,0
50420,-200,4,2,0,5,0,0
50788,-133.333333333333,4,2,0,40,0,0
51340,-133.333333333333,4,2,0,60,0,0
51892,-83.3333333333333,4,2,0,80,0,0
56309,-71.4285714285714,4,2,0,80,0,0
57046,-62.5,4,2,0,80,0,0
57782,-55.5555555555556,4,2,0,80,0,0
58334,-71.4285714285714,4,2,0,80,0,0
60727,-62.5,4,2,0,80,0,0
61003,-62.5,4,2,0,5,0,0
61095,-62.5,4,2,0,80,0,0
61463,-55.5555555555556,4,2,0,80,0,0
61739,-55.5555555555556,4,2,0,5,0,0
61831,-55.5555555555556,4,2,0,80,0,0
62199,-71.4285714285714,4,2,0,80,0,0
63671,-83.3333333333333,4,2,0,80,0,0
68089,-71.4285714285714,4,2,0,80,0,0
68825,-62.5,4,2,0,80,0,0
69561,-55.5555555555556,4,2,0,80,0,0
70113,-71.4285714285714,4,2,0,80,0,0
72506,-62.5,4,2,0,80,0,0
72782,-62.5,4,2,0,5,0,0
72874,-62.5,4,2,0,80,0,0
73242,-55.5555555555556,4,2,0,80,0,0
73518,-55.5555555555556,4,2,0,5,0,0
73610,-55.5555555555556,4,2,0,80,0,0
73978,-71.4285714285714,4,2,0,80,0,0
75635,-133.333333333333,4,2,0,70,0,0
81340,-133.333333333333,4,2,0,44,0,0
81432,-133.333333333333,4,2,0,70,0,0
82996,-133.333333333333,4,2,0,30,0,0
83089,-133.333333333333,4,2,0,5,0,0
83733,-100,4,2,0,55,0,0
83917,-100,4,2,0,40,0,0
84101,-100,4,2,0,50,0,0
84285,-100,4,2,0,60,0,0
84469,-90.9090909090909,4,2,0,70,0,0
85021,-76.9230769230769,4,2,0,70,0,0
85297,-76.9230769230769,4,2,0,5,0,0
85389,-76.9230769230769,4,2,0,70,0,0
85757,-181.818181818182,4,2,0,70,0,0
86677,-76.9230769230769,4,2,0,70,0,0
87414,-90.9090909090909,4,2,0,70,0,0
87966,-76.9230769230769,4,2,0,70,0,0
88242,-76.9230769230769,4,2,0,5,0,0
88334,-76.9230769230769,4,2,0,70,0,0
88702,-181.818181818182,4,2,0,70,0,0
89622,-76.9230769230769,4,2,0,70,0,0
89990,-66.6666666666667,4,2,0,70,0,0
90358,-90.9090909090909,4,2,0,70,0,0
90911,-76.9230769230769,4,2,0,70,0,0
91187,-76.9230769230769,4,2,0,5,0,0
91279,-76.9230769230769,4,2,0,70,0,0
91463,-181.818181818182,4,2,0,70,0,0
92199,-133.333333333333,4,2,0,70,0,0
92567,-76.9230769230769,4,2,0,70,0,0
92935,-66.6666666666667,4,2,0,70,0,0
93303,-90.9090909090909,4,2,0,70,0,0
93855,-76.9230769230769,4,2,0,70,0,0
94131,-76.9230769230769,4,2,0,5,0,0
94223,-76.9230769230769,4,2,0,70,0,0
94408,-181.818181818182,4,2,0,70,0,0
94500,-181.818181818182,4,2,0,5,0,0

[Colours]
Combo1 : 175,101,148
Combo2 : 91,191,114
Combo3 : 166,123,191
Combo4 : 90,119,171

[HitObjects]
375,293,1831,5,2,0:0:0:0:
375,293,1923,1,2,0:0:0:0:
375,293,2015,2,0,P|413:291|448:275,1,77.0000023498536,4|0,0:0|0:0,0:0:0:0:
244,178,2383,1,0,1:0:0:0:
297,252,2567,2,0,P|293:150|350:103,1,181.999991668702,4|2,0:0|0:0,0:0:0:0:
482,195,3119,2,0,P|464:161|435:136,1,77.0000023498536,4|0,0:0|0:0,0:0:0:0:
349,103,3671,5,0,3:0:0:0:
343,99,3763,1,0,3:0:0:0:
337,95,3855,2,0,L|322:37,3,38.5000011749268,0|0|0|0,1:0|1:0|1:0|1:0,0:0:0:0:
247,87,4223,2,0,L|232:29,3,38.5000011749268,0|0|0|0,1:0|3:0|1:0|1:0,0:0:0:0:
158,82,4592,6,0,L|148:44,1,38.5000011749268,0|0,1:0|0:0,0:0:0:0:
58,43,4776,2,0,L|67:80,1,38.5000011749268,0|0,3:0|0:0,0:0:0:0:
71,84,4960,6,0,P|54:118|54:156,1,77.0000023498536,4|0,0:0|0:0,0:0:0:0:
268,173,5328,1,0,1:0:0:0:
284,262,5512,2,0,P|254:209|116:191,1,181.999991668702,4|2,0:0|0:0,0:0:0:0:
3,269,6064,2,0,P|41:265|74:247,1,77.0000023498536,4|0,0:0|0:0,0:0:0:0:
142,179,6616,6,0,L|154:136,2,26.2500010013581,2|0|0,0:0|0:0|0:0,0:0:0:0:
152,145,6892,2,0,L|164:102,1,26.2500010013581,0|2,0:0|0:0,0:0:0:0:
194,323,7168,5,0,1:0:0:0:
184,316,7260,1,0,1:0:0:0:
181,315,7352,2,0,L|166:257,1,38.5000011749268,0|0,3:0|3:0,0:0:0:0:
171,277,7536,2,0,P|217:280|270:272,1,94.499997116089,8|0,0:3|0:0,0:0:0:0:
264,273,7904,6,0,P|302:271|338:283,1,77.0000023498536,4|0,0:0|0:0,0:0:0:0:
345,132,8272,1,0,1:0:0:0:
315,46,8457,2,0,P|304:138|225:181,1,181.999991668702,4|2,0:0|0:0,0:0:0:0:
491,202,9009,1,0,1:0:0:0:
429,271,9193,6,0,P|407:239|400:201,1,77.0000023498536,4|0,0:2|0:0,0:0:0:0:
443,121,9745,1,0,1:0:0:0:
443,121,10113,6,0,B|365:96|387:147|291:109,1,136.499993751526,2|0,0:0|0:0,0:0:0:0:
214,16,10481,2,0,P|285:43|308:122,1,157.500006008148,0|0,1:0|1:0,0:0:0:0:
270,179,10849,6,0,P|286:137|320:109,1,77.0000023498536,4|0,0:0|0:0,0:0:0:0:
91,195,11217,1,0,1:0:0:0:
173,163,11401,2,0,P|128:170|27:85,1,181.999991668702,4|2,0:0|0:0,0:0:0:0:
291,238,11954,1,0,1:0:0:0:
203,248,12138,6,0,P|231:282|240:328,1,77.0000023498536,4|2,0:0|0:0,0:0:0:0:
181,380,12690,1,0,1:0:0:0:
181,380,13058,6,0,P|132:336|65:342,1,136.499993751526,8|4,0:3|0:3,0:0:0:0:
2,285,13426,2,0,P|34:250|50:178,1,105,4|0,0:3|0:0,0:0:0:0:
135,203,13794,6,0,P|154:248|191:271,1,77.0000023498536,4|4,0:0|0:3,0:0:0:0:
214,15,14162,1,8,0:3:0:0:
299,47,14346,2,0,P|250:40|152:137,1,181.999991668702,4|2,0:0|0:0,0:0:0:0:
271,261,14898,6,0,P|323:199|322:126,1,154.000004699707,4|2,0:0|0:0,0:0:0:0:
323,129,16003,6,0,P|321:204|271:261,1,154.000004699707,0|0,1:0|0:0,0:0:0:0:
274,266,16371,2,0,P|338:241|402:265,1,140,0|4,1:0|0:3,0:0:0:0:
454,128,17291,6,0,L|467:197,1,70,2|0,0:0|0:0,0:0:0:0:
281,74,17843,2,0,L|268:5,1,70,2|0,0:0|0:0,0:0:0:0:
433,46,18395,2,0,L|364:58,1,70,2|0,0:0|0:0,0:0:0:0:
182,94,18947,6,0,P|225:146|227:174,1,78.7500030040742,2|0,0:0|0:0,0:0:0:0:
226,154,19316,2,0,P|165:172|124:154,1,105,2|0,0:0|0:0,0:0:0:0:
128,157,19684,6,0,L|140:225,1,70,4|0,0:3|0:0,0:0:0:0:
379,347,20236,2,0,L|367:279,1,70,2|0,0:0|0:0,0:0:0:0:
212,273,20788,2,0,L|280:261,1,70,2|0,0:0|0:0,0:0:0:0:
341,36,21340,2,0,L|273:48,1,70,2|0,0:0|0:0,0:0:0:0:
346,198,21892,6,0,P|363:157|360:110,1,78.7500030040742,2|0,0:0|0:0,0:0:0:0:
363,123,22260,1,2,0:0:0:0:
283,144,22444,1,4,0:3:0:0:
204,162,22628,6,0,L|127:152,1,70,4|0,0:3|0:0,0:0:0:0:
178,329,23181,2,0,L|108:320,1,70,2|0,0:0|0:0,0:0:0:0:
60,188,23733,2,0,L|51:257,1,70,2|0,0:0|0:0,0:0:0:0:
260,225,24286,2,0,L|251:294,1,70,2|0,0:0|0:0,0:0:0:0:
63,103,24837,6,0,P|104:92|133:57,1,78.7500030040742,2|0,0:0|0:0,0:0:0:0:
128,66,25205,1,2,0:0:0:0:
208,99,25389,1,4,0:3:0:0:
282,127,25573,6,0,L|360:105,1,70,4|0,0:3|0:0,0:0:0:0:
292,301,26125,1,2,0:3:0:0:
372,277,26309,1,2,0:3:0:0:
361,193,26493,1,2,0:3:0:0:
281,217,26677,1,2,0:3:0:0:
452,252,26862,1,2,0:3:0:0:
441,168,27046,5,4,0:3:0:0:
429,84,27230,1,0,3:0:0:0:
423,78,27322,1,0,1:0:0:0:
418,71,27414,6,0,P|385:69|325:88,1,78.7500030040742,0|0,3:0|3:0,0:0:0:0:
266,10,27782,2,0,P|311:36|340:79,1,105,4|0,0:3|1:0,0:0:0:0:
300,164,28150,1,0,1:0:0:0:
340,79,28334,1,4,0:3:0:0:
300,164,28518,6,0,P|279:233|317:302,1,140,4|0,0:0|1:0,0:0:0:0:
413,223,29070,2,0,P|363:170|283:169,1,140,2|4,0:0|0:3,0:0:0:0:
266,49,29622,2,0,P|242:74|228:106,1,70,2|0,1:2|0:0,0:0:0:0:
124,51,29990,2,0,P|124:86|137:119,1,70,4|0,0:3|0:0,0:0:0:0:
80,191,30358,2,0,P|49:176|24:152,1,70,0|0,1:0|0:0,0:0:0:0:
81,282,30727,2,0,P|49:294|14:294,1,70,2|0,0:0|0:0,0:0:0:0:
159,234,31095,2,0,P|205:256|257:257,1,105,2|0,1:2|0:0,0:0:0:0:
258,256,31463,6,0,P|318:224|337:159,1,140,4|0,0:3|1:0,0:0:0:0:
214,139,32015,2,0,P|210:207|258:256,1,140,2|0,0:0|0:0,0:0:0:0:
298,336,32567,2,0,P|344:313|364:276,1,70,2|0,1:2|0:0,0:0:0:0:
443,320,32935,2,0,P|459:271|447:230,1,70,4|2,0:3|0:0,0:0:0:0:
491,107,33303,2,0,P|505:138|505:173,1,70,0|0,1:0|0:0,0:0:0:0:
345,91,33671,2,0,P|377:102|401:127,1,70,2|0,0:0|0:0,0:0:0:0:
256,256,34039,1,2,1:2:0:0:
301,177,34223,1,0,0:0:0:0:
209,176,34408,6,0,P|153:198|66:162,1,140,4|0,0:3|1:0,0:0:0:0:
145,63,34960,2,0,P|192:100|204:193,1,140,2|4,0:0|0:3,0:0:0:0:
164,255,35512,1,2,1:2:0:0:
252,275,35696,1,0,0:0:0:0:
287,357,35880,6,0,P|343:379|430:343,1,140,2|0,0:2|1:0,0:0:0:0:
350,244,36432,2,0,P|303:281|291:374,1,140,2|4,0:0|0:3,0:0:0:0:
199,337,36984,1,2,1:2:0:0:
164,254,37168,1,0,0:0:0:0:
286,356,37352,5,4,0:3:0:0:
286,356,37720,1,0,1:0:0:0:
164,254,37904,1,2,0:0:0:0:
164,254,38273,5,0,1:0:0:0:
309,170,38457,1,2,0:0:0:0:
164,87,38641,1,4,0:3:0:0:
213,170,38825,5,0,1:0:0:0:
213,170,39009,1,4,0:3:0:0:
213,170,39193,1,8,0:3:0:0:
254,88,39377,1,4,0:3:0:0:
254,88,39469,1,4,0:3:0:0:
254,88,39561,1,4,0:3:0:0:
336,49,39745,1,4,0:3:0:0:
426,56,39929,1,8,1:3:0:0:
501,116,40113,2,0,L|499:151,1,35,8|0,3:3|0:0,0:0:0:0:
499,150,40297,6,0,B|409:183|430:123|341:162,1,157.500006008148,4|4,0:0|0:3,0:0:0:0:
281,213,41033,2,0,P|235:231|171:204,1,105.000004005432,0|2,1:0|0:0,0:0:0:0:
90,73,41585,5,0,0:0:0:0:
90,73,41677,1,0,0:0:0:0:
90,73,41769,1,4,0:3:0:0:
95,157,41954,1,0,1:0:0:0:
13,137,42138,2,0,L|10:84,1,52.5000020027161
170,92,42506,1,0,0:0:0:0:
175,176,42691,1,4,0:3:0:0:
261,199,42874,2,0,L|258:146,1,52.5000020027161,0|0,1:0|0:0,0:0:0:0:
259,147,43150,1,0,0:0:0:0:
259,147,43242,6,0,P|305:165|369:138,1,105.000004005432,4|0,0:3|0:0,0:0:0:0:
225,62,43794,1,4,0:3:0:0:
309,63,43978,2,0,P|347:98|356:149,1,105.000004005432,0|0,1:0|0:0,0:0:0:0:
436,200,44530,5,0,0:0:0:0:
436,200,44622,1,0,0:0:0:0:
436,200,44714,1,4,0:3:0:0:
412,280,44898,1,0,1:0:0:0:
336,242,45082,2,0,L|318:313,1,52.5000020027161,2|0,0:0|0:0,0:0:0:0:
195,123,45450,1,2,0:3:0:0:
171,203,45634,1,8,0:3:0:0:
171,203,45727,1,8,0:3:0:0:
171,203,45819,1,4,0:3:0:0:
254,218,46003,1,4,0:3:0:0:
229,298,46187,6,0,P|180:344|111:346,1,140,4|0,0:0|1:0,0:0:0:0:
254,218,46739,6,0,P|224:130|285:61,1,181.999991668702,4|0,0:0|0:0,0:0:0:0:
316,283,47291,6,0,P|381:302|416:361,1,140,4|2,0:0|0:0,0:0:0:0:
484,299,47843,5,0,3:0:0:0:
490,295,47935,1,0,1:0:0:0:
496,291,48027,2,0,L|511:233,3,38.5000011749268,0|0|4|4,1:0|0:0|0:3|0:3,0:0:0:0:
427,228,48395,2,0,L|442:170,1,38.5000011749268,4|0,0:3|0:0,0:0:0:0:
352,172,48579,5,0,1:0:0:0:
353,164,48671,1,0,1:0:0:0:
355,157,48763,2,0,L|370:99,1,38.5000011749268,0|0,1:0|0:0,0:0:0:0:
289,62,48947,2,0,L|279:99,1,38.5000011749268,4|0,0:3|0:0,0:0:0:0:
278,99,49131,6,0,P|247:122|210:132,1,77.0000023498536,4|0,0:0|0:0,0:0:0:0:
377,271,49500,1,0,1:0:0:0:
295,306,49684,2,0,P|290:268|385:162,1,181.999991668702,4|4,0:3|0:3,0:0:0:0:
70,209,50236,1,4,0:0:0:0:
108,334,50788,6,0,L|120:291,2,26.2500010013581,2|0|0,0:0|0:0|0:0,0:0:0:0:
118,300,51064,2,0,L|130:257,1,26.2500010013581,0|2,0:0|0:0,0:0:0:0:
193,72,51340,5,0,1:0:0:0:
166,157,51524,1,0,1:0:0:0:
253,138,51708,1,0,1:0:0:0:
226,223,51892,6,0,P|302:249|372:207,1,167.999994873047,4|0,0:0|0:0,0:0:0:0:
311,3,52444,2,0,P|250:56|251:137,1,167.999994873047,2|0,1:2|0:0,0:0:0:0:
226,223,52996,1,2,0:2:0:0:
332,138,53181,1,0,1:0:0:0:
459,187,53365,2,0,P|444:107|373:68,1,167.999994873047,2|0,0:2|0:0,0:0:0:0:
311,3,53917,2,0,P|262:33|249:82,1,83.9999974365235,0|2,1:0|0:0,0:0:0:0:
161,19,54285,2,0,P|147:75|173:119,1,83.9999974365235,2|2,0:0|0:0,0:0:0:0:
234,140,54653,1,0,1:0:0:0:
0,156,54837,6,0,B|102:144|60:200|160:186,1,167.999994873047,4|0,0:0|0:0,0:0:0:0:
31,239,55389,1,0,1:0:0:0:
160,292,55573,2,0,B|60:280|102:336|0:322,1,167.999994873047,2|2,0:0|0:0,0:0:0:0:
129,375,56125,1,0,1:0:0:0:
155,98,56309,6,0,P|208:109|250:239,1,195.999994018555,4|0,0:0|0:0,0:0:0:0:
380,319,56862,1,0,1:0:0:0:
404,231,57046,2,0,P|367:271|223:226,1,224,4|0,0:0|0:0,0:0:0:0:
67,311,57598,1,0,1:0:0:0:
129,375,57782,2,0,P|112:323|249:203,1,251.999992309571,4|0,0:0|0:0,0:0:0:0:
164,14,58334,5,0,1:0:0:0:
164,14,58702,1,2,0:0:0:0:
133,97,58886,1,0,0:0:0:0:
221,85,59070,1,0,1:0:0:0:
254,2,59254,6,0,P|332:12|390:132,1,195.999994018555,4|0,0:0|0:0,0:0:0:0:
495,115,59806,2,0,P|492:156|445:213,1,97.9999970092774,0|0,1:0|0:0,0:0:0:0:
510,294,60174,2,0,P|478:321|405:327,1,97.9999970092774,4|0,0:0|1:0,0:0:0:0:
424,332,60450,1,0,1:0:0:0:
424,332,60542,1,0,1:0:0:0:
206,336,60727,6,0,P|275:249|386:263,1,224,4|4,0:0|0:3,0:0:0:0:
89,128,61279,1,0,1:0:0:0:
149,59,61463,2,0,P|189:162|100:268,1,251.999992309571,4|4,0:0|0:3,0:0:0:0:
361,47,62015,1,0,1:0:0:0:
354,138,62199,6,0,P|293:110|276:62,1,97.9999970092774,4|0,0:0|1:0,0:0:0:0:
273,384,62567,2,0,P|301:345|347:331,1,97.9999970092774,4|0,0:0|1:0,0:0:0:0:
80,152,62935,1,0,1:0:0:0:
80,152,63027,1,0,1:0:0:0:
80,152,63119,1,0,1:0:0:0:
449,104,63303,1,0,1:0:0:0:
449,104,63395,1,0,1:0:0:0:
449,104,63487,1,0,1:0:0:0:
425,189,63671,6,0,P|346:209|276:167,1,167.999994873047,4|0,0:0|0:0,0:0:0:0:
176,229,64223,2,0,P|170:188|187:150,1,83.9999974365235,0|2,1:0|0:0,0:0:0:0:
58,136,64592,2,0,P|83:103|122:88,1,83.9999974365235,0|2,0:0|0:2,0:0:0:0:
208,65,64960,1,0,1:0:0:0:
187,149,65144,1,0,0:0:0:0:
273,127,65328,2,0,P|352:107|394:37,1,167.999994873047,2|0,0:0|1:0,0:0:0:0:
354,201,65880,1,2,0:0:0:0:
388,278,66064,2,0,P|332:219|250:218,1,167.999994873047,2|0,0:0|1:0,0:0:0:0:
464,104,66616,6,0,P|442:182|481:254,1,167.999994873047,2|0,0:0|0:0,0:0:0:0:
387,378,67168,2,0,P|427:367|458:339,1,83.9999974365235,0|8,1:0|0:3,0:0:0:0:
458,339,67444,1,8,0:3:0:0:
458,339,67536,1,8,0:3:0:0:
379,296,67720,1,4,0:3:0:0:
379,296,67812,1,4,0:3:0:0:
379,296,67904,1,4,0:3:0:0:
99,288,68089,6,0,P|150:304|251:213,1,195.999994018555,4|0,0:0|0:0,0:0:0:0:
403,207,68642,1,0,1:0:0:0:
379,296,68826,2,0,P|366:242|219:209,1,224,6|0,0:0|0:0,0:0:0:0:
128,58,69378,1,0,1:0:0:0:
214,34,69562,2,0,P|173:70|231:242,1,251.999992309571,4|0,0:0|0:0,0:0:0:0:
62,364,70114,5,0,1:0:0:0:
62,364,70481,1,2,0:0:0:0:
146,339,70665,1,0,0:0:0:0:
128,252,70849,1,0,1:0:0:0:
43,278,71033,6,0,P|15:233|69:105,1,195.999994018555,2|0,0:0|0:0,0:0:0:0:
108,16,71585,2,0,P|180:19|213:49,1,97.9999970092774,0|0,1:0|0:0,0:0:0:0:
299,4,71954,2,0,P|347:57|349:101,1,97.9999970092774,4|0,0:0|1:0,0:0:0:0:
351,80,72229,1,0,1:0:0:0:
351,80,72321,1,0,1:0:0:0:
256,221,72506,6,0,P|366:233|434:145,1,224,4|0,0:0|1:0,0:0:0:0:
433,155,72966,1,0,1:0:0:0:
433,155,73058,1,0,1:0:0:0:
196,163,73242,6,0,P|129:252|185:371,1,251.999992309571,4|4,0:0|0:3,0:0:0:0:
348,80,73794,1,0,1:0:0:0:
280,138,73978,6,0,P|268:89|213:48,1,97.9999970092774,4|0,0:0|1:0,0:0:0:0:
324,277,74346,2,0,P|372:291|435:263,1,97.9999970092774,4|0,0:0|1:0,0:0:0:0:
174,246,74714,2,0,P|137:280|129:349,1,97.9999970092774,0|0,1:0|1:0,0:0:0:0:
256,221,75082,1,0,1:0:0:0:
196,163,75266,1,8,0:3:0:0:
280,138,75450,1,4,0:3:0:0:
339,200,75635,6,0,P|391:195|433:165,1,105.000004005432,4|0,0:0|0:0,0:0:0:0:
491,224,76187,1,4,0:3:0:0:
432,165,76371,2,0,P|410:212|416:263,1,105.000004005432,0|2,1:0|0:3,0:0:0:0:
361,327,76923,1,0,0:0:0:0:
298,273,77107,2,0,P|278:310|274:339,1,52.5000020027161,4|0,0:3|1:0,0:0:0:0:
251,202,77475,2,0,P|210:214|187:231,1,52.5000020027161,0|4,0:0|0:3,0:0:0:0:
155,149,77843,6,0,P|103:143|61:113,1,105.000004005432,0|2,1:0|0:3,0:0:0:0:
0,171,78395,1,0,0:0:0:0:
61,113,78579,2,0,P|82:160|76:211,1,105.000004005432,4|0,0:3|0:0,0:0:0:0:
105,290,79131,1,4,0:3:0:0:
183,320,79316,2,0,P|209:279|217:257,1,52.5000020027161,0|0,1:0|0:0,0:0:0:0:
248,159,79684,1,2,0:3:0:0:
326,129,79869,6,0,P|352:170|360:192,1,52.5000020027161
437,177,80236,2,0,P|426:224|416:245,1,52.5000020027161,4|0,0:3|0:0,0:0:0:0:
470,358,80604,2,0,P|426:332|374:329,1,105.000004005432,0|0,1:0|0:0,0:0:0:0:
174,323,81156,2,0,P|225:319|270:293,1,105.000004005432,8|4,0:3|0:0,0:0:0:0:
338,212,82996,6,0,L|329:166,1,26.2500010013581
375,79,83733,5,0,1:0:0:0:
278,125,83917,5,0,1:0:0:0:
272,121,84009,1,0,1:0:0:0:
266,117,84101,2,0,L|255:64,1,35,0|0,1:0|1:0,0:0:0:0:
338,212,84285,1,0,1:0:0:0:
344,208,84377,1,0,1:0:0:0:
350,204,84469,6,0,P|388:202|424:214,1,77.0000023498536,4|0,0:0|0:0,0:0:0:0:
203,326,84837,1,0,1:0:0:0:
280,374,85021,2,0,P|234:310|261:200,1,181.999991668702,4|2,0:0|0:0,0:0:0:0:
460,379,85574,1,0,1:0:0:0:
420,297,85757,6,0,P|402:331|373:356,1,77.0000023498536,4|0,0:0|0:0,0:0:0:0:
280,374,86310,1,0,1:0:0:0:
280,374,86677,6,0,P|248:350|195:344,1,90.9999958343508,0|0,1:0|3:0,0:0:0:0:
224,191,87046,2,0,P|184:196|142:229,1,90.9999958343508,0|0,3:0|1:0,0:0:0:0:
144,227,87322,1,0,1:0:0:0:
144,227,87414,6,0,P|128:185|93:154,1,77.0000023498536,4|0,0:0|0:0,0:0:0:0:
252,104,87782,1,0,1:0:0:0:
170,72,87966,2,0,P|215:79|316:-6,1,181.999991668702,4|2,0:0|0:0,0:0:0:0:
301,177,88519,1,0,1:0:0:0:
389,187,88703,6,0,P|361:221|352:267,1,77.0000023498536,4|0,0:0|0:0,0:0:0:0:
388,333,89255,1,2,0:0:0:0:
388,333,89622,6,0,P|448:336|507:392,1,136.499993751526,0|8,1:0|0:3,0:0:0:0:
512,275,89990,2,0,P|482:232|514:117,1,157.500006008148,8|2,0:3|0:0,0:0:0:0:
389,195,90359,6,0,P|366:238|327:257,1,77.0000023498536,4|0,0:0|0:0,0:0:0:0:
356,0,90727,1,0,1:0:0:0:
269,25,90911,2,0,P|318:22|407:127,1,181.999991668702,4|2,0:0|0:0,0:0:0:0:
248,179,91463,6,0,P|225:135|231:92,1,77.0000023498536,4|0,0:0|0:0,0:0:0:0:
269,25,92015,1,0,1:0:0:0:
269,25,92107,1,0,1:0:0:0:
269,25,92199,2,0,L|333:15,1,52.5000020027161,0|4,1:0|0:3,0:0:0:0:
169,37,92567,6,0,P|88:38|29:0,1,136.499993751526,8|4,0:3|0:3,0:0:0:0:
25,92,92935,2,0,P|82:149|73:236,1,157.500006008148,4|0,0:0|1:0,0:0:0:0:
177,182,93303,6,0,P|188:148|220:114,1,77.0000023498536,4|0,0:0|1:0,0:0:0:0:
214,117,93579,1,0,1:0:0:0:
214,117,93671,1,0,1:0:0:0:
322,331,93855,2,0,P|232:332|159:281,1,181.999991668702,4|2,0:0|0:0,0:0:0:0:
344,145,94408,6,0,P|367:171|381:216,1,77.0000023498536,4|0,0:0|0:0,0:0:0:0:
