osu file format v14

[General]
AudioFilename: audio.mp3
AudioLeadIn: 0
PreviewTime: 51156
Countdown: 0
SampleSet: Soft
StackLeniency: 0.7
Mode: 0
LetterboxInBreaks: 0
WidescreenStoryboard: 1

[Editor]
Bookmarks: 2015,7904,16555,28426,40205,51984,63763,75542,84377,96156,107935,121095,127076,144653,153579
DistanceSpacing: 1.3
BeatDivisor: 4
GridSize: 32
TimelineZoom: 2.1

[Metadata]
Title:Sayonara Bystander
TitleUnicode:さよならバイスタンダー
Artist:YUKI
ArtistUnicode:YUKI
Creator:Milan-
Version:Hard
Source:3月のライオン
Tags:pishifat March comes in like a Sangatsu 3-gatsu no Lion
BeatmapID:1453784
BeatmapSetID:678610

[Difficulty]
HPDrainRate:5
CircleSize:3.6
OverallDifficulty:6
ApproachRate:7.5
SliderMultiplier:1.3
SliderTickRate:1

[Events]
//Background and Video events
0,0,"[HorribleSubs] 3-gatsu no Lion - 01 [720p].mkv_snapshot_03.48_[2017.07.04_19.53.17].png",0,0
//Break Periods
//Storyboard Layer 0 (Background)
//Storyboard Layer 1 (Fail)
//Storyboard Layer 2 (Pass)
//Storyboard Layer 3 (Foreground)
//Storyboard Sound Samples

[TimingPoints]
543,368.098159509202,4,2,0,20,1,0
911,-100,4,2,0,25,0,0
1279,-100,4,2,0,30,0,0
1647,-100,4,2,0,35,0,0
1831,-100,4,2,0,40,0,0
2015,-100,4,2,0,70,0,0
2567,-100,4,2,0,70,0,0
2843,-100,4,2,0,5,0,0
2935,-100,4,2,0,70,0,0
3119,-100,4,2,0,70,0,0
3855,-100,4,2,0,70,0,0
5512,-100,4,2,0,70,0,0
5788,-100,4,2,0,5,0,0
5880,-100,4,2,0,70,0,0
6064,-100,4,2,0,70,0,0
6156,-100,4,2,0,5,0,0
6616,-133.333333333333,4,2,0,40,0,0
7168,-133.333333333333,4,2,0,70,0,0
7352,-100,4,2,0,70,0,0
7536,-100,4,2,0,70,0,0
7904,-100,4,2,0,70,0,0
8457,-100,4,2,0,70,0,0
8733,-100,4,2,0,5,0,0
8825,-100,4,2,0,70,0,0
9193,-100,4,2,0,70,0,0
10113,-133.333333333333,4,2,0,70,0,0
10481,-133.333333333333,4,2,0,70,0,0
10849,-100,4,2,0,70,0,0
11401,-100,4,2,0,70,0,0
12138,-100,4,2,0,70,0,0
13058,-133.333333333333,4,2,0,70,0,0
13426,-133.333333333333,4,2,0,70,0,0
13794,-100,4,2,0,70,0,0
14346,-100,4,2,0,70,0,0
14622,-100,4,2,0,5,0,0
14714,-100,4,2,0,70,0,0
14898,-100,4,2,0,70,0,0
15174,-100,4,2,0,31,0,0
15266,-100,4,2,0,70,0,0
16003,-83.3333333333333,4,2,0,70,0,0
16371,-83.3333333333333,4,2,0,70,0,0
16647,-100,4,2,0,5,0,0
16739,-166.666666666667,4,2,0,50,0,0
17291,-166.666666666667,4,2,0,50,0,0
18947,-133.333333333333,4,2,0,50,0,0
19316,-133.333333333333,4,2,0,50,0,0
19592,-166.666666666667,4,2,0,5,0,0
19684,-166.666666666667,4,2,0,50,0,0
21892,-133.333333333333,4,2,0,50,0,0
22260,-133.333333333333,4,2,0,50,0,0
22628,-166.666666666667,4,2,0,50,0,0
24837,-133.333333333333,4,2,0,50,0,0
25573,-166.666666666667,4,2,0,50,0,0
26125,-166.666666666667,4,2,0,50,0,0
27046,-133.333333333333,4,2,0,55,0,0
27782,-133.333333333333,4,2,0,55,0,0
28518,-166.666666666667,4,2,0,55,0,0
40297,-133.333333333333,4,2,0,62,0,0
46187,-111.111111111111,4,2,0,62,0,0
46739,-111.111111111111,4,2,0,62,0,0
47015,-111.111111111111,4,2,0,5,0,0
47107,-111.111111111111,4,2,0,62,0,0
47291,-111.111111111111,4,2,0,62,0,0
47843,-111.111111111111,4,2,0,62,0,0
49684,-111.111111111111,4,2,0,70,0,0
50236,-111.111111111111,4,2,0,70,0,0
50420,-111.111111111111,4,2,0,5,0,0
50788,-133.333333333333,4,2,0,40,0,0
51340,-111.111111111111,4,2,0,60,0,0
51892,-100,4,2,0,80,0,0
56309,-100,4,2,0,80,0,0
57046,-90.9090909090909,4,2,0,80,0,0
57782,-83.3333333333333,4,2,0,80,0,0
58334,-100,4,2,0,80,0,0
60727,-100,4,2,0,80,0,0
61003,-100,4,2,0,5,0,0
61095,-100,4,2,0,80,0,0
61463,-90.9090909090909,4,2,0,80,0,0
61739,-100,4,2,0,5,0,0
61831,-100,4,2,0,80,0,0
62199,-83.3333333333333,4,2,0,80,0,0
63671,-100,4,2,0,80,0,0
68089,-100,4,2,0,80,0,0
68825,-90.9090909090909,4,2,0,80,0,0
69561,-83.3333333333333,4,2,0,80,0,0
70113,-100,4,2,0,80,0,0
72506,-100,4,2,0,80,0,0
72782,-100,4,2,0,5,0,0
72874,-100,4,2,0,80,0,0
73242,-90.9090909090909,4,2,0,80,0,0
73518,-90.9090909090909,4,2,0,5,0,0
73610,-90.9090909090909,4,2,0,80,0,0
73978,-83.3333333333333,4,2,0,80,0,0
74530,-100,4,2,0,80,0,0
75635,-133.333333333333,4,2,0,70,0,0
81340,-133.333333333333,4,2,0,44,0,0
81432,-133.333333333333,4,2,0,70,0,0
82996,-133.333333333333,4,2,0,30,0,0
83089,-133.333333333333,4,2,0,55,0,0
83733,-100,4,2,0,55,0,0
83917,-100,4,2,0,40,0,0
84101,-100,4,2,0,50,0,0
84285,-100,4,2,0,60,0,0
84469,-100,4,2,0,70,0,0
85021,-100,4,2,0,70,0,0
85297,-100,4,2,0,5,0,0
85389,-100,4,2,0,70,0,0
85757,-100,4,2,0,70,0,0
86677,-133.333333333333,4,2,0,70,0,0
87414,-100,4,2,0,70,0,0
87966,-100,4,2,0,70,0,0
88242,-100,4,2,0,5,0,0
88334,-100,4,2,0,70,0,0
88702,-100,4,2,0,70,0,0
89622,-133.333333333333,4,2,0,70,0,0
89990,-133.333333333333,4,2,0,70,0,0
90358,-100,4,2,0,70,0,0
90911,-100,4,2,0,70,0,0
91187,-100,4,2,0,5,0,0
91279,-100,4,2,0,70,0,0
91463,-100,4,2,0,70,0,0
92199,-100,4,2,0,70,0,0
92567,-100,4,2,0,70,0,0
92935,-100,4,2,0,70,0,0
93303,-100,4,2,0,70,0,0
93855,-100,4,2,0,70,0,0
94131,-100,4,2,0,5,0,0
94223,-100,4,2,0,70,0,0
94408,-100,4,2,0,70,0,0
94500,-100,4,2,0,5,0,0

[Colours]
Combo1 : 175,101,148
Combo2 : 91,191,114
Combo3 : 166,123,191
Combo4 : 90,119,171

[HitObjects]
111,51,2015,6,0,P|143:49|172:36,2,65,4|0|0,0:0|0:0|1:0,0:0:0:0:
89,132,2567,2,0,P|149:153|212:139,1,130,4|2,0:0|0:0,0:0:0:0:
47,204,3119,2,0,P|88:252|149:272,1,130,4|0,0:0|0:0,0:0:0:0:
229,323,3671,5,0,3:0:0:0:
229,323,3763,1,0,3:0:0:0:
229,323,3855,2,0,L|279:309,3,32.5,0|0|0|0,1:0|1:0|1:0|1:0,0:0:0:0:
282,318,4223,2,0,L|332:304,3,32.5,0|0|0|0,1:0|3:0|1:0|1:0,0:0:0:0:
336,314,4592,2,0,L|386:300,3,32.5,0|0|0|0,1:0|0:0|3:0|0:0,0:0:0:0:
385,315,4960,6,0,P|422:330|456:367,2,65,4|0|0,0:0|0:0|1:0,0:0:0:0:
393,227,5512,2,0,P|432:221|516:261,1,130,4|2,0:0|0:0,0:0:0:0:
364,146,6064,1,4,0:0:0:0:
364,146,6616,6,0,L|371:116,4,24.3750009298325,2|0|0|0|2,0:0|0:0|0:0|0:0|0:0,0:0:0:0:
288,171,7168,5,0,1:0:0:0:
288,171,7260,1,0,1:0:0:0:
288,171,7352,1,0,3:0:0:0:
207,200,7536,1,8,0:3:0:0:
207,200,7904,6,0,P|177:185|156:161,2,65,4|0|0,0:0|0:0|1:0,0:0:0:0:
203,286,8457,2,0,P|162:286|83:235,1,130,4|2,0:0|0:0,0:0:0:0:
245,360,9009,1,0,1:0:0:0:
245,360,9193,2,0,P|186:386|122:379,1,130,4|0,0:2|0:0,0:0:0:0:
41,358,9745,1,0,1:0:0:0:
41,358,10113,6,0,L|33:288,1,48.750001859665,2|0,0:0|0:0,0:0:0:0:
87,241,10481,2,0,L|79:171,1,48.750001859665,0|0,1:0|1:0,0:0:0:0:
108,94,10849,6,0,P|68:113|26:119,2,65,4|0|0,0:0|0:0|1:0,0:0:0:0:
177,149,11401,2,0,P|151:185|83:242,1,130,4|2,0:0|0:0,0:0:0:0:
260,177,11954,1,0,1:0:0:0:
260,177,12138,2,0,P|256:221|225:304,1,130,4|2,0:0|0:0,0:0:0:0:
178,370,12690,1,0,1:0:0:0:
178,370,13058,6,0,L|243:390,1,48.750001859665,8|4,0:3|0:3,0:0:0:0:
300,347,13426,2,0,L|346:332,1,48.750001859665,4|4,0:3|0:3,0:0:0:0:
429,298,13794,6,0,P|454:346|458:368,2,65,4|4|8,0:0|0:3|0:3,0:0:0:0:
465,160,14346,2,0,P|416:202|354:221,1,130,4|2,0:0|0:0,0:0:0:0:
370,112,14898,2,0,P|317:223|167:232,1,260,4|2,0:0|0:0,0:0:0:0:
220,229,16003,6,0,P|301:204|340:140,1,155.999995239258,0|0,1:0|1:0,0:0:0:0:
333,146,16739,6,0,L|245:139,1,77.999997619629,4|0,0:3|0:0,0:0:0:0:
255,139,17291,2,0,L|167:132,1,77.999997619629,2|0,0:0|0:0,0:0:0:0:
177,132,17843,2,0,L|89:125,1,77.999997619629,2|0,0:0|0:0,0:0:0:0:
99,125,18395,2,0,L|11:118,1,77.999997619629,2|0,0:0|0:0,0:0:0:0:
21,118,18947,6,0,L|14:190,1,48.750001859665,2|0,0:0|0:0,0:0:0:0:
84,204,19316,2,0,L|76:275,1,48.750001859665,2|0,0:0|0:0,0:0:0:0:
128,336,19684,6,0,L|205:342,1,77.999997619629,4|0,0:3|0:0,0:0:0:0:
205,342,20236,2,0,L|282:348,1,77.999997619629,2|0,0:0|0:0,0:0:0:0:
282,348,20788,2,0,L|359:354,1,77.999997619629,2|0,0:0|0:0,0:0:0:0:
359,354,21340,2,0,L|436:360,1,77.999997619629,2|0,0:0|0:0,0:0:0:0:
436,360,21892,6,0,P|448:341|458:303,1,48.750001859665,2|0,0:0|0:0,0:0:0:0:
386,279,22260,2,0,P|374:260|364:222,1,48.750001859665,2|4,0:0|0:3,0:0:0:0:
415,176,22628,6,0,P|466:139|475:121,1,77.999997619629,4|0,0:3|0:0,0:0:0:0:
471,126,23181,2,0,P|456:90|458:52,1,77.999997619629,2|0,0:0|0:0,0:0:0:0:
457,51,23733,2,0,P|424:30|386:26,1,77.999997619629,2|0,0:0|0:0,0:0:0:0:
385,26,24285,2,0,P|361:56|327:74,1,77.999997619629,2|0,0:0|0:0,0:0:0:0:
249,64,24837,5,2,0:0:0:0:
0,4,25205,2,0,L|48:7,1,48.750001859665,2|4,0:0|0:3,0:0:0:0:
124,28,25573,6,0,P|88:52|67:88,1,77.999997619629,4|0,0:3|0:0,0:0:0:0:
46,157,26125,2,0,L|7:140,2,38.9999988098145,2|2|2,0:3|0:3|0:3,0:0:0:0:
83,225,26677,2,0,L|44:242,2,38.9999988098145,2|2|4,0:3|0:3|0:3,0:0:0:0:
155,281,27230,5,0,3:0:0:0:
155,281,27322,1,0,1:0:0:0:
155,281,27414,2,0,L|166:335,1,48.750001859665,0|0,3:0|3:0,0:0:0:0:
236,364,27782,2,0,L|254:259,1,97.50000371933,4|0,0:3|1:0,0:0:0:0:
481,150,28518,6,0,P|449:173|412:183,1,77.999997619629,4|0,0:0|1:0,0:0:0:0:
412,182,29070,2,0,P|388:150|378:113,1,77.999997619629,2|4,0:0|0:3,0:0:0:0:
378,113,29622,2,0,P|409:89|446:79,1,77.999997619629,2|4,1:2|0:3,0:0:0:0:
293,46,30358,1,0,1:0:0:0:
200,172,30727,1,2,0:0:0:0:
93,58,31095,1,2,1:2:0:0:
0,183,31463,6,0,P|24:213|35:250,1,77.999997619629,4|0,0:3|1:0,0:0:0:0:
35,250,32015,2,0,P|72:239|101:214,1,77.999997619629,2|0,0:0|0:0,0:0:0:0:
101,214,32567,2,0,P|111:251|136:280,1,77.999997619629,2|4,1:2|0:3,0:0:0:0:
249,173,33303,1,0,1:0:0:0:
289,323,33671,1,2,0:0:0:0:
405,219,34039,1,2,1:2:0:0:
445,369,34408,6,0,P|473:347|501:297,1,77.999997619629,4|0,0:3|1:0,0:0:0:0:
495,311,34960,2,0,P|473:283|423:255,1,77.999997619629,2|4,0:0|0:3,0:0:0:0:
437,260,35512,2,0,P|409:282|381:332,2,77.999997619629,2|2|0,1:2|0:2|1:0,0:0:0:0:
437,260,36432,2,0,P|409:238|381:188,1,77.999997619629,2|4,0:0|0:3,0:0:0:0:
386,202,36984,2,0,P|408:174|458:146,1,77.999997619629,2|4,1:2|0:3,0:0:0:0:
323,50,37720,2,0,L|328:102,1,38.9999988098145,0|2,1:0|0:0,0:0:0:0:
171,107,38273,6,0,L|176:159,2,38.9999988098145,0|2|4,1:0|0:0|0:3,0:0:0:0:
96,84,38825,2,0,L|92:45,2,38.9999988098145,0|4|8,1:0|0:3|0:3,0:0:0:0:
46,144,39377,1,4,0:3:0:0:
46,144,39469,1,4,0:3:0:0:
46,144,39561,2,0,L|51:196,2,38.9999988098145,4|4|8,0:3|0:3|1:3,0:0:0:0:
17,322,40297,6,0,B|105:333|68:284|158:299,1,146.250005578995,4|4,0:0|0:3,0:0:0:0:
132,220,41033,2,0,B|218:203|185:259|273:243,1,146.250005578995,0|0,1:0|0:0,0:0:0:0:
345,203,41769,1,4,0:3:0:0:
345,203,41954,2,0,P|371:158|376:98,2,97.50000371933,0|0|4,1:0|0:0|0:3,0:0:0:0:
350,285,42874,1,0,1:0:0:0:
402,19,43242,6,0,B|309:12|352:54|261:42,1,146.250005578995,4|4,0:3|0:3,0:0:0:0:
287,121,43978,2,0,B|194:128|237:86|146:98,1,146.250005578995,0|0,1:0|0:0,0:0:0:0:
74,138,44714,1,4,0:3:0:0:
74,138,44899,2,0,P|48:183|43:243,1,97.50000371933,0|0,1:0|0:0,0:0:0:0:
123,226,45450,2,0,P|149:271|154:331,1,97.50000371933,2|4,0:3|0:3,0:0:0:0:
483,349,46187,6,0,P|426:344|379:311,1,116.999996429443,4|0,0:0|1:0,0:0:0:0:
294,333,46739,2,0,P|269:280|274:223,1,116.999996429443,4|0,0:0|0:0,0:0:0:0:
199,177,47291,2,0,P|231:129|351:110,1,175.499994644165,4|0,0:0|3:0,0:0:0:0:
349,114,47935,1,0,1:0:0:0:
349,114,48027,2,0,P|406:119|456:90,1,116.999996429443,0|4,1:0|0:3,0:0:0:0:
387,35,48579,1,0,1:0:0:0:
387,35,48671,1,0,1:0:0:0:
387,35,48763,1,0,1:0:0:0:
28,34,49131,6,0,P|85:39|132:72,1,116.999996429443,4|0,0:0|1:0,0:0:0:0:
218,51,49683,2,0,P|242:103|215:216,1,175.499994644165,4|4,0:3|0:0,0:0:0:0:
23,342,50788,6,0,L|-4:333,4,24.3750009298325,2|0|0|0|2,0:0|0:0|0:0|0:0|0:0,0:0:0:0:
103,308,51340,5,0,1:0:0:0:
186,333,51524,1,0,1:0:0:0:
270,357,51708,1,0,1:0:0:0:
353,380,51892,6,0,P|397:358|431:280,1,130,4|0,0:0|0:0,0:0:0:0:
346,293,52444,2,0,P|348:243|298:175,1,130,2|0,1:2|0:0,0:0:0:0:
268,255,52996,2,0,P|231:228|200:225,1,65,2|0,0:2|1:0,0:0:0:0:
136,261,53365,2,0,P|71:268|72:156,1,195,2|0,0:2|1:0,0:0:0:0:
118,102,54101,2,0,P|121:77|112:32,2,65,2|2|2,0:0|0:0|0:0,0:0:0:0:
199,125,54653,1,0,1:0:0:0:
266,20,54837,6,0,B|247:101|295:72|273:169,1,130,4|0,0:0|0:0,0:0:0:0:
351,190,55389,1,0,1:0:0:0:
267,160,55573,2,0,B|248:241|296:212|274:309,1,130,2|2,0:0|0:0,0:0:0:0:
195,267,56125,1,0,1:0:0:0:
292,296,56309,6,0,L|438:273,1,130,4|0,0:0|0:0,0:0:0:0:
493,232,56862,1,0,1:0:0:0:
351,190,57046,6,0,L|202:166,1,143.000004364014,4|0,0:0|0:0,0:0:0:0:
142,115,57599,1,0,1:0:0:0:
299,83,57782,6,0,L|462:57,1,155.999995239258,4|0,0:0|0:0,0:0:0:0:
512,0,58335,1,0,1:0:0:0:
215,39,58702,6,0,L|127:24,2,65,2|0|0,0:0|0:0|1:0,0:0:0:0:
220,123,59254,2,0,P|155:127|98:185,1,130,4|0,0:0|0:0,0:0:0:0:
27,197,59806,2,0,P|92:201|149:259,1,130,0|4,1:0|0:0,0:0:0:0:
74,294,60358,2,0,P|80:312|89:327,2,32.5,0|0|0,1:0|1:0|1:0,0:0:0:0:
177,311,60727,6,0,L|201:173,1,130,4|4,0:0|0:3,0:0:0:0:
274,221,61279,1,0,1:0:0:0:
270,58,61463,6,0,L|293:200,1,143.000004364014,4|4,0:0|0:3,0:0:0:0:
368,162,62015,1,0,1:0:0:0:
361,331,62199,6,0,L|390:177,1,155.999995239258,4|4,0:0|0:0,0:0:0:0:
465,216,62751,1,0,1:0:0:0:
496,124,62935,6,0,L|447:134,2,38.9999988098145,0|0|0,1:0|1:0|1:0,0:0:0:0:
438,54,63303,2,0,L|389:44,2,38.9999988098145,0|0|0,1:0|1:0|1:0,0:0:0:0:
375,128,63671,6,0,P|356:79|275:42,1,130,4|0,0:0|0:0,0:0:0:0:
291,126,64223,1,0,1:0:0:0:
291,126,64408,2,0,P|239:117|166:169,1,130,2|2,0:0|0:2,0:0:0:0:
248,196,64960,2,0,P|230:237|229:261,1,65,0|0,1:0|0:0,0:0:0:0:
313,252,65328,6,0,P|337:306|406:344,1,130,2|0,0:0|1:0,0:0:0:0:
463,290,65880,1,2,0:0:0:0:
463,290,66064,2,0,P|439:236|370:198,1,130,2|0,0:0|1:0,0:0:0:0:
302,167,66616,2,0,P|241:188|169:160,1,130,2|0,0:0|0:0,0:0:0:0:
140,245,67168,2,0,P|103:206|118:111,1,130,0|8,1:0|0:3,0:0:0:0:
179,92,67720,1,4,0:3:0:0:
179,92,67812,1,4,0:3:0:0:
179,92,67904,1,4,0:3:0:0:
130,12,68089,6,0,L|277:1,1,130,4|0,0:0|0:0,0:0:0:0:
338,33,68642,1,0,1:0:0:0:
208,100,68825,6,0,L|48:87,1,143.000004364014,6|0,0:0|0:0,0:0:0:0:
0,146,69378,1,0,1:0:0:0:
152,187,69561,6,0,L|317:176,1,155.999995239258,4|0,0:0|0:0,0:0:0:0:
376,224,70114,1,0,1:0:0:0:
26,261,70481,6,0,L|90:266,2,65,2|0|0,0:0|0:0|1:0,0:0:0:0:
54,340,71033,2,0,P|96:316|189:341,1,130,2|0,0:0|0:0,0:0:0:0:
188,245,71585,2,0,P|229:269|254:362,1,130,0|4,1:0|0:0,0:0:0:0:
339,321,72138,2,0,P|339:342|333:373,2,32.5,0|0|0,1:0|1:0|1:0,0:0:0:0:
425,328,72506,6,0,L|401:190,1,130,4|0,0:0|1:0,0:0:0:0:
328,238,73058,1,0,1:0:0:0:
332,75,73242,6,0,L|309:217,1,143.000004364014,4|4,0:0|0:3,0:0:0:0:
234,179,73794,1,0,1:0:0:0:
241,348,73978,6,0,L|212:194,1,155.999995239258,4|4,0:0|0:0,0:0:0:0:
137,233,74530,2,0,L|127:310,1,65,0|0,1:0|1:0,0:0:0:0:
76,175,74898,2,0,L|66:109,1,65,0|0,1:0|1:0,0:0:0:0:
17,233,75266,1,8,0:3:0:0:
152,4,75635,6,0,P|199:7|237:36,1,97.50000371933,4|0,0:0|0:0,0:0:0:0:
188,97,76187,1,4,0:3:0:0:
264,109,76371,2,0,P|260:156|231:194,1,97.50000371933,0|2,1:0|0:3,0:0:0:0:
372,30,77107,2,0,L|313:44,2,48.750001859665,4|0|0,0:3|1:0|0:0,0:0:0:0:
447,49,77659,1,4,0:3:0:0:
396,107,77843,6,0,P|358:137|344:183,1,97.50000371933,0|2,1:0|0:3,0:0:0:0:
419,203,78395,1,0,0:0:0:0:
364,256,78579,2,0,P|394:293|440:307,1,97.50000371933,4|0,0:3|0:0,0:0:0:0:
284,236,79316,2,0,L|218:245,2,48.750001859665,0|0|2,1:0|0:0|0:3,0:0:0:0:
250,323,79868,6,0,L|184:314,1,48.750001859665,0|0,0:0|1:0,0:0:0:0:
152,255,80236,2,0,L|86:264,1,48.750001859665,4|0,0:3|0:0,0:0:0:0:
47,315,80604,2,0,P|11:269|8:224,1,97.50000371933,0|0,1:0|0:0,0:0:0:0:
57,137,81156,2,0,P|48:184|16:220,1,97.50000371933,8|4,0:3|0:0,0:0:0:0:
379,304,82996,5,0,0:0:0:0:
129,261,83733,6,0,L|142:190,1,65,0|0,1:0|1:0,0:0:0:0:
224,195,84101,1,0,1:0:0:0:
224,195,84193,1,0,1:0:0:0:
224,195,84285,1,0,1:0:0:0:
306,185,84469,6,0,P|336:200|357:224,2,65,4|0|0,0:0|0:0|1:0,0:0:0:0:
309,98,85022,2,0,P|350:98|429:149,1,130,4|0,0:0|0:0,0:0:0:0:
267,23,85574,1,0,1:0:0:0:
267,23,85758,2,0,P|326:-3|390:4,1,130,4|0,0:0|0:0,0:0:0:0:
471,26,86310,1,0,1:0:0:0:
471,26,86678,6,0,L|479:96,1,48.750001859665,0|0,1:0|3:0,0:0:0:0:
425,143,87046,2,0,L|433:213,1,48.750001859665,0|0,3:0|1:0,0:0:0:0:
404,290,87414,6,0,P|444:271|486:265,2,65,4|0|0,0:0|0:0|1:0,0:0:0:0:
335,235,87966,2,0,P|361:199|429:142,1,130,4|2,0:0|0:0,0:0:0:0:
252,207,88519,1,0,1:0:0:0:
252,207,88703,2,0,P|256:163|287:80,1,130,4|0,0:0|0:0,0:0:0:0:
334,14,89255,1,2,0:0:0:0:
334,14,89622,6,0,L|269:-6,1,48.750001859665,0|8,1:0|0:3,0:0:0:0:
212,37,89991,2,0,L|166:52,1,48.750001859665,8|0,0:3|0:0,0:0:0:0:
107,112,90359,6,0,P|82:64|78:42,2,65,4|0|0,0:0|0:0|1:0,0:0:0:0:
114,196,90911,2,0,P|53:177|4:135,1,130,4|2,0:0|0:0,0:0:0:0:
138,277,91463,2,0,P|75:291|12:279,1,130,4|0,0:0|0:0,0:0:0:0:
0,374,92015,1,0,1:0:0:0:
0,374,92107,1,0,1:0:0:0:
0,374,92199,1,0,1:0:0:0:
232,257,92567,6,0,L|204:411,1,130,8|4,0:3|0:0,0:0:0:0:
253,170,93303,6,0,L|178:160,2,65,4|0|0,0:0|1:0|1:0,0:0:0:0:
211,78,93855,2,0,L|81:90,1,130,4|2,0:0|0:0,0:0:0:0:
172,0,94408,1,4,0:0:0:0:
