osu file format v14

[General]
AudioFilename: audio.mp3
AudioLeadIn: 0
PreviewTime: 41318
Countdown: 1
SampleSet: None
StackLeniency: 0.7
Mode: 0
LetterboxInBreaks: 0
WidescreenStoryboard: 1

[Editor]
Bookmarks: 28979,52227,63136,68931,71318,79925,80181,84954
DistanceSpacing: 1.2
BeatDivisor: 4
GridSize: 32
TimelineZoom: 1.6

[Metadata]
Title:Sakamichi no Melody
TitleUnicode:Sakamichi no Melody
Artist:YUKI
ArtistUnicode:YUKI
Creator:Etna
Version:Insane
Source:
Tags:
BeatmapID:1724438
BeatmapSetID:821138

[Difficulty]
HPDrainRate:5
CircleSize:4
OverallDifficulty:8
ApproachRate:9
SliderMultiplier:2
SliderTickRate:1

[Events]
//Background and Video events
0,0,"BG1.jpg",0,0
//Break Periods
//Storyboard Layer 0 (Background)
//Storyboard Layer 1 (Fail)
//Storyboard Layer 2 (Pass)
//Storyboard Layer 3 (Foreground)
//Storyboard Sound Samples

[TimingPoints]
428,340.909090909091,4,3,0,50,1,0
428,-200,4,3,0,50,0,0
3155,-133.333333333333,4,3,0,50,0,0
24973,-200,4,3,0,50,0,0
27530,-133.333333333333,4,3,0,50,0,0
35882,339.750849377123,4,3,0,50,1,0
35882,-200,4,3,0,50,0,0
39959,-133.333333333333,4,3,0,50,0,0
40298,-111.111111111111,4,3,0,50,0,0
40638,-95.2380952380952,4,3,0,50,0,0
40978,-133.333333333333,4,3,0,50,0,0
41318,340.909090909091,4,3,0,50,1,0
41318,-83.3333333333333,4,3,0,50,0,1
72681,-200,4,3,0,50,0,0
73704,-200,4,3,0,5,0,0
74045,-133.333333333333,4,3,0,50,0,0

[Colours]
Combo1 : 28,28,255
Combo2 : 255,21,21
Combo3 : 240,240,240
Combo4 : 255,128,64

[HitObjects]
423,268,428,5,0,0:0:0:0:
347,329,1109,5,0,0:0:0:0:
260,279,1791,5,0,0:0:0:0:
184,340,2303,5,0,0:0:0:0:
184,340,2388,1,0,0:0:0:0:
184,340,2473,1,0,0:0:0:0:
97,290,2643,1,0,0:0:0:0:
21,351,2814,1,0,0:0:0:0:
21,351,3155,6,0,P|94:370|156:324,1,150.000005722046
78,282,3666,1,0,0:0:0:0:
137,165,3837,2,0,B|168:135|168:135|157:242,1,150.000005722046
61,143,4348,1,0,0:0:0:0:
231,289,4518,6,0,P|265:302|302:299,1,75.0000028610231
404,173,4859,2,0,P|374:195|358:229,1,75.0000028610231
472,336,5200,2,0,B|445:264|445:264|388:310,1,150.000005722046
333,381,5712,1,0,0:0:0:0:
272,217,5882,6,0,B|235:119|235:119|250:70,1,150.000005722046
284,0,6393,1,0,0:0:0:0:
334,122,6564,1,0,0:0:0:0:
174,37,6734,1,0,0:0:0:0:
419,75,6905,6,0,B|433:119|433:119|396:217,1,150.000005722046
359,291,7416,1,0,0:0:0:0:
334,122,7586,1,0,0:0:0:0:
470,252,7757,1,0,0:0:0:0:
264,244,7928,2,0,P|226:240|192:253,1,75.0000028610231
47,323,8268,2,0,P|68:292|74:255,1,75.0000028610231
55,109,8609,6,0,B|25:133|25:133|62:168|130:151,1,150.000005722046
207,104,9121,1,0,0:0:0:0:
287,147,9291,2,0,P|360:166|422:120,1,150.000005722046
338,3,9802,1,0,0:0:0:0:
338,3,9888,1,0,0:0:0:0:
338,3,9973,6,0,P|331:40|342:76,1,75.0000028610231
488,68,10314,2,0,P|459:44|423:35,1,75.0000028610231
256,43,10655,2,0,B|195:69|195:69|165:36|120:38,1,150.000005722046
31,54,11166,1,0,0:0:0:0:
127,121,11337,6,0,P|156:145|171:179,1,75.0000028610231
137,356,11678,2,0,P|143:319|164:288,1,75.0000028610231
335,230,12018,2,0,P|300:243|263:239,1,75.0000028610231
170,178,12359,1,0,0:0:0:0:
266,100,12530,2,0,B|289:126|289:126|263:239,1,150.000005722046
255,350,13041,5,0,0:0:0:0:
72,227,13212,1,0,0:0:0:0:
263,238,13382,2,0,P|299:241|334:228,1,75.0000028610231
440,82,13723,2,0,P|418:112|411:148,1,75.0000028610231
441,341,14064,6,0,B|474:235|474:235|439:252,1,150.000005722046
360,296,14575,1,0,0:0:0:0:
278,333,14746,2,0,P|275:260|328:210,1,150.000005722046
405,166,15257,1,0,0:0:0:0:
463,33,15428,6,0,P|429:46|405:75,1,75.0000028610231
413,238,15768,2,0,P|417:201|404:165,1,75.0000028610231
226,30,16109,2,0,P|255:96|324:118,1,150.000005722046
484,122,16621,1,0,0:0:0:0:
311,33,16791,6,0,B|250:83|241:137|241:137|285:129,1,150.000005722046
93,67,17303,2,0,B|105:144|148:179|148:179|163:137,1,150.000005722046
26,283,17814,2,0,B|134:342|134:221|236:281,1,225.000008583069
185,345,18496,5,0,0:0:0:0:
79,218,18666,1,0,0:0:0:0:
258,197,18837,2,0,P|291:213|314:243,1,75.0000028610231
419,370,19178,2,0,P|416:332|430:298,1,75.0000028610231
495,128,19518,6,0,B|525:152|525:152|488:187|420:170,1,150.000005722046
343,123,20030,1,0,0:0:0:0:
287,52,20200,2,0,P|360:33|422:79,1,150.000005722046
333,194,20712,2,0,P|329:157|343:123,1,75.0000028610231
418,72,21053,1,0,0:0:0:0:
249,140,21223,1,0,0:0:0:0:
424,311,21393,1,0,0:0:0:0:
424,311,21479,1,0,0:0:0:0:
424,311,21564,2,0,B|403:257|403:257|431:213|420:169,1,150.000005722046
418,72,22075,1,0,0:0:0:0:
333,194,22246,6,0,P|301:215|265:220,1,75.0000028610231
103,136,22587,2,0,P|136:151|160:180,1,75.0000028610231
168,362,22927,2,0,P|165:324|179:290,1,75.0000028610231
265,219,23268,1,0,0:0:0:0:
154,41,23439,2,0,B|132:68|132:68|160:180,1,150.000005722046
178,290,23950,5,0,0:0:0:0:
246,108,24121,1,0,0:0:0:0:
382,232,24291,2,0,P|414:213|428:178,1,75.0000028610231
291,53,24632,2,0,P|259:72|245:107,1,75.0000028610231
229,298,24973,6,0,P|305:254|342:335,1,200
341,335,25996,2,0,P|439:249|498:365,1,300
497,364,27530,1,0,0:0:0:0:
391,345,27700,6,0,P|354:346|317:353,1,75.0000028610231
207,260,28041,2,0,P|244:261|281:270,1,75.0000028610231
391,175,28382,2,0,P|354:176|317:185,1,75.0000028610231
207,259,28723,5,0,0:0:0:0:
317,184,28893,1,0,0:0:0:0:
126,206,29064,1,0,0:0:0:0:
302,87,29234,1,0,0:0:0:0:
207,259,29405,6,0,P|147:300|75:287,1,150.000005722046
65,119,29916,1,0,0:0:0:0:
126,206,30087,1,0,0:0:0:0:
113,26,30257,1,0,0:0:0:0:
169,114,30428,6,0,P|241:132|314:118,1,150.000005722046
393,48,30939,1,0,0:0:0:0:
421,149,31109,2,0,P|434:183|462:207,1,75.0000028610231
481,311,31450,2,0,P|468:345|440:369,1,75.0000028610231
248,303,31791,6,0,P|308:261|380:273,1,150.000005722046
328,355,32302,1,0,0:0:0:0:
110,290,32473,2,0,P|138:266|175:260,1,75.0000028610231
236,172,32814,2,0,P|207:148|170:142,1,75.0000028610231
72,59,33155,6,0,P|57:132|75:204,1,150.000005722046
171,42,33666,1,0,0:0:0:0:
268,83,33837,2,0,P|303:95|340:90,1,75.0000028610231
500,46,34178,2,0,P|465:34|429:40,1,75.0000028610231
422,285,34518,6,0,P|440:212|425:139,1,150.000005722046
260,255,35030,1,0,0:0:0:0:
350,291,35200,2,0,P|386:298|421:285,1,75.0000028610231
273,350,35541,2,0,P|237:361|201:354,1,75.0000028610231
76,186,35882,22,0,P|103:211|114:236,1,50
157,106,36221,2,0,P|167:141|164:168,1,50
267,77,36561,6,0,P|258:113|242:134,1,50
376,106,36901,2,0,P|350:133|326:144,1,50
455,185,37241,6,0,P|430:186|407:195,1,50
324,289,37580,2,0,P|349:288|372:279,1,50
257,226,37920,6,0,P|232:227|209:236,1,50
110,376,38260,2,0,P|121:353|125:329,1,50
7,101,38600,2,0,B|-4:193|86:212|86:212|98:120|181:123,1,300
312,230,39959,6,0,P|266:232|214:259,1,75.0000028610231
86,384,40298,6,0,P|107:343|109:284,1,89.9999972534181
52,102,40638,6,0,P|76:140|126:172,1,104.999996795654
223,98,40978,5,0,0:0:0:0:
264,80,41063,1,0,0:0:0:0:
308,82,41148,1,0,0:0:0:0:
346,104,41233,1,0,0:0:0:0:
370,141,41318,5,4,0:0:0:0:
449,32,41488,1,0,0:0:0:0:
510,153,41658,2,0,P|517:211|498:268,1,119.999996337891
384,308,41999,2,0,P|324:301|268:319,1,119.999996337891
169,384,42340,1,0,0:0:0:0:
218,218,42511,1,0,0:0:0:0:
0,250,42681,6,0,P|52:276|111:265,1,119.999996337891
260,132,43022,2,0,P|202:123|151:150,1,119.999996337891
235,337,43363,2,0,L|218:218,1,119.999996337891
84,65,43704,2,0,L|68:184,1,119.999996337891
202,47,44045,6,0,P|315:44|369:146,1,239.999992675781
379,260,44556,2,0,P|361:204|369:145,1,119.999996337891
474,193,44897,1,0,0:0:0:0:
262,136,45068,1,0,0:0:0:0:
464,78,45238,1,0,0:0:0:0:
180,91,45408,6,0,P|169:148|195:201,1,119.999996337891
277,365,45749,2,0,P|303:312|292:254,1,119.999996337891
92,283,46090,2,0,L|211:299,1,119.999996337891
380,120,46431,2,0,L|261:136,1,119.999996337891
80,189,46772,6,0,P|138:182|195:201,1,119.999996337891
130,277,47113,1,0,0:0:0:0:
27,116,47283,1,0,0:0:0:0:
27,116,47369,1,0,0:0:0:0:
27,116,47454,1,0,0:0:0:0:
9,236,47624,1,0,0:0:0:0:
107,59,47795,1,0,0:0:0:0:
202,204,47965,6,0,B|313:274|313:145|426:204,1,239.999992675781
262,148,48477,1,0,0:0:0:0:
371,266,48647,1,0,0:0:0:0:
359,83,48818,1,0,0:0:0:0:
454,308,48988,2,0,P|411:348|353:358,2,119.999996337891
165,304,49499,6,0,P|221:286|280:294,1,119.999996337891
352,357,49840,1,0,0:0:0:0:
296,175,50011,2,0,L|280:294,1,119.999996337891
164,89,50352,2,0,L|180:208,1,119.999996337891
281,57,50693,1,0,0:0:0:0:
48,76,50863,6,0,P|106:69|163:88,1,119.999996337891
411,162,51204,2,0,P|353:155|296:174,1,119.999996337891
115,267,51545,2,0,L|99:148,1,119.999996337891
344,353,51886,2,0,L|360:234,1,119.999996337891
498,0,52227,6,0,P|491:59|510:115,1,119.999996337891
475,222,52568,2,0,P|415:215|359:234,1,119.999996337891
266,317,52908,1,0,0:0:0:0:
296,147,53079,1,0,0:0:0:0:
472,293,53249,1,0,0:0:0:0:
414,131,53420,1,0,0:0:0:0:
147,301,53590,6,0,L|266:317,1,119.999996337891
414,131,53931,2,0,L|295:147,1,119.999996337891
334,384,54272,2,0,P|361:332|352:274,1,119.999996337891
210,104,54613,2,0,P|200:162|228:215,1,119.999996337891
296,47,54954,6,0,P|187:14|108:96,1,239.999992675781
98,212,55465,2,0,P|116:155|107:96,1,119.999996337891
2,145,55806,1,0,0:0:0:0:
214,88,55977,1,0,0:0:0:0:
12,30,56147,1,0,0:0:0:0:
114,294,56318,6,0,P|172:304|225:277,1,119.999996337891
331,100,56658,2,0,P|293:145|290:204,1,119.999996337891
391,384,56999,2,0,P|370:328|320:296,1,119.999996337891
194,185,57340,1,0,0:0:0:0:
386,223,57511,1,0,0:0:0:0:
266,321,57681,6,0,L|289:204,1,119.999996337891
414,321,58022,1,0,0:0:0:0:
356,129,58193,1,0,0:0:0:0:
356,129,58278,1,0,0:0:0:0:
356,129,58363,1,0,0:0:0:0:
289,202,58533,1,0,0:0:0:0:
475,250,58704,1,0,0:0:0:0:
289,202,58874,6,0,P|256:153|261:95,1,119.999996337891
339,29,59215,1,0,0:0:0:0:
386,223,59386,1,0,0:0:0:0:
435,63,59556,1,0,0:0:0:0:
435,63,59641,1,0,0:0:0:0:
435,63,59727,1,0,0:0:0:0:
289,202,59897,1,0,0:0:0:0:
453,151,60068,1,0,0:0:0:0:
414,321,60238,1,0,0:0:0:0:
289,202,60408,6,0,P|230:193|174:211,1,119.999996337891
105,285,60749,1,0,0:0:0:0:
189,92,60920,2,0,L|173:211,1,119.999996337891
56,6,61261,2,0,L|72:125,1,119.999996337891
156,0,61602,1,0,0:0:0:0:
284,165,61772,5,0,0:0:0:0:
72,125,61943,1,0,0:0:0:0:
299,35,62113,1,0,0:0:0:0:
173,210,62283,1,0,0:0:0:0:
387,231,62454,1,0,0:0:0:0:
181,99,62624,1,0,0:0:0:0:
269,295,62795,1,0,0:0:0:0:
395,120,62965,1,0,0:0:0:0:
512,337,63136,6,0,L|496:218,1,119.999996337891
395,120,63477,2,0,L|379:239,1,119.999996337891
60,333,63818,6,0,L|76:214,1,119.999996337891
177,116,64159,2,0,L|193:235,1,119.999996337891
434,383,64499,6,0,L|450:264,1,119.999996337891
325,158,64840,2,0,L|341:277,1,119.999996337891
140,288,65181,6,0,L|124:169,1,119.999996337891
249,63,65522,2,0,L|233:182,1,119.999996337891
45,249,65863,5,0,0:0:0:0:
280,316,66033,1,0,0:0:0:0:
33,247,66204,1,0,0:0:0:0:
233,181,66374,1,0,0:0:0:0:
133,53,66545,6,0,P|115:110|124:169,1,119.999996337891
198,270,66886,1,0,0:0:0:0:
351,95,67056,2,0,P|292:87|241:117,1,119.999996337891
13,145,67397,2,0,P|71:138|123:168,1,119.999996337891
297,299,67738,2,0,L|313:180,1,119.999996337891
71,342,68079,2,0,L|55:223,1,119.999996337891
147,34,68420,1,0,0:0:0:0:
428,189,68590,6,0,P|372:171|313:179,1,119.999996337891
147,34,68931,2,0,P|160:91|196:138,1,119.999996337891
154,354,69272,2,0,P|198:314|221:259,1,119.999996337891
289,60,69613,1,0,0:0:0:0:
357,258,69783,1,0,0:0:0:0:
357,258,69869,1,0,0:0:0:0:
357,258,69954,6,0,L|373:139,1,119.999996337891
237,378,70295,2,0,L|221:259,1,119.999996337891
474,248,70636,2,0,B|415:267|415:267|357:258,1,119.999996337891
104,269,70977,2,0,B|163:250|163:250|221:259,1,119.999996337891
333,304,71318,5,0,0:0:0:0:
152,163,71488,1,0,0:0:0:0:
236,378,71658,1,0,0:0:0:0:
268,151,71829,1,0,0:0:0:0:
104,269,71999,5,0,0:0:0:0:
200,56,72170,1,0,0:0:0:0:
36,174,72340,5,0,0:0:0:0:
220,258,72511,1,0,0:0:0:0:
83,67,72681,6,0,B|112:112|165:117|165:117|133:205|133:205|192:210|221:259,1,299.999990844727
461,41,74045,6,0,P|480:111|441:178,1,150.000005722046
327,181,74556,1,0,0:0:0:0:
239,95,74727,2,0,P|313:82|386:101,1,150.000005722046
444,175,75238,1,0,0:0:0:0:
335,252,75408,6,0,P|321:217|326:180,1,75.0000028610231
437,282,75749,2,0,P|442:319|429:354,1,75.0000028610231
328,359,76090,2,0,P|255:340|182:353,1,150.000005722046
24,203,76772,6,0,P|94:184|161:223,1,150.000005722046
335,110,77283,2,0,P|264:91|200:126,1,150.000005722046
253,353,77795,2,0,P|271:280|258:207,1,150.000005722046
74,14,78477,6,0,P|67:51|64:89,1,75.0000028610231
78,179,78818,2,0,P|74:216|68:253,1,75.0000028610231
158,277,79158,2,0,P|195:284|233:287,1,75.0000028610231
321,261,79499,6,0,P|391:242|455:278,1,150.000005722046
380,337,80010,1,0,0:0:0:0:
232,286,80181,2,0,P|218:213|236:141,1,150.000005722046
355,125,80693,6,0,P|389:137|426:132,1,75.0000028610231
279,68,81033,2,0,P|244:55|208:60,1,75.0000028610231
124,103,81374,1,0,0:0:0:0:
29,91,81545,2,0,P|65:27|135:8,1,150.000005722046
207,60,82056,1,0,0:0:0:0:
153,183,82227,6,0,P|117:187|82:174,1,75.0000028610231
231,233,82568,1,0,0:0:0:0:
314,190,82738,1,0,0:0:0:0:
396,241,82908,2,0,P|430:227|467:231,1,75.0000028610231
310,284,83249,6,0,P|291:211|305:138,1,150.000005722046
392,335,83761,1,0,0:0:0:0:
310,284,83931,2,0,P|275:271|239:275,1,75.0000028610231
162,333,84272,2,0,P|143:262|179:199,1,150.000005722046
274,184,84783,1,0,0:0:0:0:
73,178,84954,5,0,0:0:0:0:
73,178,85295,5,0,0:0:0:0:
151,243,85465,1,0,0:0:0:0:
169,142,85636,1,0,0:0:0:0:
169,142,85977,5,0,0:0:0:0:
247,207,86147,1,0,0:0:0:0:
229,308,86317,1,0,0:0:0:0:
133,344,86488,1,0,0:0:0:0:
55,279,86658,1,0,0:0:0:0:
325,272,86999,5,4,0:0:0:0:
