osu file format v14

[General]
AudioFilename: audio.mp3
AudioLeadIn: 0
PreviewTime: 29177
Countdown: 0
SampleSet: Soft
StackLeniency: 0.7
Mode: 0
LetterboxInBreaks: 0
EpilepsyWarning: 1
WidescreenStoryboard: 1

[Editor]
Bookmarks: 3858,14180,24503,27083,29664,39341,44502,49663,62566,65147,71599
DistanceSpacing: 1
BeatDivisor: 4
GridSize: 32
TimelineZoom: 2.599999

[Metadata]
Title:Kawaige Nai na
TitleUnicode:かわいげないな
Artist:YUKA NAGASE
ArtistUnicode:長瀬有花
Creator:ThunderBird2678
Version:Normal
Source:
Tags:vtuber vsinger RIOT MUSIC yuka_n_RIOT 薄塩指数 矢口和弥 usushioshisuu ウスシオシスウ RIOTMUSIC_info rrnyrmy don't be cute japanese pop jpop jp j-pop
BeatmapID:3402114
BeatmapSetID:1664905

[Difficulty]
HPDrainRate:2
CircleSize:2.5
OverallDifficulty:4.5
ApproachRate:5.2
SliderMultiplier:1.05
SliderTickRate:1

[Events]
//Background and Video events
0,0,"yuka my beloved.jpg",0,0
//Break Periods
//Storyboard Layer 0 (Background)
//Storyboard Layer 1 (Fail)
//Storyboard Layer 2 (Pass)
//Storyboard Layer 3 (Foreground)
Sprite,Foreground,Centre,"sb\particle.png",0,0 C,0,39341,,233,233,233 M,0,39341,39361,490,69,489.6393,75.55258 F,2,39341,40413,1,0 S,2,39341,40413,2.5,0.5 P,0,39341,40413,A M,0,39361,39381,489.6393,75.55258,489.2796,82.10521 M,0,39381,39401,489.2796,82.10521,488.9281,88.65829 M,0,39401,39421,488.9281,88.65829,488.5844,95.21177 M,0,39421,39441,488.5844,95.21177,488.2556,101.766 M,0,39441,39461,488.2556,101.766,487.9303,108.3204 M,0,39461,39482,487.9303,108.3204,487.6132,114.8753 M,0,39482,39502,487.6132,114.8753,487.3038,121.4305 M,0,39502,39522,487.3038,121.4305,487.0027,127.986 M,0,39522,39542,487.0027,127.986,486.7163,134.5423 M,0,39542,39562,486.7163,134.5423,486.4331,141.0987 M,0,39562,39582,486.4331,141.0987,486.1585,147.6554 M,0,39582,39603,486.1585,147.6554,485.8912,154.2125 M,0,39603,39623,485.8912,154.2125,485.6322,160.7698 M,0,39623,39643,485.6322,160.7698,485.3884,167.3278 M,0,39643,39663,485.3884,167.3278,485.1478,173.8859
Sprite,Foreground,Centre,"sb\particle.png",449,211 C,0,39824,,233,233,233 F,2,39824,40574,1,0 S,2,39824,40574,2.5,0.5 P,0,39824,40574,A
Sprite,Foreground,Centre,"sb\particle.png",0,0 C,0,39986,,233,233,233 M,0,39986,40006,397,235,391.1377,237.9289 F,2,39986,41058,1,0 S,2,39986,41058,2.5,0.5 P,0,39986,41058,A M,0,40006,40026,391.1377,237.9289,385.2504,240.7594 M,0,40026,40046,385.2504,240.7594,379.1707,243.1636 M,0,40046,40066,379.1707,243.1636,372.9265,245.1292 M,0,40066,40086,372.9265,245.1292,366.5469,246.6451 M,0,40086,40106,366.5469,246.6451,360.0231,247.2654 M,0,40106,40127,360.0231,247.2654,353.5082,247.7195 M,0,40127,40147,353.5082,247.7195,346.9734,247.7065 M,0,40147,40167,346.9734,247.7065,340.4493,247.2257 M,0,40167,40187,340.4493,247.2257,333.9667,246.2776 M,0,40187,40207,333.9667,246.2776,327.6575,244.5062 M,0,40207,40227,327.6575,244.5062,321.4371,242.5205 M,0,40227,40248,321.4371,242.5205,315.3719,240.0941 M,0,40248,40268,315.3719,240.0941,309.4908,237.2378 M,0,40268,40288,309.4908,237.2378,303.8219,233.9638 M,0,40288,40308,303.8219,233.9638,298.3928,230.286
Sprite,Foreground,Centre,"sb\particle.png",0,0 C,0,40631,,233,233,233 M,0,40631,40651,253,135,246.4569,135.5023 F,2,40631,41703,1,0 S,2,40631,41703,2.5,0.5 P,0,40631,41703,A M,0,40651,40671,246.4569,135.5023,239.9148,136.0155 M,0,40671,40691,239.9148,136.0155,233.3769,136.5797 M,0,40691,40711,233.3769,136.5797,226.8435,137.1951 M,0,40711,40731,226.8435,137.1951,220.315,137.8615 M,0,40731,40751,220.315,137.8615,213.7973,138.6261 M,0,40751,40772,213.7973,138.6261,207.282,139.4089 M,0,40772,40792,207.282,139.4089,200.7731,140.2426 M,0,40792,40812,200.7731,140.2426,194.2707,141.127 M,0,40812,40832,194.2707,141.127,187.7753,142.0623 M,0,40832,40852,187.7753,142.0623,181.2936,143.0881 M,0,40852,40872,181.2936,143.0881,174.8162,144.1391 M,0,40872,40893,174.8162,144.1391,168.3472,145.2407 M,0,40893,40913,168.3472,145.2407,161.8869,146.3929 M,0,40913,40933,161.8869,146.3929,155.4357,147.5954 M,0,40933,40953,155.4357,147.5954,148.994,148.8483
Sprite,Foreground,Centre,"sb\particle.png",111,186 C,0,41115,,233,233,233 F,2,41115,41865,1,0 S,2,41115,41865,2.5,0.5 P,0,41115,41865,A
Sprite,Foreground,Centre,"sb\particle.png",0,0 C,0,41276,,233,233,233 M,0,41276,41296,82,231,81.23953,237.5183 F,2,41276,42348,1,0 S,2,41276,42348,2.5,0.5 P,0,41276,42348,A M,0,41296,41316,81.23953,237.5183,80.47906,244.0366 M,0,41316,41336,80.47906,244.0366,79.7186,250.5549 M,0,41336,41356,79.7186,250.5549,78.95813,257.0732 M,0,41356,41376,78.95813,257.0732,78.19766,263.5914 M,0,41376,41396,78.19766,263.5914,77.43719,270.1097 M,0,41396,41417,77.43719,270.1097,76.67673,276.628 M,0,41417,41437,76.67673,276.628,75.91626,283.1463 M,0,41437,41457,75.91626,283.1463,75.15579,289.6646 M,0,41457,41477,75.15579,289.6646,77.29361,295.687 M,0,41477,41497,77.29361,295.687,80.17818,301.5815 M,0,41497,41517,80.17818,301.5815,83.06274,307.476 M,0,41517,41538,83.06274,307.476,85.9473,313.3706 M,0,41538,41558,85.9473,313.3706,88.83187,319.2651 M,0,41558,41578,88.83187,319.2651,91.71644,325.1597 M,0,41578,41598,91.71644,325.1597,94.601,331.0542
Sprite,Foreground,Centre,"sb\particle.png",190,373 C,0,41921,,255,253,210 F,2,41921,42671,1,0 S,2,41921,42671,2.5,0.5 P,0,41921,42671,A
Sprite,Foreground,Centre,"sb\particle.png",0,0 C,0,42244,,255,253,210 M,0,42244,42264,274,435,280.4519,436.0859 F,2,42244,43155,1,0 S,2,42244,43155,2.5,0.5 P,0,42244,43155,A M,0,42264,42284,280.4519,436.0859,286.8602,437.2009 M,0,42284,42304,286.8602,437.2009,293.3715,437.76 M,0,42304,42324,293.3715,437.76,299.8795,437.0874 M,0,42324,42344,299.8795,437.0874,306.3109,436.2086 M,0,42344,42364,306.3109,436.2086,312.6608,434.7745 M,0,42364,42385,312.6608,434.7745,318.8949,432.7857 M,0,42385,42405,318.8949,432.7857,324.6127,429.6057
Sprite,Foreground,Centre,"sb\particle.png",0,0 C,0,42566,,255,253,210 M,0,42566,42586,359,391,364.8946,388.1154 F,2,42566,43638,1,0 S,2,42566,43638,2.5,0.5 P,0,42566,43638,A M,0,42586,42606,364.8946,388.1154,370.7891,385.2309 M,0,42606,42626,370.7891,385.2309,376.6837,382.3463 M,0,42626,42646,376.6837,382.3463,382.5782,379.4617 M,0,42646,42666,382.5782,379.4617,388.4727,376.5772 M,0,42666,42686,388.4727,376.5772,394.3673,373.6926 M,0,42686,42707,394.3673,373.6926,400.2618,370.808 M,0,42707,42727,400.2618,370.808,406.1597,368.0694 M,0,42727,42747,406.1597,368.0694,412.1779,370.6861 M,0,42747,42767,412.1779,370.6861,418.1962,373.3027 M,0,42767,42787,418.1962,373.3027,424.2145,375.9193 M,0,42787,42807,424.2145,375.9193,430.2328,378.536 M,0,42807,42828,430.2328,378.536,436.251,381.1526 M,0,42828,42848,436.251,381.1526,442.2693,383.7693 M,0,42848,42868,442.2693,383.7693,448.2876,386.3859 M,0,42868,42888,448.2876,386.3859,454.3058,389.0025
Sprite,Foreground,Centre,"sb\particle.png",0,0 C,0,43050,,255,253,210 M,0,43050,43070,475,437,481.5034,436.1212 F,2,43050,43961,1,0 S,2,43050,43961,2.5,0.5 P,0,43050,43961,A M,0,43070,43090,481.5034,436.1212,488.0068,435.2423 M,0,43090,43110,488.0068,435.2423,494.5102,434.3635 M,0,43110,43130,494.5102,434.3635,501.0135,433.4846 M,0,43130,43150,501.0135,433.4846,507.5169,432.6058 M,0,43150,43170,507.5169,432.6058,514.0203,431.727 M,0,43170,43191,514.0203,431.727,520.5237,430.8481 M,0,43191,43211,520.5237,430.8481,527.0271,429.9693
Sprite,Foreground,Centre,"sb\particle.png",0,0 C,0,43534,,255,253,210 M,0,43534,43554,570,334,569.8698,327.4391 F,2,43534,44606,1,0 S,2,43534,44606,2.5,0.5 P,0,43534,44606,A M,0,43554,43574,569.8698,327.4391,569.7341,320.8789 M,0,43574,43594,569.7341,320.8789,569.5242,314.3203 M,0,43594,43614,569.5242,314.3203,569.2401,307.7641 M,0,43614,43634,569.2401,307.7641,568.7922,301.2172 M,0,43634,43654,568.7922,301.2172,568.3284,294.672 M,0,43654,43675,568.3284,294.672,567.7904,288.1323 M,0,43675,43695,567.7904,288.1323,567.1785,281.5987 M,0,43695,43715,567.1785,281.5987,566.4142,275.0811 M,0,43715,43735,566.4142,275.0811,565.6232,268.5675 M,0,43735,43755,565.6232,268.5675,564.7587,262.063 M,0,43755,43775,564.7587,262.063,563.8204,255.5684 M,0,43775,43796,563.8204,255.5684,562.8087,249.0842 M,0,43796,43816,562.8087,249.0842,561.6254,242.6296 M,0,43816,43836,561.6254,242.6296,560.4362,236.1766 M,0,43836,43856,560.4362,236.1766,559.1952,229.7327
Sprite,Foreground,Centre,"sb\boom.png",404,195 C,0,2568,,255,232,150 S,1,2568,2818,0.1,0.45 F,0,2568,2968,0.75,0 P,0,2568,2968,A
Sprite,Foreground,Centre,"sb\boom.png",443,425 C,0,14180,,255,232,150 S,1,14180,14430,0.1,0.45 F,0,14180,14580,0.75,0 P,0,14180,14580,A
Sprite,Foreground,Centre,"sb\boom.png",395,82 C,0,16761,,255,232,150 S,1,16761,17011,0.1,0.45 F,0,16761,17161,0.75,0 P,0,16761,17161,A
Sprite,Foreground,Centre,"sb\boom.png",169,381 C,0,19341,,255,232,150 S,1,19341,19591,0.1,0.45 F,0,19341,19741,0.75,0 P,0,19341,19741,A
Sprite,Foreground,Centre,"sb\boom.png",159,56 C,0,21922,,255,232,150 S,1,21922,22172,0.1,0.45 F,0,21922,22322,0.75,0 P,0,21922,22322,A
Sprite,Foreground,Centre,"sb\boom.png",451,221 C,0,24503,,255,232,150 S,1,24503,24753,0.1,0.45 F,0,24503,24903,0.75,0 P,0,24503,24903,A
Sprite,Foreground,Centre,"sb\boom.png",253,268 C,0,25793,,255,232,150 S,1,25793,26043,0.1,0.45 F,0,25793,26193,0.75,0 P,0,25793,26193,A
Sprite,Foreground,Centre,"sb\boom.png",154,267 C,0,27083,,255,232,150 S,1,27083,27333,0.1,0.45 F,0,27083,27483,0.75,0 P,0,27083,27483,A
Sprite,Foreground,Centre,"sb\boom.png",463,355 C,0,29664,,255,232,150 S,1,29664,29914,0.1,0.45 F,0,29664,30064,0.75,0 P,0,29664,30064,A
Sprite,Foreground,Centre,"sb\boom.png",371,406 C,0,29987,,255,232,150 S,1,29987,30237,0.1,0.45 F,0,29987,30387,0.75,0 P,0,29987,30387,A
Sprite,Foreground,Centre,"sb\boom.png",276,360 C,0,30309,,255,232,150 S,1,30309,30559,0.1,0.45 F,0,30309,30709,0.75,0 P,0,30309,30709,A
Sprite,Foreground,Centre,"sb\boom.png",101,439 C,0,34825,,255,232,150 S,1,34825,35075,0.1,0.45 F,0,34825,35225,0.75,0 P,0,34825,35225,A
Sprite,Foreground,Centre,"sb\boom.png",116,335 C,0,35148,,255,232,150 S,1,35148,35398,0.1,0.45 F,0,35148,35548,0.75,0 P,0,35148,35548,A
Sprite,Foreground,Centre,"sb\boom.png",83,235 C,0,35470,,255,232,150 S,1,35470,35720,0.1,0.45 F,0,35470,35870,0.75,0 P,0,35470,35870,A
Sprite,Foreground,Centre,"sb\boom.png",571,70 C,0,44502,,255,232,150 S,1,44502,44752,0.1,0.45 F,0,44502,44902,0.75,0 P,0,44502,44902,A
Sprite,Foreground,Centre,"sb\boom.png",469,71 C,0,44824,,255,232,150 S,1,44824,45074,0.1,0.45 F,0,44824,45224,0.75,0 P,0,44824,45224,A
Sprite,Foreground,Centre,"sb\boom.png",412,159 C,0,45147,,255,232,150 S,1,45147,45397,0.1,0.45 F,0,45147,45547,0.75,0 P,0,45147,45547,A
Sprite,Foreground,Centre,"sb\boom.png",144,108 C,0,47082,,255,232,150 S,1,47082,47332,0.1,0.45 F,0,47082,47482,0.75,0 P,0,47082,47482,A
Sprite,Foreground,Centre,"sb\boom.png",332,337 C,0,48373,,255,232,150 S,1,48373,48623,0.1,0.45 F,0,48373,48773,0.75,0 P,0,48373,48773,A
Sprite,Foreground,Centre,"sb\boom.png",485.2955,155.2809 C,0,64502,,255,232,150 S,1,64502,64752,0.1,0.45 F,0,64502,64902,0.75,0 P,0,64502,64902,A
Sprite,Foreground,Centre,"sb\glow.png",404,195 C,0,3858,,251,210,255 F,2,3858,4608,0.5,0 S,2,3858,4608,0.5,0.1 P,0,3858,4608,A
Sprite,Foreground,Centre,"sb\glow.png",105,196 C,0,4825,,251,210,255 F,2,4825,5575,0.5,0 S,2,4825,5575,0.5,0.1 P,0,4825,5575,A
Sprite,Foreground,Centre,"sb\glow.png",185,263 C,0,5148,,251,210,255 F,2,5148,5898,0.5,0 S,2,5148,5898,0.5,0.1 P,0,5148,5898,A
Sprite,Foreground,Centre,"sb\glow.png",328,329 C,0,6116,,251,210,255 F,2,6116,6866,0.5,0 S,2,6116,6866,0.5,0.1 P,0,6116,6866,A
Sprite,Foreground,Centre,"sb\glow.png",423,359 C,0,6438,,255,210,210 F,2,6438,7188,0.5,0 S,2,6438,7188,0.5,0.1 P,0,6438,7188,A
Sprite,Foreground,Centre,"sb\glow.png",510,186 C,0,7406,,255,210,210 F,2,7406,8156,0.5,0 S,2,7406,8156,0.5,0.1 P,0,7406,8156,A
Sprite,Foreground,Centre,"sb\glow.png",411,221 C,0,7728,,255,210,210 F,2,7728,8478,0.5,0 S,2,7728,8478,0.5,0.1 P,0,7728,8478,A
Sprite,Foreground,Centre,"sb\glow.png",128,191 C,0,8696,,255,210,210 F,2,8696,9446,0.5,0 S,2,8696,9446,0.5,0.1 P,0,8696,9446,A
Sprite,Foreground,Centre,"sb\glow.png",169,108 C,0,9019,,233,233,233 F,2,9019,9769,0.5,0 S,2,9019,9769,0.5,0.1 P,0,9019,9769,A
Sprite,Foreground,Centre,"sb\glow.png",256,198 C,0,9503,,233,233,233 F,2,9503,10253,0.5,0 S,2,9503,10253,0.5,0.1 P,0,9503,10253,A
Sprite,Foreground,Centre,"sb\glow.png",345,408 C,0,10309,,233,233,233 F,2,10309,11059,0.5,0 S,2,10309,11059,0.5,0.1 P,0,10309,11059,A
Sprite,Foreground,Centre,"sb\glow.png",482,351 C,0,10793,,233,233,233 F,2,10793,11543,0.5,0 S,2,10793,11543,0.5,0.1 P,0,10793,11543,A
Sprite,Foreground,Centre,"sb\glow.png",353,181 C,0,11599,,255,253,210 F,2,11599,12349,0.5,0 S,2,11599,12349,0.5,0.1 P,0,11599,12349,A
Sprite,Foreground,Centre,"sb\glow.png",219,236 C,0,12083,,255,253,210 F,2,12083,12833,0.5,0 S,2,12083,12833,0.5,0.1 P,0,12083,12833,A
Sprite,Foreground,Centre,"sb\glow.png",105,261 C,0,12890,,255,253,210 F,2,12890,13640,0.5,0 S,2,12890,13640,0.5,0.1 P,0,12890,13640,A
Sprite,Foreground,Centre,"sb\glow.png",214,362 C,0,13374,,255,253,210 F,2,13374,14124,0.5,0 S,2,13374,14124,0.5,0.1 P,0,13374,14124,A
Sprite,Foreground,Centre,"sb\glow.png",134,157 C,0,23212,,255,253,210 F,2,23212,23962,0.5,0 S,2,23212,23962,0.5,0.1 P,0,23212,23962,A
Sprite,Foreground,Centre,"sb\glow.png",200,242 C,0,23535,,255,253,210 F,2,23535,24285,0.5,0 S,2,23535,24285,0.5,0.1 P,0,23535,24285,A
Sprite,Foreground,Centre,"sb\glow.png",415.1415,220.7072 C,0,29019,,233,233,233 F,2,29019,29769,0.5,0 S,2,29019,29769,0.5,0.1 P,0,29019,29769,A
Sprite,Foreground,Centre,"sb\glow.png",375,255 C,0,29180,,233,233,233 F,2,29180,29930,0.5,0 S,2,29180,29930,0.5,0.1 P,0,29180,29930,A
Sprite,Foreground,Centre,"sb\glow.png",135,289 C,0,30793,,233,233,233 F,2,30793,31543,0.5,0 S,2,30793,31543,0.5,0.1 P,0,30793,31543,A
Sprite,Foreground,Centre,"sb\glow.png",191,163 C,0,31277,,233,233,233 F,2,31277,32027,0.5,0 S,2,31277,32027,0.5,0.1 P,0,31277,32027,A
Sprite,Foreground,Centre,"sb\glow.png",129,142 C,0,35954,,251,210,255 F,2,35954,36704,0.5,0 S,2,35954,36704,0.5,0.1 P,0,35954,36704,A
Sprite,Foreground,Centre,"sb\glow.png",281,124 C,0,36438,,251,210,255 F,2,36438,37188,0.5,0 S,2,36438,37188,0.5,0.1 P,0,36438,37188,A
Sprite,Foreground,Centre,"sb\glow.png",509,211 C,0,44018,,255,253,210 F,2,44018,44768,0.5,0 S,2,44018,44768,0.5,0.1 P,0,44018,44768,A
Sprite,Foreground,Centre,"sb\glow.png",268.4398,296.3746 C,0,45792,,251,210,255 F,2,45792,46542,0.5,0 S,2,45792,46542,0.5,0.1 P,0,45792,46542,A
Sprite,Foreground,Centre,"sb\glow.png",81,277 C,0,46437,,251,210,255 F,2,46437,47187,0.5,0 S,2,46437,47187,0.5,0.1 P,0,46437,47187,A
Sprite,Foreground,Centre,"sb\glow.png",132,402 C,0,49018,,255,210,210 F,2,49018,49768,0.5,0 S,2,49018,49768,0.5,0.1 P,0,49018,49768,A
Sprite,Foreground,Centre,"sb\particle.png",0,0 C,0,27083,,255,210,210 M,0,27083,27103,154,267,152.5154,260.6078 F,2,27083,28155,1,0 S,2,27083,28155,2.5,0.5 P,0,27083,28155,A M,0,27103,27123,152.5154,260.6078,151.0386,254.2143 M,0,27123,27143,151.0386,254.2143,149.6245,247.8064 M,0,27143,27163,149.6245,247.8064,148.2732,241.3848 M,0,27163,27183,148.2732,241.3848,147.0486,234.9377 M,0,27183,27203,147.0486,234.9377,145.8474,228.4868 M,0,27203,27224,145.8474,228.4868,144.7096,222.0243 M,0,27224,27244,144.7096,222.0243,143.6351,215.5507 M,0,27244,27264,143.6351,215.5507,142.624,209.0666 M,0,27264,27284,142.624,209.0666,141.7491,202.5629 M,0,27284,27304,141.7491,202.5629,140.8895,196.0576 M,0,27304,27324,140.8895,196.0576,140.0937,189.5441 M,0,27324,27345,140.0937,189.5441,139.3618,183.0228 M,0,27345,27365,139.3618,183.0228,138.7509,176.489 M,0,27365,27385,138.7509,176.489,138.1712,169.9529 M,0,27385,27405,138.1712,169.9529,137.6555,163.4113
Sprite,Foreground,Centre,"sb\particle.png",131,111 C,0,27567,,255,210,210 F,2,27567,28317,1,0 S,2,27567,28317,2.5,0.5 P,0,27567,28317,A
Sprite,Foreground,Centre,"sb\particle.png",132,58 C,0,27728,,255,210,210 F,2,27728,28478,1,0 S,2,27728,28478,2.5,0.5 P,0,27728,28478,A
Sprite,Foreground,Centre,"sb\particle.png",238,86 C,0,28051,,255,210,210 F,2,28051,28801,1,0 S,2,28051,28801,2.5,0.5 P,0,28051,28801,A
Sprite,Foreground,Centre,"sb\particle.png",0,0 C,0,28212,,255,210,210 M,0,28212,28232,238,86,244.5609,86.03291 F,2,28212,29284,1,0 S,2,28212,29284,2.5,0.5 P,0,28212,29284,A M,0,28232,28252,244.5609,86.03291,251.1183,86.09149 M,0,28252,28272,251.1183,86.09149,257.6729,86.32993 M,0,28272,28292,257.6729,86.32993,264.2204,86.7482 M,0,28292,28312,264.2204,86.7482,270.7368,87.51199 M,0,28312,28332,270.7368,87.51199,277.2399,88.35193 M,0,28332,28353,277.2399,88.35193,283.7183,89.37001 M,0,28353,28373,283.7183,89.37001,290.1677,90.56561 M,0,28373,28393,290.1677,90.56561,296.5838,91.93813 M,0,28393,28413,296.5838,91.93813,302.9148,93.66009 M,0,28413,28433,302.9148,93.66009,309.2249,95.44313 M,0,28433,28453,309.2249,95.44313,315.4846,97.39882 M,0,28453,28474,315.4846,97.39882,321.6898,99.52594 M,0,28474,28494,321.6898,99.52594,327.8363,101.8232 M,0,28494,28514,327.8363,101.8232,333.8418,104.4653 M,0,28514,28534,333.8418,104.4653,339.823,107.153
Sprite,Foreground,Centre,"sb\particle.png",0,0 C,0,28857,,233,233,233 M,0,28857,28877,424,169,422.6037,175.4117 F,2,28857,29768,1,0 S,2,28857,29768,2.5,0.5 P,0,28857,29768,A M,0,28877,28897,422.6037,175.4117,421.2185,181.8249 M,0,28897,28917,421.2185,181.8249,419.9291,188.2584 M,0,28917,28937,419.9291,188.2584,418.7357,194.7111 M,0,28937,28957,418.7357,194.7111,417.7393,201.1971 M,0,28957,28977,417.7393,201.1971,416.7765,207.6869 M,0,28977,28998,416.7765,207.6869,415.9105,214.1907 M,0,28998,29018,415.9105,214.1907,415.1415,220.7072
Sprite,Foreground,Centre,"sb\particle.png",0,0 C,0,62566,,233,233,233 M,0,62566,62586,145,253,145.3322,246.446 F,2,62566,63638,1,0 S,2,62566,63638,2.5,0.5 P,0,62566,63638,A M,0,62586,62606,145.3322,246.446,145.6617,239.8919 M,0,62606,62626,145.6617,239.8919,145.9606,233.3363 M,0,62626,62646,145.9606,233.3363,146.2289,226.7793 M,0,62646,62666,146.2289,226.7793,146.4317,220.22 M,0,62666,62686,146.4317,220.22,146.6262,213.6605 M,0,62686,62707,146.6262,213.6605,146.7901,207.1002 M,0,62707,62727,146.7901,207.1002,146.9234,200.5391 M,0,62727,62747,146.9234,200.5391,146.9966,193.9771 M,0,62747,62767,146.9966,193.9771,147.0561,187.415 M,0,62767,62787,147.0561,187.415,147.0849,180.8527 M,0,62787,62807,147.0849,180.8527,147.0831,174.2903 M,0,62807,62828,147.0831,174.2903,147.0507,167.7279 M,0,62828,62848,147.0507,167.7279,146.9512,161.1662 M,0,62848,62868,146.9512,161.1662,146.845,154.6047 M,0,62868,62888,146.845,154.6047,146.7081,148.0438
Sprite,Foreground,Centre,"sb\particle.png",124,99 C,0,63050,,233,233,233 F,2,63050,63800,1,0 S,2,63050,63800,2.5,0.5 P,0,63050,63800,A
Sprite,Foreground,Centre,"sb\particle.png",89,59 C,0,63211,,233,233,233 F,2,63211,63961,1,0 S,2,63211,63961,2.5,0.5 P,0,63211,63961,A
Sprite,Foreground,Centre,"sb\particle.png",0,0 C,0,63695,,233,233,233 M,0,63695,63715,241,99,247.5526,98.64003 F,2,63695,64767,1,0 S,2,63695,64767,2.5,0.5 P,0,63695,64767,A M,0,63715,63735,247.5526,98.64003,254.1051,98.28291 M,0,63735,63755,254.1051,98.28291,260.6596,97.96153 M,0,63755,63775,260.6596,97.96153,267.2159,97.67592 M,0,63775,63795,267.2159,97.67592,273.775,97.46831 M,0,63795,63815,273.775,97.46831,280.3343,97.26923 M,0,63815,63836,280.3343,97.26923,286.8946,97.10599 M,0,63836,63856,286.8946,97.10599,293.4557,96.97846 M,0,63856,63876,293.4557,96.97846,300.018,96.92331 M,0,63876,63896,300.018,96.92331,306.5801,96.88245 M,0,63896,63916,306.5801,96.88245,313.1424,96.87733 M,0,63916,63936,313.1424,96.87733,319.7047,96.90802 M,0,63936,63957,319.7047,96.90802,326.2669,96.97455 M,0,63957,63977,326.2669,96.97455,332.8277,97.12273 M,0,63977,63997,332.8277,97.12273,339.3882,97.27579 M,0,63997,64017,339.3882,97.27579,345.9478,97.46469
Sprite,Foreground,Centre,"sb\particle.png",0,0 C,0,64340,,233,233,233 M,0,64340,64360,433,155,439.5222,155.7008 F,2,64340,65251,1,0 S,2,64340,65251,2.5,0.5 P,0,64340,65251,A M,0,64360,64380,439.5222,155.7008,446.0393,156.3968 M,0,64380,64400,446.0393,156.3968,452.5797,156.8718 M,0,64400,64420,452.5797,156.8718,459.1377,157.1249 M,0,64420,64440,459.1377,157.1249,465.6913,156.84 M,0,64440,64460,465.6913,156.84,472.2385,156.5422 M,0,64460,64481,472.2385,156.5422,478.7751,156.0225 M,0,64481,64501,478.7751,156.0225,485.2955,155.2809
Sprite,Foreground,Centre,"sb\particle.png",404,199 C,0,24341,,255,253,210 F,2,24341,25091,1,0 S,2,24341,25091,2.5,0.5 P,0,24341,25091,A
Sprite,Foreground,Centre,"sb\particle.png",451,221 C,0,24503,,251,210,255 F,2,24503,25253,1,0 S,2,24503,25253,2.5,0.5 P,0,24503,25253,A
Sprite,Foreground,Centre,"sb\particle.png",510,307 C,0,24825,,251,210,255 F,2,24825,25575,1,0 S,2,24825,25575,2.5,0.5 P,0,24825,25575,A
Sprite,Foreground,Centre,"sb\particle.png",433,379 C,0,25148,,251,210,255 F,2,25148,25898,1,0 S,2,25148,25898,2.5,0.5 P,0,25148,25898,A
Sprite,Foreground,Centre,"sb\particle.png",340,329 C,0,25470,,251,210,255 F,2,25470,26220,1,0 S,2,25470,26220,2.5,0.5 P,0,25470,26220,A
Sprite,Foreground,Centre,"sb\particle.png",0,0 C,0,25793,,251,210,255 M,0,25793,25813,253,268,247.3381,264.7025 F,2,25793,26865,1,0 S,2,25793,26865,2.5,0.5 P,0,25793,26865,A M,0,25813,25833,247.3381,264.7025,241.663,261.4731 M,0,25833,25853,241.663,261.4731,235.7634,258.6547 M,0,25853,25873,235.7634,258.6547,229.6648,256.2618 M,0,25873,25893,229.6648,256.2618,223.293,254.7353 M,0,25893,25913,223.293,254.7353,216.9035,253.4084 M,0,25913,25934,216.9035,253.4084,210.4303,252.5415 M,0,25934,25954,210.4303,252.5415,203.902,252.14 M,0,25954,25974,203.902,252.14,197.3478,252.208 M,0,25974,25994,197.3478,252.208,190.8737,253.2163 M,0,25994,26014,190.8737,253.2163,184.452,254.3813 M,0,26014,26034,184.452,254.3813,178.1242,256.0046 M,0,26034,26055,178.1242,256.0046,171.919,258.0804 M,0,26055,26075,171.919,258.0804,165.8651,260.6019 M,0,26075,26095,165.8651,260.6019,160.2593,263.9938 M,0,26095,26115,160.2593,263.9938,154.7417,267.4816
Sprite,Foreground,Centre,"sb\particle.png",78,339 C,0,26438,,251,210,255 F,2,26438,27188,1,0 S,2,26438,27188,2.5,0.5 P,0,26438,27188,A
Sprite,Foreground,Centre,"sb\particle.png",175,379 C,0,26761,,251,210,255 F,2,26761,27511,1,0 S,2,26761,27511,2.5,0.5 P,0,26761,27511,A
//Storyboard Layer 4 (Overlay)
//Storyboard Sound Samples

[TimingPoints]
1278,322.58064516129,4,2,1,70,1,0
1923,-100,4,2,1,80,0,0
2568,-100,4,2,1,75,0,0
2890,-100,4,2,1,90,0,0
3213,-100,4,2,1,80,0,0
3374,-100,4,2,1,70,0,0
3858,322.58064516129,4,2,1,70,1,0
5148,-100,4,2,1,80,0,0
6116,-100,4,2,1,100,0,0
6438,-100,4,2,1,60,0,0
7728,-100,4,2,1,70,0,0
8696,-100,4,2,1,100,0,0
9019,-100,4,2,1,65,0,0
10309,-100,4,2,1,75,0,0
11599,-100,4,2,1,85,0,0
13857,-100,4,2,1,100,0,0
14180,-100,4,2,1,70,0,0
15470,-100,4,2,1,80,0,0
16437,-100,4,2,1,100,0,0
16761,-100,4,2,1,60,0,0
18051,-100,4,2,1,70,0,0
19018,-100,4,2,1,100,0,0
19341,-100,4,2,1,85,0,0
20632,-100,4,2,1,80,0,0
21277,-100,4,2,1,90,0,0
23212,-100,4,2,1,95,0,0
23696,-100,4,2,1,100,0,0
24503,-100,4,2,1,70,0,0
24825,-100,4,2,1,80,0,0
25148,-100,4,2,1,90,0,0
25470,-100,4,2,1,100,0,0
25793,-100,4,2,1,60,0,0
26115,-100,4,2,1,70,0,0
26438,-100,4,2,1,80,0,0
26761,-100,4,2,1,100,0,0
27405,-100,4,2,1,85,0,0
27728,-100,4,2,1,90,0,0
28212,-100,4,2,1,100,0,0
29018,-100,4,2,1,85,0,0
29341,-100,4,2,1,70,0,0
29987,-100,4,2,1,80,0,0
30309,-100,4,2,1,70,0,0
30793,-100,4,2,1,85,0,0
32083,-100,4,2,1,100,0,0
33374,-100,4,2,1,85,0,0
34341,-100,4,2,1,90,0,0
34502,-100,4,2,1,95,0,0
34825,-100,4,2,1,90,0,0
35148,-100,4,2,1,80,0,0
35470,-100,4,2,1,70,0,0
35793,-100,4,2,1,85,0,0
37245,-100,4,2,1,100,0,0
38535,-100,4,2,1,90,0,0
38696,-100,4,2,1,80,0,0
39018,-100,4,2,1,70,0,0
39341,322.58064516129,4,2,1,85,1,1
39986,-100,4,2,1,80,0,1
40631,-100,4,2,1,90,0,1
41276,-100,4,2,1,85,0,1
41921,-100,4,2,1,100,0,1
42566,-100,4,2,1,90,0,1
43050,-100,4,2,1,100,0,1
43534,-100,4,2,1,90,0,1
43856,-100,4,2,1,80,0,1
44179,-100,4,2,1,70,0,1
44502,-100,4,2,1,90,0,1
44824,-100,4,2,1,80,0,1
45147,-100,4,2,1,70,0,1
45631,-100,4,2,1,85,0,1
46437,-100,4,2,1,75,0,1
47082,-100,4,2,1,90,0,0
49018,-100,4,2,1,80,0,0
49233,-100,4,2,1,70,0,0
49448,-100,4,2,1,60,0,0
49663,-100,4,2,1,70,0,0
50792,-100,4,2,1,80,0,0
51921,-100,4,2,1,100,0,0
52244,-100,4,2,1,60,0,0
53373,-100,4,2,1,70,0,0
54179,-100,4,2,1,100,0,0
54502,-100,4,2,1,85,0,0
55953,-100,4,2,1,80,0,0
57405,-100,4,2,1,90,0,0
59662,-100,4,2,1,100,0,0
59986,-100,4,2,1,90,0,0
61115,-100,4,2,1,95,0,0
62243,-100,4,2,1,100,0,0
62888,-100,4,2,1,85,0,0
63211,-100,4,2,1,90,0,0
63695,-100,4,2,1,100,0,0

[Colours]
Combo1 : 233,233,233
Combo2 : 255,253,210
Combo3 : 251,210,255
Combo4 : 255,210,210

[HitObjects]
132,300,1278,6,0,L|194:289,1,52.5,10|0,2:0|2:0,2:0:0:0:
231,312,1600,2,0,L|301:295,1,52.5,10|0,2:0|2:0,2:0:0:0:
332,313,1923,2,0,P|375:278|384:197,1,105,10|10,2:0|2:0,2:0:0:0:
340,139,2568,1,4,1:2:0:0:
340,139,2890,1,4,3:2:0:0:
445,140,3213,2,0,P|469:143|506:133,2,52.5,4|10|2,3:0|3:2|2:0,2:0:0:0:
340,139,3858,6,0,P|289:131|214:126,1,105,4|2,3:0|3:0,3:0:0:0:
193,97,4341,1,10,3:0:0:0:
41,140,4825,1,4,3:0:0:0:
121,207,5148,2,0,P|117:251|102:357,1,105,4|2,3:0|3:0,3:0:0:0:
132,358,5632,1,10,3:0:0:0:
264,273,6116,2,0,B|297:268|297:268|320:284,1,52.5,2|0,2:0|2:0,2:0:0:0:
359,303,6438,6,0,P|419:317|489:294,1,105,4|2,3:0|3:0,3:0:0:0:
503,278,6922,1,10,3:0:0:0:
446,130,7406,1,8,3:2:0:0:
347,165,7728,2,0,P|302:153|221:178,1,105,4|2,3:0|3:0,3:0:0:0:
208,201,8212,1,10,3:0:0:0:
64,135,8696,2,0,L|58:41,1,52.5,8|0,2:0|2:0,2:0:0:0:
105,52,9019,6,0,P|158:53|195:114,1,105,4|2,3:0|3:0,3:0:0:0:
192,142,9503,2,0,P|170:218|214:305,1,157.5,10|8,3:0|3:0,3:0:0:0:
281,352,10309,2,0,P|329:343|398:335,1,105,4|2,3:0|3:0,3:0:0:0:
418,295,10793,2,0,P|403:215|391:118,1,157.5,10|8,3:0|3:0,3:0:0:0:
289,125,11599,6,0,B|242:116|242:116|179:148,1,105,4|2,3:0|3:0,3:0:0:0:
155,180,12083,1,10,3:0:0:0:
17,103,12567,1,2,3:2:0:0:
41,205,12890,2,0,P|65:258|124:287,1,105,14|2,3:0|3:2,2:0:0:0:
150,306,13374,2,0,P|224:282|308:308,1,157.5,10|14,3:0|2:0,3:0:0:0:
379,369,14180,5,4,3:0:0:0:
478,333,14503,2,0,L|492:254,2,52.5,10|2|12,2:0|2:0|2:0,2:0:0:0:
379,369,15148,1,2,2:3:0:0:
393,265,15470,2,0,P|390:232|385:191,1,52.5,10|2,2:0|2:0,2:0:0:0:
427,177,15793,1,10,2:0:0:0:
427,177,15954,2,0,P|463:119|421:27,1,157.5,10|10,2:3|2:3,2:0:0:0:
331,26,16761,5,4,3:0:0:0:
230,54,17083,2,0,P|199:62|146:67,2,52.5,10|2|12,2:0|2:0|2:0,2:0:0:0:
331,26,17728,1,2,2:3:0:0:
311,129,18051,2,0,P|307:162|302:197,1,52.5,10|2,2:0|2:0,2:0:0:0:
296,236,18374,1,10,2:0:0:0:
296,236,18535,2,0,B|221:211|221:211|110:236,1,157.5,10|8,3:0|2:0,2:0:0:0:
105,325,19341,5,4,2:3:0:0:
10,278,19664,2,0,P|1:239|5:208,2,52.5,10|2|12,2:0|2:0|2:0,2:0:0:0:
105,325,20309,1,10,2:0:0:0:
145,228,20632,2,0,P|156:189|175:164,1,52.5,10|2,2:0|2:0,2:0:0:0:
211,157,20954,1,10,3:2:0:0:
211,157,21116,2,0,P|207:80|199:-16,1,157.5,2|10,3:0|2:0,2:0:0:0:
95,0,21922,5,4,2:0:0:0:
200,0,22245,2,0,P|231:6|273:-4,2,52.5,10|2|12,2:0|2:0|2:0,2:0:0:0:
95,0,22890,1,2,2:3:0:0:
70,101,23212,2,0,P|80:130|109:162,1,52.5,10|2,3:2|3:2,2:0:0:0:
136,186,23535,1,10,3:2:0:0:
136,186,23696,2,0,P|220:175|324:167,1,157.5,6|8,3:0|2:3,2:0:0:0:
340,143,24341,1,2,2:0:0:0:
387,165,24503,5,6,2:0:0:0:
446,251,24825,1,10,2:0:0:0:
369,323,25148,1,6,2:0:0:0:
276,273,25470,1,2,2:3:0:0:
189,212,25793,2,0,P|143:196|76:224,1,105,4|8,2:0|2:0,2:0:0:0:
14,283,26438,1,4,2:0:0:0:
111,323,26761,1,2,2:3:0:0:
90,211,27083,6,0,P|80:162|72:62,1,105,4|2,2:0|2:0,2:0:0:0:
67,55,27567,1,8,2:0:0:0:
68,2,27728,1,14,2:0:0:0:
174,30,28051,1,2,2:3:0:0:
174,30,28212,2,0,P|233:36|293:60,1,105,6|8,3:2|2:0,2:0:0:0:
360,113,28857,6,0,P|354:143|349:196,1,52.5,10|6,3:2|3:0,2:0:0:0:
311,199,29180,2,0,P|309:224|300:282,1,52.5,0|10,3:0|3:0,2:0:0:0:
399,299,29664,1,12,3:2:0:0:
307,350,29987,1,10,3:2:0:0:
212,304,30309,1,14,3:2:0:0:
71,233,30793,2,0,P|74:179|83:100,1,105,4|10,3:0|3:0,3:0:0:0:
127,107,31277,2,0,L|131:54,2,52.5,8|8|6,3:0|3:0|3:0,2:0:0:0:
224,230,32083,6,0,P|274:251|334:212,1,105,4|10,3:0|3:0,3:0:0:0:
362,203,32567,2,0,P|394:190|426:205,1,52.5,8|8,3:0|3:0,2:0:0:0:
463,188,32890,2,0,P|489:210|493:244,1,52.5,4|0,3:0|3:0,3:0:0:0:
441,319,33374,1,2,2:3:0:0:
441,319,33535,2,0,B|404:315|368:336|376:340|345:366|290:358,1,157.5,6|8,2:0|2:3,2:3:0:0:
188,339,34341,2,0,P|160:341|112:350,1,52.5,0|10,3:0|3:0,2:0:0:0:
37,383,34825,5,12,2:0:0:0:
52,279,35148,1,10,2:0:0:0:
19,179,35470,1,14,3:2:0:0:
65,86,35793,1,12,3:0:0:0:
65,86,35954,2,0,P|115:90|187:93,1,105,4|10,3:0|3:0,3:0:0:0:
217,68,36438,2,0,L|283:71,2,52.5,8|8|6,3:0|3:0|3:0,2:0:0:0:
162,216,37245,6,0,P|163:269|200:318,1,105,4|10,3:0|3:0,3:0:0:0:
243,304,37728,2,0,P|280:324|328:318,1,52.5,8|8,3:0|3:0,2:0:0:0:
337,304,38051,2,0,P|373:282|392:236,1,52.5,4|0,3:0|3:0,3:0:0:0:
333,179,38535,1,8,2:3:0:0:
315,129,38696,2,0,P|317:76|323:12,1,105,14|10,3:0|3:0,2:0:0:0:
426,13,39341,6,0,P|423:72|420:153,1,105,4|8,3:1|3:0,3:0:0:0:
385,155,39824,1,0,2:0:0:0:
333,179,39986,2,0,P|283:192|223:164,1,105,12|2,3:0|3:2,3:0:0:0:
189,79,40631,2,0,P|131:85|70:96,1,105,4|8,3:2|3:0,3:0:0:0:
47,130,41115,1,0,2:0:0:0:
18,175,41276,2,0,B|11:235|11:235|34:282,1,105,12|2,3:0|3:2,3:0:0:0:
126,317,41921,5,4,3:0:0:0:
210,379,42244,2,0,P|241:381|276:363,1,52.5,2|0,3:2|3:0,2:0:0:0:
295,335,42566,2,0,B|342:312|342:312|411:342,1,105,4|8,3:0|3:0,3:0:0:0:
411,381,43050,2,0,L|485:371,1,52.5,4|0,3:0|2:0,3:0:0:0:
506,278,43534,2,0,P|504:234|494:168,1,105,2|6,3:2|3:0,2:0:0:0:
445,155,44018,2,0,P|445:132|451:102,1,52.5,0|10,3:0|3:0,2:0:0:0:
507,14,44502,5,12,2:0:0:0:
405,15,44824,1,10,2:0:0:0:
348,103,45147,1,14,2:0:0:0:
256,231,45631,2,0,B|201:241|201:241|161:227|161:227|88:237,1,157.5,4|10,3:0|3:0,3:0:0:0:
55,259,46276,1,2,3:0:0:0:
17,221,46437,2,0,P|-4:172|12:101,1,105,4|2,3:0|3:2,3:0:0:0:
80,52,47082,1,14,2:0:0:0:
286,93,47728,2,0,P|315:135|313:195,1,105,2|0,2:0|2:0,2:0:0:0:
268,281,48373,1,10,2:0:0:0:
68,346,49018,6,0,P|36:347|-1:353,2,70,6|8|2,3:0|3:0|3:0,2:0:0:0:
135,327,49663,2,0,P|130:274|131:222,1,105,4|10,2:3|2:0,2:0:0:0:
191,136,50308,1,10,2:0:0:0:
132,51,50631,1,8,2:0:0:0:
160,7,50792,2,0,P|229:1|323:6,1,157.5,4|10,2:3|2:0,2:0:0:0:
326,110,51599,2,0,P|390:119|431:144,1,105,14|10,2:0|2:3,2:0:0:0:
475,230,52244,6,0,P|415:242|341:251,1,105,4|10,2:3|2:0,2:0:0:0:
272,201,52889,1,10,2:0:0:0:
181,253,53211,1,8,2:0:0:0:
136,224,53373,2,0,P|130:170|232:125,1,157.5,4|10,2:3|2:0,2:0:0:0:
272,201,54179,1,4,2:0:0:0:
371,248,54502,1,6,2:3:0:0:
462,197,54824,6,0,P|470:138|434:68,1,105,6|10,2:3|2:0,2:0:0:0:
376,26,55470,1,14,2:0:0:0:
297,95,55792,1,10,2:0:0:0:
260,57,55953,2,0,P|178:61|89:85,1,157.5,4|10,2:3|2:0,2:0:0:0:
104,184,56760,2,0,P|47:215|18:259,1,105,14|10,2:0|2:0,2:0:0:0:
86,330,57405,6,0,B|135:351|135:351|199:323,1,105,4|10,3:0|2:0,2:0:0:0:
288,284,58050,1,10,2:0:0:0:
391,334,58373,1,8,2:0:0:0:
421,285,58534,2,0,B|416:237|416:237|430:192|430:192|426:127,1,157.5,4|10,2:3|2:0,2:0:0:0:
328,68,59340,2,0,B|277:51|277:51|215:91,1,105,14|6,2:0|2:3,2:0:0:0:
159,168,59986,6,0,P|139:222|163:293,1,105,6|10,2:3|2:0,2:0:0:0:
230,347,60631,1,14,2:0:0:0:
331,293,60953,1,10,2:0:0:0:
290,258,61115,2,0,P|229:235|129:291,1,157.5,4|10,2:3|2:0,2:0:0:0:
101,362,61921,2,0,P|51:339|42:285,1,105,6|6,2:0|2:3,2:0:0:0:
81,197,62566,6,0,P|83:140|82:70,1,105,4|2,2:0|2:0,2:0:0:0:
60,43,63050,1,8,2:0:0:0:
25,3,63211,1,14,2:0:0:0:
177,43,63695,2,0,P|264:41|296:42,1,105,6|8,3:2|2:0,2:0:0:0:
369,99,64340,2,0,P|403:101|438:96,1,52.5,8|4,2:0|2:1,2:0:0:0:
