osu file format v14

[General]
AudioFilename: audio.mp3
AudioLeadIn: 0
PreviewTime: 29177
Countdown: 0
SampleSet: Soft
StackLeniency: 0.7
Mode: 0
LetterboxInBreaks: 0
EpilepsyWarning: 1
WidescreenStoryboard: 1

[Editor]
Bookmarks: 3858,14180,24503,27083,29664,39341,44502,49663,62566,65147,71599
DistanceSpacing: 1.1
BeatDivisor: 4
GridSize: 32
TimelineZoom: 2.3

[Metadata]
Title:Kawaige Nai na
TitleUnicode:かわいげないな
Artist:YUKA NAGASE
ArtistUnicode:長瀬有花
Creator:ThunderBird2678
Version:Isn't she cute?
Source:
Tags:vtuber vsinger RIOT MUSIC yuka_n_RIOT 薄塩指数 矢口和弥 usushioshisuu ウスシオシスウ RIOTMUSIC_info rrnyrmy don't be cute japanese pop jpop jp j-pop
BeatmapID:3398802
BeatmapSetID:1664905

[Difficulty]
HPDrainRate:5.2
CircleSize:3.8
OverallDifficulty:8.4
ApproachRate:9
SliderMultiplier:1.9
SliderTickRate:1

[Events]
//Background and Video events
0,0,"yuka my beloved.jpg",0,0
//Break Periods
//Storyboard Layer 0 (Background)
//Storyboard Layer 1 (Fail)
//Storyboard Layer 2 (Pass)
//Storyboard Layer 3 (Foreground)
Sprite,Foreground,Centre,"sb\particle.png",0,0 C,0,39341,,233,233,233 M,0,39341,39361,380,242,365.358,239.9592 F,2,39341,40252,1,0 S,2,39341,40252,2.5,0.5 P,0,39341,40252,A M,0,39361,39381,365.358,239.9592,350.6181,240.2824 M,0,39381,39401,350.6181,240.2824,336.1903,243.3663 M,0,39401,39421,336.1903,243.3663,322.5826,249.1081 M,0,39421,39441,322.5826,249.1081,310.2766,257.3125 M,0,39441,39461,310.2766,257.3125,299.7107,267.6989 M,0,39461,39482,299.7107,267.6989,291.7578,280.1609 M,0,39482,39502,291.7578,280.1609,285.918,293.6981
Sprite,Foreground,Centre,"sb\particle.png",154,385 C,0,39582,,233,233,233 F,2,39582,40332,1,0 S,2,39582,40332,2.5,0.5 P,0,39582,40332,A
Sprite,Foreground,Centre,"sb\particle.png",0,0 C,0,39663,,233,233,233 M,0,39663,39683,154,385,166.8303,392.4597 F,2,39663,40654,1,0 S,2,39663,40654,2.5,0.5 P,0,39663,40654,A M,0,39683,39703,166.8303,392.4597,180.1592,398.9834 M,0,39703,39723,180.1592,398.9834,194.0218,404.2719 M,0,39723,39743,194.0218,404.2719,208.403,407.9036 M,0,39743,39763,208.403,407.9036,223.1603,409.3244 M,0,39763,39783,223.1603,409.3244,237.9134,407.9488 M,0,39783,39804,237.9134,407.9488,252.0156,403.4173 M,0,39804,39824,252.0156,403.4173,264.7881,395.9091 M,0,39824,39844,264.7881,395.9091,252.7084,394.8213 M,0,39844,39864,252.7084,394.8213,238.3637,391.1225 M,0,39864,39884,238.3637,391.1225,224.9379,384.8265 M,0,39884,39904,224.9379,384.8265,212.4472,376.8207
Sprite,Foreground,Centre,"sb\particle.png",0,0 C,0,39986,,233,233,233 M,0,39986,40006,133,154,134.7946,168.7349 F,2,39986,40897,1,0 S,2,39986,40897,2.5,0.5 P,0,39986,40897,A M,0,40006,40026,134.7946,168.7349,136.5893,183.4697 M,0,40026,40046,136.5893,183.4697,138.3839,198.2046 M,0,40046,40066,138.3839,198.2046,140.1785,212.9395 M,0,40066,40086,140.1785,212.9395,141.9731,227.6743 M,0,40086,40106,141.9731,227.6743,143.7678,242.4092 M,0,40106,40127,143.7678,242.4092,145.5624,257.144 M,0,40127,40147,145.5624,257.144,147.3571,271.8789
Sprite,Foreground,Centre,"sb\particle.png",170,292 C,0,40308,,255,253,210 F,2,40308,41058,1,0 S,2,40308,41058,2.5,0.5 P,0,40308,41058,A
Sprite,Foreground,Centre,"sb\particle.png",303,104 C,0,40470,,255,253,210 F,2,40470,41220,1,0 S,2,40470,41220,2.5,0.5 P,0,40470,41220,A
Sprite,Foreground,Centre,"sb\particle.png",0,0 C,0,40631,,251,210,255 M,0,40631,40651,384,204,369.3502,201.6082 F,2,40631,41542,1,0 S,2,40631,41542,2.5,0.5 P,0,40631,41542,A M,0,40651,40671,369.3502,201.6082,354.7004,199.2164 M,0,40671,40691,354.7004,199.2164,340.0507,196.8246 M,0,40691,40711,340.0507,196.8246,325.4364,197.771 M,0,40711,40731,325.4364,197.771,310.8408,200.4739 M,0,40731,40751,310.8408,200.4739,296.2775,198.6555 M,0,40751,40772,296.2775,198.6555,281.722,195.7444 M,0,40772,40792,281.722,195.7444,267.1665,192.8333
Sprite,Foreground,Centre,"sb\particle.png",348,294 C,0,40873,,251,210,255 F,2,40873,41623,1,0 S,2,40873,41623,2.5,0.5 P,0,40873,41623,A
Sprite,Foreground,Centre,"sb\particle.png",0,0 C,0,40953,,251,210,255 M,0,40953,40973,348,294,354.2775,307.4466 F,2,40953,41944,1,0 S,2,40953,41944,2.5,0.5 P,0,40953,41944,A M,0,40973,40993,354.2775,307.4466,359.3487,321.3911 M,0,40993,41013,359.3487,321.3911,362.9524,335.7827 M,0,41013,41033,362.9524,335.7827,364.8126,350.4992 M,0,41033,41053,364.8126,350.4992,364.6891,365.33 M,0,41053,41073,364.6891,365.33,362.4483,379.9902 M,0,41073,41094,362.4483,379.9902,358.1203,394.1756 M,0,41094,41114,358.1203,394.1756,351.8945,407.6387 M,0,41114,41134,351.8945,407.6387,340.4132,405.6493 M,0,41134,41154,340.4132,405.6493,328.9572,396.2733 M,0,41154,41174,328.9572,396.2733,321.2681,383.7068 M,0,41174,41194,321.2681,383.7068,320.0427,369.0512
Sprite,Foreground,Centre,"sb\particle.png",0,0 C,0,41276,,251,210,255 M,0,41276,41296,443,278,457.2996,281.9822 F,2,41276,42187,1,0 S,2,41276,42187,2.5,0.5 P,0,41276,42187,A M,0,41296,41316,457.2996,281.9822,471.5992,285.9644 M,0,41316,41336,471.5992,285.9644,485.8989,289.9465 M,0,41336,41356,485.8989,289.9465,500.1985,293.9287 M,0,41356,41376,500.1985,293.9287,514.4981,297.9109 M,0,41376,41396,514.4981,297.9109,515.2379,302.0168 M,0,41396,41417,515.2379,302.0168,501.0134,306.2592 M,0,41417,41437,501.0134,306.2592,486.7888,310.5016
Sprite,Foreground,Centre,"sb\particle.png",459,325 C,0,41599,,255,210,210 F,2,41599,42349,1,0 S,2,41599,42349,2.5,0.5 P,0,41599,42349,A
Sprite,Foreground,Centre,"sb\particle.png",518,394 C,0,41760,,255,210,210 F,2,41760,42510,1,0 S,2,41760,42510,2.5,0.5 P,0,41760,42510,A
Sprite,Foreground,Centre,"sb\particle.png",568,143 C,0,41921,,233,233,233 F,2,41921,42671,1,0 S,2,41921,42671,2.5,0.5 P,0,41921,42671,A
Sprite,Foreground,Centre,"sb\particle.png",0,0 C,0,42082,,233,233,233 M,0,42082,42102,492,94,494.4403,79.35822 F,2,42082,42993,1,0 S,2,42082,42993,2.5,0.5 P,0,42082,42993,A M,0,42102,42122,494.4403,79.35822,496.8806,64.71643 M,0,42122,42142,496.8806,64.71643,497.694,59.83584 M,0,42142,42162,497.694,59.83584,495.2537,74.47762 M,0,42162,42182,495.2537,74.47762,492.8134,89.1194 M,0,42182,42202,492.8134,89.1194,493.6269,84.23882 M,0,42202,42223,493.6269,84.23882,496.0672,69.59702 M,0,42223,42243,496.0672,69.59702,498.5074,54.95524
Sprite,Foreground,Centre,"sb\particle.png",520,222 C,0,42405,,233,233,233 F,2,42405,43155,1,0 S,2,42405,43155,2.5,0.5 P,0,42405,43155,A
Sprite,Foreground,Centre,"sb\particle.png",0,0 C,0,42566,,255,253,210 M,0,42566,42586,309,196,323.7306,194.1707 F,2,42566,43477,1,0 S,2,42566,43477,2.5,0.5 P,0,42566,43477,A M,0,42586,42606,323.7306,194.1707,338.4612,192.3414 M,0,42606,42626,338.4612,192.3414,353.1918,190.5121 M,0,42626,42646,353.1918,190.5121,367.9224,188.6828 M,0,42646,42666,367.9224,188.6828,382.653,186.8535 M,0,42666,42686,382.653,186.8535,397.3836,185.0243 M,0,42686,42707,397.3836,185.0243,412.1142,183.195 M,0,42707,42727,412.1142,183.195,426.8448,181.3657
Sprite,Foreground,Centre,"sb\particle.png",230,144 C,0,42889,,255,253,210 F,2,42889,43639,1,0 S,2,42889,43639,2.5,0.5 P,0,42889,43639,A
Sprite,Foreground,Centre,"sb\particle.png",0,0 C,0,43050,,255,253,210 M,0,43050,43070,336,297,328.927,283.9844 F,2,43050,44041,1,0 S,2,43050,44041,2.5,0.5 P,0,43050,44041,A M,0,43070,43090,328.927,283.9844,320.4853,271.8344 M,0,43090,43110,320.4853,271.8344,310.5305,260.8765 M,0,43110,43130,310.5305,260.8765,299.2253,251.2954 M,0,43130,43150,299.2253,251.2954,286.5855,243.5743 M,0,43150,43170,286.5855,243.5743,273.1621,237.3616 M,0,43170,43191,273.1621,237.3616,259.0391,232.9429 M,0,43191,43211,259.0391,232.9429,244.4504,230.3941 M,0,43211,43231,244.4504,230.3941,229.6377,229.7617 M,0,43231,43251,229.6377,229.7617,214.9239,231.4701 M,0,43251,43271,214.9239,231.4701,200.5096,234.7977 M,0,43271,43291,200.5096,234.7977,186.5862,239.8644
Sprite,Foreground,Centre,"sb\particle.png",0,0 C,0,43373,,255,253,210 M,0,43373,43393,156,254,153.3109,268.5981 F,2,43373,44284,1,0 S,2,43373,44284,2.5,0.5 P,0,43373,44284,A M,0,43393,43413,153.3109,268.5981,150.6217,283.1963 M,0,43413,43433,150.6217,283.1963,149.7254,288.0623 M,0,43433,43453,149.7254,288.0623,152.4145,273.4642 M,0,43453,43473,152.4145,273.4642,155.1036,258.866 M,0,43473,43493,155.1036,258.866,154.2072,263.7321 M,0,43493,43514,154.2072,263.7321,151.5181,278.3302 M,0,43514,43534,151.5181,278.3302,149,292
Sprite,Foreground,Centre,"sb\particle.png",83,195 C,0,43695,,251,210,255 F,2,43695,44445,1,0 S,2,43695,44445,2.5,0.5 P,0,43695,44445,A
Sprite,Foreground,Centre,"sb\particle.png",239,321 C,0,43857,,251,210,255 F,2,43857,44607,1,0 S,2,43857,44607,2.5,0.5 P,0,43857,44607,A
Sprite,Foreground,Centre,"sb\boom.png",557,415 C,0,2568,,255,232,150 S,1,2568,2818,0.1,0.45 F,0,2568,2968,0.75,0 P,0,2568,2968,A
Sprite,Foreground,Centre,"sb\boom.png",248,253 C,0,14180,,255,232,150 S,1,14180,14430,0.1,0.45 F,0,14180,14580,0.75,0 P,0,14180,14580,A
Sprite,Foreground,Centre,"sb\boom.png",387,152 C,0,16761,,255,232,150 S,1,16761,17011,0.1,0.45 F,0,16761,17161,0.75,0 P,0,16761,17161,A
Sprite,Foreground,Centre,"sb\boom.png",458,393 C,0,19341,,255,232,150 S,1,19341,19591,0.1,0.45 F,0,19341,19741,0.75,0 P,0,19341,19741,A
Sprite,Foreground,Centre,"sb\boom.png",507,210 C,0,21922,,255,232,150 S,1,21922,22172,0.1,0.45 F,0,21922,22322,0.75,0 P,0,21922,22322,A
Sprite,Foreground,Centre,"sb\boom.png",193,79 C,0,24503,,255,232,150 S,1,24503,24753,0.1,0.45 F,0,24503,24903,0.75,0 P,0,24503,24903,A
Sprite,Foreground,Centre,"sb\boom.png",505,309 C,0,25793,,255,232,150 S,1,25793,26043,0.1,0.45 F,0,25793,26193,0.75,0 P,0,25793,26193,A
Sprite,Foreground,Centre,"sb\boom.png",173,316 C,0,27083,,255,232,150 S,1,27083,27333,0.1,0.45 F,0,27083,27483,0.75,0 P,0,27083,27483,A
Sprite,Foreground,Centre,"sb\boom.png",479,247 C,0,29664,,255,232,150 S,1,29664,29914,0.1,0.45 F,0,29664,30064,0.75,0 P,0,29664,30064,A
Sprite,Foreground,Centre,"sb\boom.png",362,292 C,0,29987,,255,232,150 S,1,29987,30237,0.1,0.45 F,0,29987,30387,0.75,0 P,0,29987,30387,A
Sprite,Foreground,Centre,"sb\boom.png",74,233 C,0,30309,,255,232,150 S,1,30309,30559,0.1,0.45 F,0,30309,30709,0.75,0 P,0,30309,30709,A
Sprite,Foreground,Centre,"sb\boom.png",381,345 C,0,34825,,255,232,150 S,1,34825,35075,0.1,0.45 F,0,34825,35225,0.75,0 P,0,34825,35225,A
Sprite,Foreground,Centre,"sb\boom.png",288,406 C,0,35148,,255,232,150 S,1,35148,35398,0.1,0.45 F,0,35148,35548,0.75,0 P,0,35148,35548,A
Sprite,Foreground,Centre,"sb\boom.png",377,193 C,0,35470,,255,232,150 S,1,35470,35720,0.1,0.45 F,0,35470,35870,0.75,0 P,0,35470,35870,A
Sprite,Foreground,Centre,"sb\boom.png",464,351 C,0,44502,,255,232,150 S,1,44502,44752,0.1,0.45 F,0,44502,44902,0.75,0 P,0,44502,44902,A
Sprite,Foreground,Centre,"sb\boom.png",530,274 C,0,44824,,255,232,150 S,1,44824,45074,0.1,0.45 F,0,44824,45224,0.75,0 P,0,44824,45224,A
Sprite,Foreground,Centre,"sb\boom.png",242,238 C,0,45147,,255,232,150 S,1,45147,45397,0.1,0.45 F,0,45147,45547,0.75,0 P,0,45147,45547,A
Sprite,Foreground,Centre,"sb\boom.png",527,440 C,0,47082,,255,232,150 S,1,47082,47332,0.1,0.45 F,0,47082,47482,0.75,0 P,0,47082,47482,A
Sprite,Foreground,Centre,"sb\boom.png",573,189 C,0,48373,,255,232,150 S,1,48373,48623,0.1,0.45 F,0,48373,48773,0.75,0 P,0,48373,48773,A
Sprite,Foreground,Centre,"sb\boom.png",417,436 C,0,64502,,255,232,150 S,1,64502,64752,0.1,0.45 F,0,64502,64902,0.75,0 P,0,64502,64902,A
Sprite,Foreground,Centre,"sb\glow.png",207,369 C,0,3858,,251,210,255 F,2,3858,4608,0.5,0 S,2,3858,4608,0.5,0.1 P,0,3858,4608,A
Sprite,Foreground,Centre,"sb\glow.png",260,440 C,0,4825,,255,210,210 F,2,4825,5575,0.5,0 S,2,4825,5575,0.5,0.1 P,0,4825,5575,A
Sprite,Foreground,Centre,"sb\glow.png",290,181 C,0,5148,,233,233,233 F,2,5148,5898,0.5,0 S,2,5148,5898,0.5,0.1 P,0,5148,5898,A
Sprite,Foreground,Centre,"sb\glow.png",449,143 C,0,6116,,255,253,210 F,2,6116,6866,0.5,0 S,2,6116,6866,0.5,0.1 P,0,6116,6866,A
Sprite,Foreground,Centre,"sb\glow.png",375,223 C,0,6438,,251,210,255 F,2,6438,7188,0.5,0 S,2,6438,7188,0.5,0.1 P,0,6438,7188,A
Sprite,Foreground,Centre,"sb\glow.png",555,392 C,0,7406,,255,210,210 F,2,7406,8156,0.5,0 S,2,7406,8156,0.5,0.1 P,0,7406,8156,A
Sprite,Foreground,Centre,"sb\glow.png",491,226 C,0,7728,,233,233,233 F,2,7728,8478,0.5,0 S,2,7728,8478,0.5,0.1 P,0,7728,8478,A
Sprite,Foreground,Centre,"sb\glow.png",302,170 C,0,8696,,255,253,210 F,2,8696,9446,0.5,0 S,2,8696,9446,0.5,0.1 P,0,8696,9446,A
Sprite,Foreground,Centre,"sb\glow.png",233,97 C,0,9019,,251,210,255 F,2,9019,9769,0.5,0 S,2,9019,9769,0.5,0.1 P,0,9019,9769,A
Sprite,Foreground,Centre,"sb\glow.png",181,440 C,0,9503,,251,210,255 F,2,9503,10253,0.5,0 S,2,9503,10253,0.5,0.1 P,0,9503,10253,A
Sprite,Foreground,Centre,"sb\glow.png",299,313 C,0,10309,,255,210,210 F,2,10309,11059,0.5,0 S,2,10309,11059,0.5,0.1 P,0,10309,11059,A
Sprite,Foreground,Centre,"sb\glow.png",525,422 C,0,10793,,255,210,210 F,2,10793,11543,0.5,0 S,2,10793,11543,0.5,0.1 P,0,10793,11543,A
Sprite,Foreground,Centre,"sb\glow.png",246,149 C,0,11599,,233,233,233 F,2,11599,12349,0.5,0 S,2,11599,12349,0.5,0.1 P,0,11599,12349,A
Sprite,Foreground,Centre,"sb\glow.png",147,57 C,0,12083,,233,233,233 F,2,12083,12833,0.5,0 S,2,12083,12833,0.5,0.1 P,0,12083,12833,A
Sprite,Foreground,Centre,"sb\glow.png",278.1516,353.9227 C,0,12890,,251,210,255 F,2,12890,13640,0.5,0 S,2,12890,13640,0.5,0.1 P,0,12890,13640,A
Sprite,Foreground,Centre,"sb\glow.png",143,235 C,0,13374,,251,210,255 F,2,13374,14124,0.5,0 S,2,13374,14124,0.5,0.1 P,0,13374,14124,A
Sprite,Foreground,Centre,"sb\glow.png",411,146 C,0,14341,,255,253,210 F,2,14341,15091,0.5,0 S,2,14341,15091,0.5,0.1 P,0,14341,15091,A
Sprite,Foreground,Centre,"sb\glow.png",283,377 C,0,15309,,255,210,210 F,2,15309,16059,0.5,0 S,2,15309,16059,0.5,0.1 P,0,15309,16059,A
Sprite,Foreground,Centre,"sb\glow.png",165,91 C,0,16922,,251,210,255 F,2,16922,17672,0.5,0 S,2,16922,17672,0.5,0.1 P,0,16922,17672,A
Sprite,Foreground,Centre,"sb\glow.png",394,278 C,0,17890,,233,233,233 F,2,17890,18640,0.5,0 S,2,17890,18640,0.5,0.1 P,0,17890,18640,A
Sprite,Foreground,Centre,"sb\glow.png",295,317 C,0,19503,,255,210,210 F,2,19503,20253,0.5,0 S,2,19503,20253,0.5,0.1 P,0,19503,20253,A
Sprite,Foreground,Centre,"sb\glow.png",187,100 C,0,20470,,255,253,210 F,2,20470,21220,0.5,0 S,2,20470,21220,0.5,0.1 P,0,20470,21220,A
Sprite,Foreground,Centre,"sb\glow.png",445,366 C,0,22083,,255,210,210 F,2,22083,22833,0.5,0 S,2,22083,22833,0.5,0.1 P,0,22083,22833,A
Sprite,Foreground,Centre,"sb\glow.png",297,412 C,0,23051,,255,253,210 F,2,23051,23801,0.5,0 S,2,23051,23801,0.5,0.1 P,0,23051,23801,A
Sprite,Foreground,Centre,"sb\glow.png",356,349 C,0,23212,,251,210,255 F,2,23212,23962,0.5,0 S,2,23212,23962,0.5,0.1 P,0,23212,23962,A
Sprite,Foreground,Centre,"sb\glow.png",240,227 C,0,23374,,255,210,210 F,2,23374,24124,0.5,0 S,2,23374,24124,0.5,0.1 P,0,23374,24124,A
Sprite,Foreground,Centre,"sb\glow.png",64,292 C,0,23535,,233,233,233 F,2,23535,24285,0.5,0 S,2,23535,24285,0.5,0.1 P,0,23535,24285,A
Sprite,Foreground,Centre,"sb\glow.png",315,73 C,0,29019,,233,233,233 F,2,29019,29769,0.5,0 S,2,29019,29769,0.5,0.1 P,0,29019,29769,A
Sprite,Foreground,Centre,"sb\glow.png",192,85 C,0,29180,,233,233,233 F,2,29180,29930,0.5,0 S,2,29180,29930,0.5,0.1 P,0,29180,29930,A
Sprite,Foreground,Centre,"sb\glow.png",82,105 C,0,29341,,255,253,210 F,2,29341,30091,0.5,0 S,2,29341,30091,0.5,0.1 P,0,29341,30091,A
Sprite,Foreground,Centre,"sb\glow.png",283,188 C,0,29503,,255,253,210 F,2,29503,30253,0.5,0 S,2,29503,30253,0.5,0.1 P,0,29503,30253,A
Sprite,Foreground,Centre,"sb\glow.png",198,436 C,0,30793,,233,233,233 F,2,30793,31543,0.5,0 S,2,30793,31543,0.5,0.1 P,0,30793,31543,A
Sprite,Foreground,Centre,"sb\glow.png",305,422 C,0,31277,,233,233,233 F,2,31277,32027,0.5,0 S,2,31277,32027,0.5,0.1 P,0,31277,32027,A
Sprite,Foreground,Centre,"sb\glow.png",391,193 C,0,31438,,255,253,210 F,2,31438,32188,0.5,0 S,2,31438,32188,0.5,0.1 P,0,31438,32188,A
Sprite,Foreground,Centre,"sb\glow.png",551,276 C,0,31599,,255,253,210 F,2,31599,32349,0.5,0 S,2,31599,32349,0.5,0.1 P,0,31599,32349,A
Sprite,Foreground,Centre,"sb\glow.png",444,291 C,0,32083,,251,210,255 F,2,32083,32833,0.5,0 S,2,32083,32833,0.5,0.1 P,0,32083,32833,A
Sprite,Foreground,Centre,"sb\glow.png",493,180 C,0,32567,,251,210,255 F,2,32567,33317,0.5,0 S,2,32567,33317,0.5,0.1 P,0,32567,33317,A
Sprite,Foreground,Centre,"sb\glow.png",576,379 C,0,32728,,255,210,210 F,2,32728,33478,0.5,0 S,2,32728,33478,0.5,0.1 P,0,32728,33478,A
Sprite,Foreground,Centre,"sb\glow.png",348,333 C,0,32890,,255,210,210 F,2,32890,33640,0.5,0 S,2,32890,33640,0.5,0.1 P,0,32890,33640,A
Sprite,Foreground,Centre,"sb\glow.png",173,162 C,0,33535,,233,233,233 F,2,33535,34285,0.5,0 S,2,33535,34285,0.5,0.1 P,0,33535,34285,A
Sprite,Foreground,Centre,"sb\glow.png",278,133 C,0,34019,,233,233,233 F,2,34019,34769,0.5,0 S,2,34019,34769,0.5,0.1 P,0,34019,34769,A
Sprite,Foreground,Centre,"sb\glow.png",543,89 C,0,34341,,255,253,210 F,2,34341,35091,0.5,0 S,2,34341,35091,0.5,0.1 P,0,34341,35091,A
Sprite,Foreground,Centre,"sb\glow.png",441,58 C,0,34503,,255,253,210 F,2,34503,35253,0.5,0 S,2,34503,35253,0.5,0.1 P,0,34503,35253,A
Sprite,Foreground,Centre,"sb\glow.png",278,231 C,0,34664,,255,253,210 F,2,34664,35414,0.5,0 S,2,34664,35414,0.5,0.1 P,0,34664,35414,A
Sprite,Foreground,Centre,"sb\glow.png",392,381 C,0,35954,,233,233,233 F,2,35954,36704,0.5,0 S,2,35954,36704,0.5,0.1 P,0,35954,36704,A
Sprite,Foreground,Centre,"sb\glow.png",417,279 C,0,36438,,233,233,233 F,2,36438,37188,0.5,0 S,2,36438,37188,0.5,0.1 P,0,36438,37188,A
Sprite,Foreground,Centre,"sb\glow.png",181,373 C,0,36599,,255,253,210 F,2,36599,37349,0.5,0 S,2,36599,37349,0.5,0.1 P,0,36599,37349,A
Sprite,Foreground,Centre,"sb\glow.png",230,197 C,0,36761,,255,253,210 F,2,36761,37511,0.5,0 S,2,36761,37511,0.5,0.1 P,0,36761,37511,A
Sprite,Foreground,Centre,"sb\glow.png",210,175 C,0,37245,,251,210,255 F,2,37245,37995,0.5,0 S,2,37245,37995,0.5,0.1 P,0,37245,37995,A
Sprite,Foreground,Centre,"sb\glow.png",326,242 C,0,37728,,251,210,255 F,2,37728,38478,0.5,0 S,2,37728,38478,0.5,0.1 P,0,37728,38478,A
Sprite,Foreground,Centre,"sb\glow.png",425,91 C,0,37890,,255,210,210 F,2,37890,38640,0.5,0 S,2,37890,38640,0.5,0.1 P,0,37890,38640,A
Sprite,Foreground,Centre,"sb\glow.png",334,132 C,0,38051,,255,210,210 F,2,38051,38801,0.5,0 S,2,38051,38801,0.5,0.1 P,0,38051,38801,A
Sprite,Foreground,Centre,"sb\glow.png",459,198 C,0,38696,,233,233,233 F,2,38696,39446,0.5,0 S,2,38696,39446,0.5,0.1 P,0,38696,39446,A
Sprite,Foreground,Centre,"sb\glow.png",505,283 C,0,38857,,255,253,210 F,2,38857,39607,0.5,0 S,2,38857,39607,0.5,0.1 P,0,38857,39607,A
Sprite,Foreground,Centre,"sb\glow.png",370,333 C,0,39019,,251,210,255 F,2,39019,39769,0.5,0 S,2,39019,39769,0.5,0.1 P,0,39019,39769,A
Sprite,Foreground,Centre,"sb\glow.png",238,184 C,0,39180,,255,210,210 F,2,39180,39930,0.5,0 S,2,39180,39930,0.5,0.1 P,0,39180,39930,A
Sprite,Foreground,Centre,"sb\glow.png",336,297 C,0,44018,,255,210,210 F,2,44018,44768,0.5,0 S,2,44018,44768,0.5,0.1 P,0,44018,44768,A
Sprite,Foreground,Centre,"sb\glow.png",169,377 C,0,44179,,255,210,210 F,2,44179,44929,0.5,0 S,2,44179,44929,0.5,0.1 P,0,44179,44929,A
Sprite,Foreground,Centre,"sb\glow.png",89,350 C,0,44341,,233,233,233 F,2,44341,45091,0.5,0 S,2,44341,45091,0.5,0.1 P,0,44341,45091,A
Sprite,Foreground,Centre,"sb\glow.png",138.1992,245.8478 C,0,45792,,255,210,210 F,2,45792,46542,0.5,0 S,2,45792,46542,0.5,0.1 P,0,45792,46542,A
Sprite,Foreground,Centre,"sb\glow.png",64,404 C,0,46437,,233,233,233 F,2,46437,47187,0.5,0 S,2,46437,47187,0.5,0.1 P,0,46437,47187,A
Sprite,Foreground,Centre,"sb\glow.png",305,434 C,0,46760,,233,233,233 F,2,46760,47510,0.5,0 S,2,46760,47510,0.5,0.1 P,0,46760,47510,A
Sprite,Foreground,Centre,"sb\glow.png",382,367 C,0,46921,,233,233,233 F,2,46921,47671,0.5,0 S,2,46921,47671,0.5,0.1 P,0,46921,47671,A
Sprite,Foreground,Centre,"sb\glow.png",527,440 C,0,47082,,255,253,210 F,2,47082,47832,0.5,0 S,2,47082,47832,0.5,0.1 P,0,47082,47832,A
Sprite,Foreground,Centre,"sb\glow.png",390,132 C,0,49018,,255,253,210 F,2,49018,49768,0.5,0 S,2,49018,49768,0.5,0.1 P,0,49018,49768,A
Sprite,Foreground,Centre,"sb\glow.png",571,304 C,0,49233,,251,210,255 F,2,49233,49983,0.5,0 S,2,49233,49983,0.5,0.1 P,0,49233,49983,A
Sprite,Foreground,Centre,"sb\glow.png",180,200 C,0,49448,,255,210,210 F,2,49448,50198,0.5,0 S,2,49448,50198,0.5,0.1 P,0,49448,50198,A
Sprite,Foreground,Centre,"sb\glow.png",300,197 C,0,49663,,233,233,233 F,2,49663,50413,0.5,0 S,2,49663,50413,0.5,0.1 P,0,49663,50413,A
Sprite,Foreground,Centre,"sb\glow.png",82,148 C,0,49986,,255,253,210 F,2,49986,50736,0.5,0 S,2,49986,50736,0.5,0.1 P,0,49986,50736,A
Sprite,Foreground,Centre,"sb\glow.png",152,219 C,0,50308,,255,253,210 F,2,50308,51058,0.5,0 S,2,50308,51058,0.5,0.1 P,0,50308,51058,A
Sprite,Foreground,Centre,"sb\glow.png",128,394 C,0,50792,,251,210,255 F,2,50792,51542,0.5,0 S,2,50792,51542,0.5,0.1 P,0,50792,51542,A
Sprite,Foreground,Centre,"sb\glow.png",361,395 C,0,51276,,251,210,255 F,2,51276,52026,0.5,0 S,2,51276,52026,0.5,0.1 P,0,51276,52026,A
Sprite,Foreground,Centre,"sb\glow.png",485,281 C,0,51599,,255,210,210 F,2,51599,52349,0.5,0 S,2,51599,52349,0.5,0.1 P,0,51599,52349,A
Sprite,Foreground,Centre,"sb\glow.png",386,308 C,0,51921,,255,210,210 F,2,51921,52671,0.5,0 S,2,51921,52671,0.5,0.1 P,0,51921,52671,A
Sprite,Foreground,Centre,"sb\glow.png",321,180 C,0,52244,,233,233,233 F,2,52244,52994,0.5,0 S,2,52244,52994,0.5,0.1 P,0,52244,52994,A
Sprite,Foreground,Centre,"sb\glow.png",204,391 C,0,52566,,255,253,210 F,2,52566,53316,0.5,0 S,2,52566,53316,0.5,0.1 P,0,52566,53316,A
Sprite,Foreground,Centre,"sb\glow.png",183,280 C,0,52889,,255,253,210 F,2,52889,53639,0.5,0 S,2,52889,53639,0.5,0.1 P,0,52889,53639,A
Sprite,Foreground,Centre,"sb\glow.png",258,60 C,0,53373,,251,210,255 F,2,53373,54123,0.5,0 S,2,53373,54123,0.5,0.1 P,0,53373,54123,A
Sprite,Foreground,Centre,"sb\glow.png",398,120 C,0,53857,,251,210,255 F,2,53857,54607,0.5,0 S,2,53857,54607,0.5,0.1 P,0,53857,54607,A
Sprite,Foreground,Centre,"sb\glow.png",188,156 C,0,54179,,255,210,210 F,2,54179,54929,0.5,0 S,2,54179,54929,0.5,0.1 P,0,54179,54929,A
Sprite,Foreground,Centre,"sb\glow.png",188,156 C,0,54502,,255,210,210 F,2,54502,55252,0.5,0 S,2,54502,55252,0.5,0.1 P,0,54502,55252,A
Sprite,Foreground,Centre,"sb\glow.png",361,201 C,0,54824,,233,233,233 F,2,54824,55574,0.5,0 S,2,54824,55574,0.5,0.1 P,0,54824,55574,A
Sprite,Foreground,Centre,"sb\glow.png",354,232 C,0,55147,,233,233,233 F,2,55147,55897,0.5,0 S,2,55147,55897,0.5,0.1 P,0,55147,55897,A
Sprite,Foreground,Centre,"sb\glow.png",283,337 C,0,55470,,255,253,210 F,2,55470,56220,0.5,0 S,2,55470,56220,0.5,0.1 P,0,55470,56220,A
Sprite,Foreground,Centre,"sb\glow.png",567,261 C,0,55953,,251,210,255 F,2,55953,56703,0.5,0 S,2,55953,56703,0.5,0.1 P,0,55953,56703,A
Sprite,Foreground,Centre,"sb\glow.png",546,422 C,0,56437,,251,210,255 F,2,56437,57187,0.5,0 S,2,56437,57187,0.5,0.1 P,0,56437,57187,A
Sprite,Foreground,Centre,"sb\glow.png",563,394 C,0,56760,,255,210,210 F,2,56760,57510,0.5,0 S,2,56760,57510,0.5,0.1 P,0,56760,57510,A
Sprite,Foreground,Centre,"sb\glow.png",254,327 C,0,57082,,255,210,210 F,2,57082,57832,0.5,0 S,2,57082,57832,0.5,0.1 P,0,57082,57832,A
Sprite,Foreground,Centre,"sb\glow.png",195,396 C,0,57405,,233,233,233 F,2,57405,58155,0.5,0 S,2,57405,58155,0.5,0.1 P,0,57405,58155,A
Sprite,Foreground,Centre,"sb\glow.png",93,223 C,0,57728,,255,253,210 F,2,57728,58478,0.5,0 S,2,57728,58478,0.5,0.1 P,0,57728,58478,A
Sprite,Foreground,Centre,"sb\glow.png",313,208 C,0,58050,,255,253,210 F,2,58050,58800,0.5,0 S,2,58050,58800,0.5,0.1 P,0,58050,58800,A
Sprite,Foreground,Centre,"sb\glow.png",406,213 C,0,58373,,255,253,210 F,2,58373,59123,0.5,0 S,2,58373,59123,0.5,0.1 P,0,58373,59123,A
Sprite,Foreground,Centre,"sb\glow.png",527,233 C,0,58534,,251,210,255 F,2,58534,59284,0.5,0 S,2,58534,59284,0.5,0.1 P,0,58534,59284,A
Sprite,Foreground,Centre,"sb\glow.png",436,315 C,0,59018,,251,210,255 F,2,59018,59768,0.5,0 S,2,59018,59768,0.5,0.1 P,0,59018,59768,A
Sprite,Foreground,Centre,"sb\glow.png",526,147 C,0,59341,,255,210,210 F,2,59341,60091,0.5,0 S,2,59341,60091,0.5,0.1 P,0,59341,60091,A
Sprite,Foreground,Centre,"sb\glow.png",403,90 C,0,59663,,255,210,210 F,2,59663,60413,0.5,0 S,2,59663,60413,0.5,0.1 P,0,59663,60413,A
Sprite,Foreground,Centre,"sb\glow.png",306,171 C,0,59986,,233,233,233 F,2,59986,60736,0.5,0 S,2,59986,60736,0.5,0.1 P,0,59986,60736,A
Sprite,Foreground,Centre,"sb\glow.png",310,212 C,0,60308,,233,233,233 F,2,60308,61058,0.5,0 S,2,60308,61058,0.5,0.1 P,0,60308,61058,A
Sprite,Foreground,Centre,"sb\glow.png",156,216 C,0,60631,,255,253,210 F,2,60631,61381,0.5,0 S,2,60631,61381,0.5,0.1 P,0,60631,61381,A
Sprite,Foreground,Centre,"sb\glow.png",88,197 C,0,60953,,255,253,210 F,2,60953,61703,0.5,0 S,2,60953,61703,0.5,0.1 P,0,60953,61703,A
Sprite,Foreground,Centre,"sb\glow.png",220,276 C,0,61115,,251,210,255 F,2,61115,61865,0.5,0 S,2,61115,61865,0.5,0.1 P,0,61115,61865,A
Sprite,Foreground,Centre,"sb\glow.png",156,339 C,0,61599,,251,210,255 F,2,61599,62349,0.5,0 S,2,61599,62349,0.5,0.1 P,0,61599,62349,A
Sprite,Foreground,Centre,"sb\glow.png",144,375 C,0,61921,,255,210,210 F,2,61921,62671,0.5,0 S,2,61921,62671,0.5,0.1 P,0,61921,62671,A
Sprite,Foreground,Centre,"sb\glow.png",256,322 C,0,62244,,255,210,210 F,2,62244,62994,0.5,0 S,2,62244,62994,0.5,0.1 P,0,62244,62994,A
Sprite,Foreground,Centre,"sb\glow.png",417,436 C,0,64502,,251,210,255 F,2,64502,65252,0.5,0 S,2,64502,65252,0.5,0.1 P,0,64502,65252,A
Sprite,Foreground,Centre,"sb\particle.png",173,316 C,0,27083,,251,210,255 F,2,27083,27833,1,0 S,2,27083,27833,2.5,0.5 P,0,27083,27833,A
Sprite,Foreground,Centre,"sb\particle.png",0,0 C,0,27406,,251,210,255 M,0,27406,27426,383,405,388.7857,406.3274 F,2,27406,28317,1,0 S,2,27406,28317,2.5,0.5 P,0,27406,28317,A M,0,27426,27446,388.7857,406.3274,394.5664,407.6634 M,0,27446,27466,394.5664,407.6634,400.3809,408.856 M,0,27466,27486,400.3809,408.856,406.2522,409.7302 M,0,27486,27506,406.2522,409.7302,412.1274,410.5497 M,0,27506,27526,412.1274,410.5497,418.0227,411.2233 M,0,27526,27547,418.0227,411.2233,423.9354,411.7505 M,0,27547,27567,423.9354,411.7505,429.8685,411.9359
Sprite,Foreground,Centre,"sb\particle.png",0,0 C,0,27728,,251,210,255 M,0,27728,27748,313,179,304.0692,186.7998 F,2,27728,28800,1,0 S,2,27728,28800,2.5,0.5 P,0,27728,28800,A M,0,27748,27768,304.0692,186.7998,295.8726,195.3591 M,0,27768,27788,295.8726,195.3591,288.4228,204.568 M,0,27788,27808,288.4228,204.568,282.0856,214.5831 M,0,27808,27828,282.0856,214.5831,276.5695,225.0688 M,0,27828,27848,276.5695,225.0688,272.3438,236.1425 M,0,27848,27869,272.3438,236.1425,268.9733,247.5051 M,0,27869,27889,268.9733,247.5051,267.027,259.1978 M,0,27889,27909,267.027,259.1978,265.9326,271.0035 M,0,27909,27929,265.9326,271.0035,266.3434,282.8513 M,0,27929,27949,266.3434,282.8513,267.5688,294.6492 M,0,27949,27969,267.5688,294.6492,270.3211,306.1815 M,0,27969,27990,270.3211,306.1815,274.0872,317.4177 M,0,27990,28010,274.0872,317.4177,278.8065,328.2797 M,0,28010,28030,278.8065,328.2797,284.7261,338.5465 M,0,28030,28050,284.7261,338.5465,291.4711,348.2842
Sprite,Foreground,Centre,"sb\particle.png",0,0 C,0,28212,,255,210,210 M,0,28212,28232,555,117,543.1976,118.3114 F,2,28212,29203,1,0 S,2,28212,29203,2.5,0.5 P,0,28212,29203,A M,0,28232,28252,543.1976,118.3114,531.3953,119.6227 M,0,28252,28272,531.3953,119.6227,519.5929,120.9341 M,0,28272,28292,519.5929,120.9341,507.7905,122.2455 M,0,28292,28312,507.7905,122.2455,495.9882,123.5569 M,0,28312,28332,495.9882,123.5569,484.1858,124.8682 M,0,28332,28353,484.1858,124.8682,472.3834,126.1796 M,0,28353,28373,472.3834,126.1796,460.5811,127.491 M,0,28373,28393,460.5811,127.491,448.7787,128.8024 M,0,28393,28413,448.7787,128.8024,436.9763,130.1137 M,0,28413,28433,436.9763,130.1137,425.174,131.4251 M,0,28433,28453,425.174,131.4251,413.3716,132.7365
Sprite,Foreground,Centre,"sb\particle.png",398,219 C,0,28535,,255,210,210 F,2,28535,29285,1,0 S,2,28535,29285,2.5,0.5 P,0,28535,29285,A
Sprite,Foreground,Centre,"sb\particle.png",479,247 C,0,28696,,255,210,210 F,2,28696,29446,1,0 S,2,28696,29446,2.5,0.5 P,0,28696,29446,A
Sprite,Foreground,Centre,"sb\particle.png",554,207 C,0,28857,,255,210,210 F,2,28857,29607,1,0 S,2,28857,29607,2.5,0.5 P,0,28857,29607,A
Sprite,Foreground,Centre,"sb\particle.png",159,159 C,0,62566,,233,233,233 F,2,62566,63316,1,0 S,2,62566,63316,2.5,0.5 P,0,62566,63316,A
Sprite,Foreground,Centre,"sb\particle.png",0,0 C,0,62889,,233,233,233 M,0,62889,62909,320,129,314.088,129.3784 F,2,62889,63800,1,0 S,2,62889,63800,2.5,0.5 P,0,62889,63800,A M,0,62909,62929,314.088,129.3784,308.2035,129.7901 M,0,62929,62949,308.2035,129.7901,302.2832,129.7668 M,0,62949,62969,302.2832,129.7668,296.4431,128.7727 M,0,62969,62989,296.4431,128.7727,290.6636,127.6375 M,0,62989,63009,290.6636,127.6375,284.9701,126.0766 M,0,63009,63030,284.9701,126.0766,279.3553,124.1427 M,0,63030,63050,279.3553,124.1427,274.036,121.5123
Sprite,Foreground,Centre,"sb\particle.png",0,0 C,0,63211,,233,233,233 M,0,63211,63231,419,174,425.2278,184.0982 F,2,63211,64283,1,0 S,2,63211,64283,2.5,0.5 P,0,63211,64283,A M,0,63231,63251,425.2278,184.0982,430.7354,194.602 M,0,63251,63271,430.7354,194.602,435.575,205.4274 M,0,63271,63291,435.575,205.4274,439.3884,216.6587 M,0,63291,63311,439.3884,216.6587,442.5472,228.0923 M,0,63311,63331,442.5472,228.0923,444.5741,239.7801 M,0,63331,63352,444.5741,239.7801,445.9793,251.5635 M,0,63352,63372,445.9793,251.5635,446.1703,263.4256 M,0,63372,63392,446.1703,263.4256,445.5349,275.2685 M,0,63392,63412,445.5349,275.2685,444.1383,287.0425 M,0,63412,63432,444.1383,287.0425,441.675,298.6446 M,0,63432,63452,441.675,298.6446,438.524,310.0785 M,0,63452,63473,438.524,310.0785,434.292,321.1595 M,0,63473,63493,434.292,321.1595,429.4565,331.9943 M,0,63493,63513,429.4565,331.9943,423.5576,342.2867 M,0,63513,63533,423.5576,342.2867,416.9581,352.1405
Sprite,Foreground,Centre,"sb\particle.png",0,0 C,0,63695,,255,253,210 M,0,63695,63715,183,433,194.7993,431.6611 F,2,63695,64686,1,0 S,2,63695,64686,2.5,0.5 P,0,63695,64686,A M,0,63715,63735,194.7993,431.6611,206.5986,430.3221 M,0,63735,63755,206.5986,430.3221,218.3978,428.9832 M,0,63755,63775,218.3978,428.9832,230.1971,427.6443 M,0,63775,63795,230.1971,427.6443,241.9964,426.3054 M,0,63795,63815,241.9964,426.3054,253.7957,424.9665 M,0,63815,63836,253.7957,424.9665,265.5949,423.6275 M,0,63836,63856,265.5949,423.6275,277.3942,422.2886 M,0,63856,63876,277.3942,422.2886,289.1935,420.9497 M,0,63876,63896,289.1935,420.9497,300.9928,419.6107 M,0,63896,63916,300.9928,419.6107,312.7921,418.2718 M,0,63916,63936,312.7921,418.2718,324,417
Sprite,Foreground,Centre,"sb\particle.png",334,324 C,0,64018,,255,253,210 F,2,64018,64768,1,0 S,2,64018,64768,2.5,0.5 P,0,64018,64768,A
Sprite,Foreground,Centre,"sb\particle.png",256,288 C,0,64179,,255,253,210 F,2,64179,64929,1,0 S,2,64179,64929,2.5,0.5 P,0,64179,64929,A
Sprite,Foreground,Centre,"sb\particle.png",182,332 C,0,64340,,255,253,210 F,2,64340,65090,1,0 S,2,64340,65090,2.5,0.5 P,0,64340,65090,A
Sprite,Foreground,Centre,"sb\particle.png",64,202 C,0,24341,,251,210,255 F,2,24341,25091,1,0 S,2,24341,25091,2.5,0.5 P,0,24341,25091,A
Sprite,Foreground,Centre,"sb\particle.png",0,0 C,0,24503,,251,210,255 M,0,24503,24523,193,79,200.0814,79.78683 F,2,24503,25414,1,0 S,2,24503,25414,2.5,0.5 P,0,24503,25414,A M,0,24523,24543,200.0814,79.78683,207.1628,80.57365 M,0,24543,24563,207.1628,80.57365,214.2443,81.36047 M,0,24563,24583,214.2443,81.36047,221.3257,82.1473 M,0,24583,24603,221.3257,82.1473,228.4071,82.93413 M,0,24603,24623,228.4071,82.93413,235.4885,83.72095 M,0,24623,24644,235.4885,83.72095,242.5699,84.50777 M,0,24644,24664,242.5699,84.50777,249.6514,85.2946
Sprite,Foreground,Centre,"sb\particle.png",0,0 C,0,24825,,251,210,255 M,0,24825,24845,336,169,327.7395,169.9281 F,2,24825,25736,1,0 S,2,24825,25736,2.5,0.5 P,0,24825,25736,A M,0,24845,24865,327.7395,169.9281,319.4789,170.8563 M,0,24865,24885,319.4789,170.8563,311.2184,171.7845 M,0,24885,24905,311.2184,171.7845,302.9579,172.7126 M,0,24905,24925,302.9579,172.7126,294.6974,173.6407 M,0,24925,24945,294.6974,173.6407,286.4369,174.5689 M,0,24945,24966,286.4369,174.5689,278.1764,175.497 M,0,24966,24986,278.1764,175.497,269.9158,176.4252
Sprite,Foreground,Centre,"sb\particle.png",0,0 C,0,25148,,251,210,255 M,0,25148,25168,324,271,333.4389,272.0753 F,2,25148,26059,1,0 S,2,25148,26059,2.5,0.5 P,0,25148,26059,A M,0,25168,25188,333.4389,272.0753,342.8779,273.1506 M,0,25188,25208,342.8779,273.1506,352.3168,274.226 M,0,25208,25228,352.3168,274.226,361.7558,275.3013 M,0,25228,25248,361.7558,275.3013,371.1947,276.3766 M,0,25248,25268,371.1947,276.3766,380.6337,277.4519 M,0,25268,25289,380.6337,277.4519,390.0726,278.5273 M,0,25289,25309,390.0726,278.5273,399.5116,279.6026
Sprite,Foreground,Centre,"sb\particle.png",0,0 C,0,25470,,255,210,210 M,0,25470,25490,553,160,545.3215,147.4023 F,2,25470,26461,1,0 S,2,25470,26461,2.5,0.5 P,0,25470,26461,A M,0,25490,25510,545.3215,147.4023,535.431,136.5313 M,0,25510,25530,535.431,136.5313,523.3328,128.1432 M,0,25530,25550,523.3328,128.1432,509.6257,122.6721 M,0,25550,25570,509.6257,122.6721,494.9796,120.9567 M,0,25570,25590,494.9796,120.9567,480.3508,122.2416 M,0,25590,25611,480.3508,122.2416,466.3706,126.78 M,0,25611,25631,466.3706,126.78,453.7435,134.3535 M,0,25631,25651,453.7435,134.3535,443.1122,144.5952 M,0,25651,25671,443.1122,144.5952,435.5334,157.2454 M,0,25671,25691,435.5334,157.2454,430.6816,171.1065 M,0,25691,25711,430.6816,171.1065,429.0618,185.717
Sprite,Foreground,Centre,"sb\particle.png",0,0 C,0,25793,,233,233,233 M,0,25793,25813,505,309,504.1729,301.9232 F,2,25793,26704,1,0 S,2,25793,26704,2.5,0.5 P,0,25793,26704,A M,0,25813,25833,504.1729,301.9232,503.3457,294.8464 M,0,25833,25853,503.3457,294.8464,502.5185,287.7695 M,0,25853,25873,502.5185,287.7695,501.6913,280.6927 M,0,25873,25893,501.6913,280.6927,500.8642,273.6159 M,0,25893,25913,500.8642,273.6159,500.037,266.5391 M,0,25913,25934,500.037,266.5391,499.2099,259.4622 M,0,25934,25954,499.2099,259.4622,498.3827,252.3854
Sprite,Foreground,Centre,"sb\particle.png",0,0 C,0,26116,,233,233,233 M,0,26116,26136,405,316,404.035,324.2563 F,2,26116,27027,1,0 S,2,26116,27027,2.5,0.5 P,0,26116,27027,A M,0,26136,26156,404.035,324.2563,403.0699,332.5126 M,0,26156,26176,403.0699,332.5126,402.1049,340.7689 M,0,26176,26196,402.1049,340.7689,401.1399,349.0252 M,0,26196,26216,401.1399,349.0252,400.1749,357.2815 M,0,26216,26236,400.1749,357.2815,399.2099,365.5378 M,0,26236,26257,399.2099,365.5378,398.2448,373.7941 M,0,26257,26277,398.2448,373.7941,397.2798,382.0504
Sprite,Foreground,Centre,"sb\particle.png",0,0 C,0,26438,,233,233,233 M,0,26438,26458,296,435,294.8971,425.5642 F,2,26438,27349,1,0 S,2,26438,27349,2.5,0.5 P,0,26438,27349,A M,0,26458,26478,294.8971,425.5642,293.7943,416.1285 M,0,26478,26498,293.7943,416.1285,292.6913,406.6927 M,0,26498,26518,292.6913,406.6927,291.5885,397.257 M,0,26518,26538,291.5885,397.257,290.4856,387.8212 M,0,26538,26558,290.4856,387.8212,289.3827,378.3854 M,0,26558,26579,289.3827,378.3854,288.2798,368.9496 M,0,26579,26599,288.2798,368.9496,287.1769,359.5139
Sprite,Foreground,Centre,"sb\particle.png",0,0 C,0,26761,,255,253,210 M,0,26761,26781,262,199,261.1942,204.8826 F,2,26761,27752,1,0 S,2,26761,27752,2.5,0.5 P,0,26761,27752,A M,0,26781,26801,261.1942,204.8826,260.3883,210.7651 M,0,26801,26821,260.3883,210.7651,259.5825,216.6477 M,0,26821,26841,259.5825,216.6477,258.7767,222.5302 M,0,26841,26861,258.7767,222.5302,257.9708,228.4128 M,0,26861,26881,257.9708,228.4128,257.165,234.2954 M,0,26881,26902,257.165,234.2954,256.3592,240.1779 M,0,26902,26922,256.3592,240.1779,255.5534,246.0605 M,0,26922,26942,255.5534,246.0605,254.7475,251.9431 M,0,26942,26962,254.7475,251.9431,253.9417,257.8256 M,0,26962,26982,253.9417,257.8256,253.1359,263.7082 M,0,26982,27002,253.1359,263.7082,252.33,269.5908
//Storyboard Layer 4 (Overlay)
//Storyboard Sound Samples

[TimingPoints]
1278,322.58064516129,4,2,1,70,1,0
1923,-100,4,2,1,80,0,0
2568,-100,4,2,1,75,0,0
2890,-71.4285714285714,4,2,1,90,0,0
3213,-71.4285714285714,4,2,1,80,0,0
3374,-71.4285714285714,4,2,1,70,0,0
3697,-71.4285714285714,4,2,1,60,0,0
3858,322.58064516129,4,2,1,70,1,0
5148,-100,4,2,1,80,0,0
6116,-200,4,2,1,100,0,0
6357,-200,4,2,1,5,0,0
6438,-100,4,2,1,60,0,0
7728,-100,4,2,1,70,0,0
8696,-200,4,2,1,100,0,0
8937,-200,4,2,1,5,0,0
9019,-133.333333333333,4,2,1,65,0,0
10309,-117.647058823529,4,2,1,75,0,0
11599,-105.263157894737,4,2,1,85,0,0
13857,-200,4,2,1,100,0,0
14098,-200,4,2,1,5,0,0
14180,-200,4,2,1,70,0,0
14987,-100,4,2,1,70,0,0
15309,-100,4,2,1,80,0,0
16438,-200,4,2,1,100,0,0
16679,-200,4,2,1,5,0,0
16761,-200,4,2,1,60,0,0
17567,-100,4,2,1,60,0,0
17890,-100,4,2,1,70,0,0
19019,-200,4,2,1,100,0,0
19260,-200,4,2,1,5,0,0
19341,-200,4,2,1,85,0,0
19987,-100,4,2,1,85,0,0
20470,-100,4,2,1,80,0,0
21277,-100,4,2,1,90,0,0
22002,-100,4,2,1,5,0,0
22083,-100,4,2,1,90,0,0
23212,-100,4,2,1,95,0,0
23696,-100,4,2,1,100,0,0
24503,-166.666666666667,4,2,1,70,0,0
24825,-142.857142857143,4,2,1,80,0,0
25148,-125,4,2,1,90,0,0
25470,-80,4,2,1,100,0,0
25711,-80,4,2,1,5,0,0
25793,-166.666666666667,4,2,1,60,0,0
26116,-142.857142857143,4,2,1,70,0,0
26438,-125,4,2,1,80,0,0
26761,-200,4,2,1,100,0,0
27406,-200,4,2,1,85,0,0
27728,-100,4,2,1,90,0,0
28212,-100,4,2,1,100,0,0
29019,-100,4,2,1,85,0,0
29341,-100,4,2,1,70,0,0
29744,-100,4,2,1,5,0,0
29987,-100,4,2,1,80,0,0
30067,-100,4,2,1,5,0,0
30309,-71.4285714285714,4,2,1,70,0,0
30550,-71.4285714285714,4,2,1,45,0,0
30793,-100,4,2,1,85,0,0
32083,-100,4,2,1,100,0,0
33374,-100,4,2,1,85,0,0
34341,-100,4,2,1,90,0,0
34503,-100,4,2,1,95,0,0
34664,-100,4,2,1,100,0,0
34825,-100,4,2,1,90,0,0
34905,-100,4,2,1,5,0,0
35148,-100,4,2,1,80,0,0
35228,-100,4,2,1,5,0,0
35470,-71.4285714285714,4,2,1,70,0,0
35711,-71.4285714285714,4,2,1,45,0,0
35793,-71.4285714285714,4,2,1,85,0,0
35954,-100,4,2,1,85,0,0
37245,-100,4,2,1,100,0,0
38374,-100,4,2,1,90,0,0
38696,-100,4,2,1,80,0,0
39019,-100,4,2,1,70,0,0
39341,322.58064516129,4,2,1,85,1,1
39341,-80,4,2,1,85,0,1
39904,-80,4,2,1,5,0,1
39986,-80,4,2,1,80,0,1
40631,-80,4,2,1,90,0,1
41194,-80,4,2,1,5,0,1
41276,-80,4,2,1,85,0,1
41921,-80,4,2,1,100,0,1
42566,-80,4,2,1,90,0,1
43050,-80,4,2,1,100,0,1
43291,-80,4,2,1,5,0,1
43373,-80,4,2,1,90,0,1
43857,-80,4,2,1,80,0,1
44179,-80,4,2,1,70,0,1
44502,-100,4,2,1,90,0,1
44582,-100,4,2,1,5,0,1
44824,-100,4,2,1,80,0,1
44904,-100,4,2,1,5,0,1
45147,-71.4285714285714,4,2,1,70,0,1
45388,-71.4285714285714,4,2,1,45,0,1
45631,-100,4,2,1,85,0,1
46437,-100,4,2,1,75,0,1
47082,-100,4,2,1,90,0,0
47728,-400,4,2,1,90,0,0
48211,-400,4,2,1,45,0,0
48373,-400,4,2,1,90,0,0
49018,-400,4,2,1,80,0,0
49233,-400,4,2,1,70,0,0
49448,-400,4,2,1,60,0,0
49663,-400,4,2,1,70,0,0
50308,-100,4,2,1,70,0,0
50792,-100,4,2,1,80,0,0
51921,-200,4,2,1,100,0,0
52162,-200,4,2,1,5,0,0
52244,-200,4,2,1,60,0,0
52889,-100,4,2,1,60,0,0
53373,-100,4,2,1,70,0,0
54179,-100,4,2,1,100,0,0
54502,-200,4,2,1,85,0,0
54743,-200,4,2,1,5,0,0
54824,-200,4,2,1,85,0,0
55953,-100,4,2,1,80,0,0
57405,-100,4,2,1,90,0,0
59663,-200,4,2,1,100,0,0
59904,-200,4,2,1,5,0,0
59986,-200,4,2,1,90,0,0
61115,-100,4,2,1,95,0,0
62244,-200,4,2,1,100,0,0
62485,-200,4,2,1,5,0,0
62566,-200,4,2,1,100,0,0
62889,-200,4,2,1,85,0,0
63211,-100,4,2,1,90,0,0
63695,-100,4,2,1,100,0,0
65362,-133.333333333333,4,2,1,100,0,0
71599,-133.333333333333,4,2,1,5,0,0

[Colours]
Combo1 : 233,233,233
Combo2 : 255,253,210
Combo3 : 251,210,255
Combo4 : 255,210,210

[HitObjects]
167,36,1278,6,0,L|176:148,1,95,10|0,2:0|2:0,2:0:0:0:
258,352,1600,2,0,L|266:257,1,95,10|0,2:0|2:0,2:0:0:0:
66,192,1923,5,10,2:0:0:0:
156,242,2084,1,2,2:0:0:0:
116,333,2245,5,10,2:0:0:0:
290,252,2407,1,2,2:0:0:0:
493,359,2568,5,4,1:2:0:0:
493,359,2890,2,0,P|417:326|401:197,1,199.5,4|0,3:2|2:0,2:0:0:0:
483,252,3213,5,4,3:0:0:0:
361,202,3374,2,0,L|405:196,3,44.3333333333334,10|2|2|2,3:2|2:0|2:0|2:0,2:0:0:0:
318,338,3697,1,2,2:0:0:0:
143,313,3858,6,0,P|200:298|242:305,1,95,4|0,3:0|3:0,3:0:0:0:
331,354,4180,1,2,3:0:0:0:
330,190,4341,2,0,L|318:84,1,95,10|0,3:0|3:0,3:0:0:0:
196,384,4825,5,4,3:0:0:0:
226,125,5148,6,0,P|187:102|121:124,1,95,4|0,3:0|3:0,3:0:0:0:
65,186,5470,1,2,3:0:0:0:
25,280,5632,2,0,P|119:274|164:177,1,190,10|0,3:0|3:0,3:0:0:0:
385,87,6116,6,0,L|313:71,1,71.25,2|0,2:0|2:0,2:0:0:0:
311,167,6438,6,0,P|304:207|332:279,1,95,4|0,3:0|3:0,3:0:0:0:
408,290,6761,1,2,3:0:0:0:
236,312,6922,2,0,L|120:298,1,95,10|0,3:0|3:0,3:0:0:0:
329,355,7245,1,2,3:2:0:0:
491,336,7406,5,8,3:2:0:0:
491,336,7567,1,2,3:2:0:0:
427,170,7728,6,0,B|414:218|414:218|432:283,1,95,4|0,3:0|3:0,3:0:0:0:
503,93,8051,2,0,B|516:45|516:45|498:-20,2,95,2|10|0,3:0|3:0|3:0,3:0:0:0:
380,62,8535,1,2,3:2:0:0:
238,114,8696,6,0,L|311:128,1,71.25,8|0,2:0|2:0,2:0:0:0:
169,41,9019,6,0,P|140:58|140:105,1,71.2500000000002,4|0,3:0|3:0,3:0:0:0:
172,185,9341,1,2,3:0:0:0:
117,384,9503,2,0,L|99:234,1,142.5,10|0,3:0|3:0,3:0:0:0:
69,157,9987,1,8,3:0:0:0:
152,307,10148,1,0,3:0:0:0:
235,257,10309,6,0,P|276:253|325:268,1,80.7500000000003,4|0,3:0|3:0,3:0:0:0:
372,338,10632,1,2,3:0:0:0:
461,366,10793,2,0,P|428:343|433:234,1,161.500000000001,10|0,3:0|3:0,3:0:0:0:
433,136,11277,2,0,L|352:142,1,80.7500000000003,8|0,3:0|3:0,3:0:0:0:
182,93,11599,6,0,B|141:85|141:85|106:94|106:94|33:79,1,135.375,4|0,3:0|2:0,3:0:0:0:
83,1,11922,1,2,3:0:0:0:
83,1,12083,1,10,3:0:0:0:
195,182,12245,5,2,3:2:0:0:
281,74,12406,1,2,3:2:0:0:
184,197,12567,1,2,3:2:0:0:
300,272,12728,6,0,P|255:281|214:298,1,90.2499999999998,2|14,3:0|3:0,3:0:0:0:
72,384,13051,1,2,3:2:0:0:
0,319,13212,1,2,3:2:0:0:
79,179,13374,2,0,B|92:228|92:228|81:279,1,90.2499999999998,10|0,3:0|3:0,3:0:0:0:
302,169,13696,5,8,3:2:0:0:
257,88,13857,2,0,L|271:7,1,71.25,14|0,2:0|2:0,2:0:0:0:
184,197,14180,5,4,3:0:0:0:
347,90,14341,5,2,2:0:0:0:
393,165,14503,1,10,2:0:0:0:
364,61,14664,1,2,2:0:0:0:
354,243,14825,5,12,2:0:0:0:
416,305,14987,2,0,L|528:286,1,95,2|2,2:3|2:3,2:0:0:0:
219,321,15309,5,2,2:0:0:0:
305,353,15470,1,10,2:0:0:0:
197,324,15632,1,2,2:0:0:0:
324,355,15793,1,10,2:0:0:0:
105,375,15954,2,0,L|11:359,1,95,10|8,2:3|2:3,2:0:0:0:
255,157,16438,6,0,L|238:241,1,71.25,10|0,2:3|2:0,2:0:0:0:
323,96,16761,5,4,3:0:0:0:
101,35,16922,5,2,2:0:0:0:
121,123,17083,1,10,2:0:0:0:
76,29,17245,1,2,2:0:0:0:
217,70,17406,5,12,2:0:0:0:
147,240,17567,2,0,L|134:136,1,95,2|2,2:3|2:3,2:0:0:0:
330,222,17890,5,2,2:0:0:0:
304,330,18051,1,10,2:0:0:0:
350,202,18212,1,2,2:0:0:0:
306,354,18374,1,10,2:0:0:0:
445,160,18535,2,0,L|456:65,1,95,10|8,3:0|2:3,2:0:0:0:
502,243,19019,6,0,L|419:252,1,71.25,8|0,2:0|2:0,2:0:0:0:
394,337,19341,5,4,2:3:0:0:
231,261,19503,5,2,2:0:0:0:
158,303,19664,1,10,2:0:0:0:
248,275,19825,1,2,2:0:0:0:
73,172,19987,6,0,B|58:216|58:216|72:268,1,95,12|0,2:0|2:0,2:0:0:0:
153,210,20309,1,10,2:0:0:0:
123,44,20470,5,2,2:0:0:0:
36,85,20632,1,10,2:0:0:0:
159,64,20793,1,2,2:0:0:0:
9,70,20954,1,10,3:2:0:0:
260,143,21116,5,2,3:0:0:0:
249,248,21277,2,0,P|283:184|355:180,1,142.5,10|0,3:0|2:0,2:0:0:0:
355,214,21599,1,10,2:0:0:0:
475,269,21761,1,2,2:0:0:0:
443,154,21922,2,0,L|435:100,1,47.5,4|0,2:0|2:0,2:0:0:0:
381,310,22083,5,2,2:0:0:0:
437,185,22245,1,10,2:0:0:0:
396,343,22406,1,2,2:0:0:0:
170,285,22567,5,12,2:0:0:0:
94,342,22728,2,0,P|63:341|-6:347,1,95,2|2,2:0|2:3,2:0:0:0:
233,356,23051,5,2,3:2:0:0:
292,293,23212,5,10,3:2:0:0:
176,171,23374,5,2,3:2:0:0:
0,236,23535,5,10,3:2:0:0:
67,305,23696,6,0,P|112:247|37:66,1,285,6|8,3:0|2:3,2:0:0:0:
0,146,24341,5,2,2:0:0:0:
129,23,24503,2,0,L|201:31,1,56.9999999999999,6|0,2:0|2:0,2:0:0:0:
272,113,24825,2,0,L|183:123,1,66.4999999999999,10|0,2:0|2:0,2:0:0:0:
260,215,25148,2,0,L|339:224,1,76,6|0,2:0|2:0,2:0:0:0:
489,104,25470,6,0,P|391:77|380:171,1,178.125,2|0,2:3|2:0,2:0:0:0:
441,253,25793,6,0,L|432:176,1,56.9999999999999,4|0,2:0|2:0,2:0:0:0:
341,260,26116,2,0,L|332:337,1,66.4999999999999,8|0,2:0|2:0,2:0:0:0:
232,379,26438,2,0,L|223:302,1,76,4|0,2:0|2:0,2:0:0:0:
198,143,26761,6,0,L|188:216,1,71.25,2|0,2:3|2:0,2:0:0:0:
109,260,27083,5,4,2:0:0:0:
319,349,27406,2,0,P|343:354|383:356,1,47.5,2|8,2:0|2:0,2:0:0:0:
249,123,27728,2,0,P|212:170|242:308,1,190,14|2,2:0|2:3,2:0:0:0:
491,61,28212,6,0,L|338:78,1,142.5,6|0,3:2|2:0,2:0:0:0:
334,163,28535,1,8,2:0:0:0:
415,191,28696,1,2,2:3:0:0:
490,151,28857,1,10,3:2:0:0:
251,17,29019,5,6,3:0:0:0:
128,29,29180,1,0,3:0:0:0:
18,49,29341,5,10,3:0:0:0:
219,132,29503,1,2,3:0:0:0:
415,191,29664,6,0,L|406:246,1,47.5,12|0,3:2|2:0,2:0:0:0:
298,236,29987,2,0,L|290:282,1,47.5,10|0,3:2|2:0,2:0:0:0:
10,177,30309,6,0,P|93:151|213:182,1,199.5,14|0,3:2|2:0,2:0:0:0:
200,174,30632,1,12,2:3:0:0:
134,380,30793,6,0,P|145:334|120:260,1,95,4|2,3:0|3:0,3:0:0:0:
123,268,31035,1,2,3:0:0:0:
105,252,31116,1,10,3:0:0:0:
241,366,31277,1,8,3:0:0:0:
327,137,31438,5,8,3:0:0:0:
487,220,31599,2,0,L|391:213,1,95,6|8,3:0|3:2,3:0:0:0:
233,81,31922,1,10,3:2:0:0:
380,235,32083,6,0,P|392:274|382:326,1,95,4|2,3:0|3:0,3:0:0:0:
369,348,32325,1,2,3:0:0:0:
350,365,32406,1,10,3:0:0:0:
429,124,32567,1,8,3:0:0:0:
512,323,32728,5,8,3:0:0:0:
284,277,32890,2,0,P|226:267|158:270,1,95,4|0,3:0|3:0,3:0:0:0:
96,295,33212,1,8,3:0:0:0:
34,34,33374,5,2,2:3:0:0:
109,106,33535,2,0,L|120:211,1,95,6|0,2:0|2:3,2:3:0:0:
133,7,33857,1,2,2:3:0:0:
214,77,34019,2,0,P|265:85|331:85,1,95,8|8,2:3|2:3,2:3:0:0:
479,33,34341,5,0,3:0:0:0:
377,2,34503,1,10,3:0:0:0:
214,175,34664,1,2,3:0:0:0:
317,289,34825,6,0,L|309:216,1,47.5,12|0,2:0|2:0,2:0:0:0:
224,350,35148,2,0,L|216:277,1,47.5,10|0,2:0|2:0,2:0:0:0:
313,137,35470,6,0,P|391:125|449:221,1,199.5,14|0,3:2|2:0,2:0:0:0:
449,216,35793,5,12,3:0:0:0:
328,325,35954,2,0,P|385:314|443:335,1,95,4|2,3:0|3:0,3:0:0:0:
446,338,36196,1,2,3:0:0:0:
468,358,36277,1,10,3:0:0:0:
353,223,36438,1,8,3:0:0:0:
117,317,36599,5,8,3:0:0:0:
166,141,36761,2,0,L|177:240,1,95,6|8,3:0|3:2,3:0:0:0:
252,379,37083,1,10,3:2:0:0:
146,119,37245,6,0,P|89:108|31:129,1,95,4|2,3:0|3:0,3:0:0:0:
33,129,37487,1,2,3:0:0:0:
20,146,37567,1,10,3:0:0:0:
262,186,37728,1,8,3:0:0:0:
361,35,37890,5,8,3:0:0:0:
270,76,38051,2,0,B|257:123|257:123|279:182,1,95,4|0,3:0|3:0,3:0:0:0:
484,222,38374,1,2,2:0:0:0:
395,142,38535,1,8,2:3:0:0:
395,142,38616,1,8,2:3:0:0:
395,142,38696,5,14,3:0:0:0:
441,227,38857,5,2,3:0:0:0:
306,277,39019,5,10,3:0:0:0:
174,128,39180,5,2,3:0:0:0:
316,186,39341,6,0,P|249:199|219:248,1,118.75,4|0,3:1|3:0,3:0:0:0:
90,329,39582,1,2,3:2:0:0:
90,329,39663,2,0,B|159:372|202:339|202:339|168:343|124:300,1,178.125,8|0,3:0|2:0,3:0:0:0:
69,98,39986,2,0,L|88:254,1,118.75,12|0,3:0|3:0,3:0:0:0:
106,236,40308,5,2,3:2:0:0:
239,48,40470,1,2,3:2:0:0:
320,148,40631,6,0,B|271:140|271:140|244:145|244:145|194:135,1,118.75,4|0,3:2|3:0,3:0:0:0:
284,238,40873,1,2,3:2:0:0:
284,238,40953,2,0,B|317:302|286:355|286:355|243:334|261:298,1,178.125,8|0,3:0|2:0,3:0:0:0:
379,222,41276,2,0,B|458:244|458:244|401:261,1,118.75,12|0,3:0|3:0,3:0:0:0:
395,269,41599,5,2,3:2:0:0:
454,338,41760,1,2,3:2:0:0:
504,87,41921,5,4,3:0:0:0:
428,38,42082,2,0,L|435:-4,3,39.5833333333333,10|2|2|2,3:0|3:2|3:2|3:2,3:0:0:0:
456,166,42405,1,0,3:0:0:0:
245,140,42566,6,0,L|398:121,1,118.75,4|0,3:0|3:0,3:0:0:0:
166,88,42889,1,8,3:0:0:0:
272,241,43050,2,0,P|209:181|118:186,1,178.125,4|0,3:0|3:0,3:0:0:0:
92,198,43373,2,0,L|85:236,3,39.5833333333333,10|2|2|2,3:0|3:2|3:2|3:2,3:0:0:0:
19,139,43695,5,8,3:0:0:0:
175,265,43857,1,6,3:0:0:0:
272,241,44018,5,0,3:0:0:0:
105,321,44179,1,10,3:0:0:0:
25,294,44340,5,2,3:0:0:0:
400,295,44502,6,0,L|351:285,1,47.5,12|0,2:0|2:0,2:0:0:0:
466,218,44824,2,0,L|417:208,1,47.5,10|0,2:0|2:0,2:0:0:0:
178,182,45147,6,0,P|250:192|351:118,1,199.5,14|0,2:0|2:0,2:0:0:0:
349,122,45470,1,10,3:0:0:0:
101,102,45631,6,0,P|76:150|90:234,1,142.5,4|0,3:0|3:0,3:0:0:0:
108,248,45953,1,2,3:0:0:0:
191,208,46115,1,10,3:0:0:0:
183,299,46276,1,2,3:0:0:0:
0,348,46437,6,0,L|172:332,1,142.5,4|0,3:0|2:0,3:0:0:0:
241,378,46760,1,2,3:2:0:0:
318,311,46921,1,10,3:2:0:0:
463,384,47082,5,14,2:0:0:0:
463,384,47728,6,0,P|455:346|453:307,1,71.25,2|0,2:0|2:0,2:0:0:0:
509,133,48373,5,10,2:0:0:0:
326,76,48857,5,2,2:0:0:0:
326,76,48937,1,2,2:0:0:0:
326,76,49018,5,6,3:0:0:0:
507,248,49233,5,8,3:0:0:0:
116,144,49448,5,2,3:0:0:0:
236,141,49663,5,4,2:3:0:0:
37,66,49824,1,2,2:0:0:0:
18,92,49986,5,10,2:0:0:0:
128,46,50147,1,0,2:0:0:0:
88,163,50308,2,0,P|100:216|103:272,1,95,10|0,2:0|2:0,2:0:0:0:
64,338,50631,1,8,2:0:0:0:
64,338,50792,6,0,P|107:292|257:313,1,190,4|2,2:3|2:0,2:0:0:0:
297,339,51276,1,10,2:0:0:0:
443,240,51437,1,2,2:0:0:0:
421,225,51599,5,14,2:0:0:0:
488,322,51760,1,2,2:0:0:0:
322,252,51921,2,0,L|335:175,1,71.25,10|0,2:3|2:0,2:0:0:0:
257,124,52244,5,4,2:3:0:0:
167,361,52405,1,2,2:0:0:0:
140,335,52566,5,10,2:0:0:0:
218,268,52728,1,0,2:0:0:0:
119,224,52889,2,0,L|24:238,1,95,10|0,2:0|2:0,2:0:0:0:
25,237,53211,1,8,2:0:0:0:
194,4,53373,6,0,P|223:55|195:180,1,190,4|2,2:3|2:0,2:0:0:0:
334,64,53857,1,10,2:0:0:0:
91,124,54018,1,2,2:0:0:0:
124,100,54179,5,4,2:0:0:0:
124,100,54502,2,0,L|48:87,1,71.25,6|0,2:3|2:0,2:0:0:0:
297,145,54824,5,6,2:3:0:0:
217,25,54986,1,2,2:0:0:0:
290,176,55147,1,10,2:0:0:0:
239,9,55308,1,2,2:0:0:0:
219,281,55470,5,14,2:0:0:0:
248,274,55631,1,2,2:0:0:0:
281,266,55792,1,10,2:0:0:0:
503,205,55953,6,0,P|415:204|376:287,1,190,4|2,2:3|2:0,2:0:0:0:
482,366,56437,1,10,2:0:0:0:
350,318,56599,1,2,2:0:0:0:
499,338,56760,5,14,2:0:0:0:
291,378,56921,1,2,2:0:0:0:
190,271,57082,1,10,2:0:0:0:
190,271,57244,2,0,L|195:197,1,47.5,2|2,2:0|2:0,2:0:0:0:
131,340,57405,5,4,3:0:0:0:
47,144,57566,1,2,2:0:0:0:
29,167,57728,5,10,2:0:0:0:
105,209,57889,1,0,2:0:0:0:
249,152,58050,2,0,P|302:149|356:163,1,95,10|0,2:0|2:0,2:0:0:0:
342,157,58373,1,8,2:0:0:0:
463,177,58534,6,0,P|397:154|386:36,1,190,4|2,2:3|2:0,2:0:0:0:
372,259,59018,1,10,2:0:0:0:
491,79,59179,1,2,2:0:0:0:
462,91,59340,5,14,2:0:0:0:
339,34,59502,1,2,2:0:0:0:
339,34,59663,2,0,L|426:17,1,71.25,6|0,2:3|2:0,2:0:0:0:
242,115,59986,5,6,2:3:0:0:
130,78,60147,1,2,2:0:0:0:
246,156,60308,1,10,2:0:0:0:
145,43,60470,1,2,2:0:0:0:
92,160,60631,5,14,2:0:0:0:
61,151,60792,1,2,2:0:0:0:
24,141,60953,1,10,2:0:0:0:
156,220,61115,6,0,L|372:186,1,190,4|2,2:3|2:0,2:0:0:0:
92,283,61599,1,10,2:0:0:0:
179,243,61760,1,2,2:0:0:0:
80,319,61921,5,6,2:0:0:0:
1,263,62082,1,2,2:0:0:0:
192,266,62244,2,0,L|183:341,1,71.25,6|0,2:3|2:0,2:0:0:0:
95,103,62566,5,4,2:0:0:0:
256,73,62889,2,0,P|231:73|209:65,1,47.5,2|8,2:0|2:0,2:0:0:0:
355,118,63211,2,0,P|380:179|348:303,1,190,14|0,2:0|2:0,2:0:0:0:
119,377,63695,6,0,L|260:361,1,142.5,6|0,3:2|2:0,2:0:0:0:
270,268,64018,1,8,2:0:0:0:
192,232,64179,1,2,2:3:0:0:
118,276,64340,1,8,2:0:0:0:
353,380,64502,5,4,2:1:0:0:
237,129,65362,6,0,L|244:77,2,47.5000000000001,2|2|2,2:0|2:0|2:0,2:0:0:0:
256,192,65685,12,0,71599,2:0:0:0:
