osu file format v14

[General]
AudioFilename: audio.mp3
AudioLeadIn: 0
PreviewTime: 7753
Countdown: 0
SampleSet: Soft
StackLeniency: 0.5
Mode: 0
LetterboxInBreaks: 0
WidescreenStoryboard: 1

[Editor]
Bookmarks: 2779,12884,17937,22989,28042,33095,38147,39993,47377,54762,62147,69531
DistanceSpacing: 0.9
BeatDivisor: 4
GridSize: 32
TimelineZoom: 1.9

[Metadata]
Title:Discomdance
TitleUnicode:ディスコムダンス
Artist:YUKA NAGASE
ArtistUnicode:長瀬有花
Creator:Kudou Chitose
Version:NORMAL
Source:
Tags:riot music riotmusic vtuber vsinger virtual youtuber singer lonepi japanese pop jpop j-pop female vocals vocalist mrrrk namki
BeatmapID:3346526
BeatmapSetID:1636898

[Difficulty]
HPDrainRate:2
CircleSize:3
OverallDifficulty:4
ApproachRate:5
SliderMultiplier:1.1
SliderTickRate:1

[Events]
//Background and Video events
0,0,"bgYK6.png",0,0
Video,0,"discomdancevd2.m4v"
//Break Periods
//Storyboard Layer 0 (Background)
//Storyboard Layer 1 (Fail)
//Storyboard Layer 2 (Pass)
//Storyboard Layer 3 (Foreground)
//Storyboard Layer 4 (Overlay)
//Storyboard Sound Samples

[TimingPoints]
253,315.789473684211,4,2,1,55,1,0
2779,-100,4,2,1,65,0,0
12884,-111.111111111111,4,2,1,55,0,0
22989,-100,4,2,1,65,0,0
33095,-100,4,2,1,70,0,0
37516,-100,4,2,1,75,0,0
38147,461.538461538462,4,2,1,55,1,0
38147,-62.111801242236,4,2,1,55,0,0
39070,-62.111801242236,4,2,1,65,0,0
39993,-62.111801242236,4,2,1,85,0,1
54762,-62.111801242236,4,2,1,75,0,0
71377,-62.111801242236,4,2,1,35,0,0

[Colours]
Combo1 : 69,153,245
Combo2 : 248,196,86
Combo3 : 138,138,138
Combo4 : 218,136,14

[HitObjects]
408,0,253,6,0,P|462:11|526:39,1,110,8|8,1:0|1:0,0:0:0:0:
502,130,884,2,0,P|448:119|397:98,1,110,8|8,1:0|1:0,0:0:0:0:
317,39,1516,1,8,1:0:0:0:
241,102,1831,1,8,1:0:0:0:
271,196,2147,2,0,P|276:223|260:260,1,55,8|8,1:0|1:0,0:0:0:0:
230,289,2463,1,8,0:0:0:0:
159,358,2779,6,0,P|104:355|52:311,1,110,12|8,1:1|0:0,0:0:0:0:
36,279,3253,1,2,0:0:0:0:
106,210,3568,2,0,P|112:182|109:140,1,55,2|8,0:0|0:0,0:0:0:0:
80,116,3884,1,2,0:0:0:0:
115,26,4200,1,8,1:0:0:0:
115,26,4358,2,0,P|167:14|221:37,1,110,8|8,0:0|1:0,0:0:0:0:
255,74,4831,1,2,0:0:0:0:
255,74,4989,2,0,P|282:84|312:78,1,55,8|2,0:0|0:0,0:0:0:0:
346,49,5305,1,8,1:0:0:0:
443,67,5621,6,0,P|460:90|463:135,1,55,8|2,0:0|0:0,0:0:0:0:
450,162,5937,2,0,P|430:212|446:272,1,110,8|8,1:0|0:0,0:0:0:0:
465,308,6410,1,2,0:0:0:0:
404,384,6726,1,8,1:0:0:0:
404,384,6884,2,0,P|379:373|342:337,1,55,8|2,0:0|0:0,0:0:0:0:
308,348,7200,2,0,P|278:304|285:249,1,110,8|8,1:0|0:0,0:0:0:0:
327,160,7831,6,0,P|313:108|259:69,1,110,12|8,0:1|0:0,0:0:0:0:
221,73,8305,1,2,0:0:0:0:
133,25,8621,2,0,P|106:21|69:28,1,55,2|8,0:0|0:0,0:0:0:0:
34,57,8937,1,2,0:0:0:0:
57,158,9253,1,8,1:0:0:0:
57,158,9410,2,0,P|65:209|45:264,1,110,8|8,0:0|1:0,0:0:0:0:
22,308,9884,1,2,0:0:0:0:
22,308,10042,2,0,P|32:336|57:354,1,55,8|2,0:0|0:0,0:0:0:0:
97,369,10358,1,8,1:0:0:0:
187,329,10674,6,0,P|201:305|198:262,1,55,8|2,0:0|0:0,0:0:0:0:
187,231,10989,2,0,P|161:185|173:113,1,110,8|8,1:0|0:0,0:0:0:0:
196,90,11463,1,2,0:0:0:0:
295,66,11779,1,8,1:0:0:0:
295,65,11937,2,0,P|315:86|322:125,1,55,8|2,0:0|0:0,0:0:0:0:
340,157,12253,2,0,P|334:211|360:265,1,110,8|8,1:0|0:0,0:0:0:0:
444,275,12884,6,0,P|484:247|488:191,1,98.9999969787599,12|2,0:1|0:0,0:0:0:0:
492,110,13516,2,0,P|480:88|444:66,1,49.4999984893799,8|2,1:0|0:0,0:0:0:0:
417,62,13831,2,0,P|391:70|355:59,1,49.4999984893799,8|2,1:0|0:0,0:0:0:0:
283,40,14305,2,0,P|242:67|228:122,1,98.9999969787599,8|2,1:0|0:0,0:0:0:0:
252,150,14779,1,8,1:0:0:0:
240,238,15095,2,0,P|225:258|194:273,1,49.4999984893799,8|2,1:0|0:0,0:0:0:0:
159,267,15411,1,8,1:0:0:0:
75,235,15726,6,0,P|58:215|54:173,1,49.4999984893799,2|2,0:0|0:0,0:0:0:0:
35,151,16042,2,0,P|41:104|87:58,1,98.9999969787599,8|8,1:0|1:0,0:0:0:0:
115,51,16516,1,2,0:0:0:0:
203,52,16831,2,0,P|228:43|253:18,2,49.4999984893799,2|8|2,0:0|1:0|0:0,0:0:0:0:
179,141,17463,1,2,0:0:0:0:
179,141,17621,2,0,P|171:165|175:197,1,49.4999984893799,8|8,1:0|1:0,0:0:0:0:
154,229,17937,6,0,P|160:278|192:318,1,98.9999969787599,4|0,1:0|0:0,0:0:0:0:
263,366,18568,2,0,P|289:376|324:369,1,49.4999984893799,8|2,1:0|0:0,0:0:0:0:
341,342,18884,2,0,P|363:331|392:327,1,49.4999984893799,8|2,1:0|0:0,0:0:0:0:
475,301,19358,1,2,0:0:0:0:
475,301,19516,2,0,P|492:278|492:245,1,49.4999984893799,8|2,1:0|0:0,0:0:0:0:
476,216,19831,1,8,1:0:0:0:
499,129,20147,2,0,P|494:103|474:70,1,49.4999984893799,8|2,1:0|0:0,0:0:0:0:
450,52,20463,1,8,1:0:0:0:
361,46,20779,6,0,P|340:59|330:89,1,49.4999984893799,8|2,1:0|0:0,0:0:0:0:
333,130,21095,1,8,1:0:0:0:
333,130,21253,2,0,P|338:178|313:225,1,98.9999969787599,2|2,0:0|0:0,0:0:0:0:
239,264,21884,1,2,0:0:0:0:
239,264,22042,2,0,P|212:278|178:290,1,49.4999984893799,8|8,1:0|1:0,0:0:0:0:
150,277,22358,1,8,1:0:0:0:
13,133,22989,6,0,P|14:79|59:39,1,110,12|8,0:1|0:0,0:0:0:0:
101,66,23463,1,2,0:0:0:0:
101,66,23621,2,0,P|123:77|169:78,1,55,8|2,1:0|0:0,0:0:0:0:
197,58,23937,2,0,P|213:36|251:16,1,55,8|2,0:0|0:0,0:0:0:0:
337,37,24410,1,2,0:0:0:0:
337,37,24568,2,0,P|361:59|391:66,1,55,8|2,0:0|0:0,0:0:0:0:
430,54,24884,2,0,P|473:89|491:146,1,110,8|8,1:0|0:0,0:0:0:0:
427,215,25516,6,0,P|384:248|378:308,1,110,8|8,1:0|0:0,0:0:0:0:
357,348,25989,1,2,0:0:0:0:
357,348,26147,2,0,P|329:358|302:356,1,55,8|8,1:0|1:0,0:0:0:0:
258,335,26463,2,0,P|232:324|198:326,1,55,8|2,0:0|0:0,0:0:0:0:
108,347,26937,2,0,P|82:359|51:365,2,55,2|8|2,0:0|0:0|0:0,0:0:0:0:
124,252,27568,1,2,0:0:0:0:
124,252,27726,2,0,P|135:228|163:200,1,55,8|2,0:0|0:0,0:0:0:0:
202,196,28042,6,0,P|241:234|300:257,1,110,12|8,0:1|0:0,0:0:0:0:
336,287,28516,1,2,0:0:0:0:
336,287,28674,2,0,P|362:290|399:282,1,55,8|2,1:0|0:0,0:0:0:0:
439,289,28989,2,0,P|460:272|477:239,1,55,8|2,0:0|0:0,0:0:0:0:
440,160,29463,1,2,0:0:0:0:
440,160,29621,2,0,P|423:137|422:106,1,55,8|2,0:0|0:0,0:0:0:0:
449,70,29937,2,0,P|445:42|423:11,1,55,8|2,1:0|0:0,0:0:0:0:
384,2,30253,1,8,0:0:0:0:
285,3,30568,6,0,P|236:22|215:88,1,110,8|8,1:0|0:0,0:0:0:0:
240,120,31042,1,2,0:0:0:0:
240,120,31200,2,0,P|252:142|248:184,1,55,8|8,1:0|1:0,0:0:0:0:
265,219,31516,2,0,P|260:246|233:283,1,55,8|8,0:0|1:0,0:0:0:0:
171,334,31989,2,0,P|145:345|113:340,1,55,8|8,1:0|0:0,0:0:0:0:
80,321,32305,1,8,1:0:0:0:
80,321,32463,2,0,P|36:289|30:215,1,110,8|8,1:0|0:0,0:0:0:0:
32,138,33095,6,0,P|59:89|114:71,1,110,12|8,0:1|0:0,0:0:0:0:
205,86,33726,2,0,P|251:112|314:96,1,110,8|8,1:0|0:0,0:0:0:0:
337,65,34200,1,2,0:0:0:0:
337,65,34358,2,0,P|362:62|397:78,1,55,8|2,1:0|0:0,0:0:0:0:
431,99,34674,1,8,0:0:0:0:
380,184,34989,2,0,P|385:237|435:274,1,110,8|8,1:0|0:0,0:0:0:0:
492,345,35621,2,0,P|446:369|386:363,1,110,8|8,1:0|0:0,0:0:0:0:
302,328,36253,1,8,1:0:0:0:
302,328,36410,2,0,P|274:324|241:334,1,55,2|8,0:0|0:0,0:0:0:0:
160,377,36884,6,0,P|135:366|109:337,1,55,8|8,0:0|1:0,0:0:0:0:
68,329,37200,2,0,P|55:305|51:272,1,55,8|8,0:0|1:0,0:0:0:0:
77,235,37516,1,8,0:0:0:0:
303,94,38147,6,0,B|298:50|298:50|254:14,1,88.5500001351166,8|2,1:0|0:0,0:0:0:0:
167,11,38608,2,0,B|123:4|123:4|82:24,1,88.5500001351166,8|2,0:0|0:0,0:0:0:0:
8,86,39070,1,8,0:0:0:0:
18,231,39416,1,8,0:0:0:0:
160,264,39762,1,8,0:0:0:0:
220,187,39993,6,0,B|262:175|262:175|296:136,1,88.5500001351166,12|2,0:1|0:0,0:0:0:0:
373,88,40454,2,0,B|417:41|417:41|489:32,2,132.825000202675,8|8|2,0:0|1:0|0:0,0:0:0:0:
436,161,41377,1,8,0:0:0:0:
388,246,41608,1,2,0:0:0:0:
441,327,41839,6,0,B|408:357|408:357|363:364,1,88.5500001351166,8|0,1:0|0:0,0:0:0:0:
271,335,42300,2,0,B|203:339|203:339|146:385,2,132.825000202675,8|8|2,0:0|1:0|0:0,0:0:0:0:
309,245,43223,1,8,0:0:0:0:
250,167,43454,1,2,0:0:0:0:
267,71,43685,6,0,B|229:49|229:49|177:55,1,88.5500001351166,8|8,1:0|1:0,0:0:0:0:
101,105,44147,2,0,B|38:85|38:85|4:21,2,132.825000202675,8|8|8,0:0|0:0|1:0,0:0:0:0:
131,197,45070,1,8,0:0:0:0:
322,232,45531,6,0,L|376:149,1,88.5500001351166,8|2,1:0|0:0,0:0:0:0:
366,59,45993,2,0,B|404:35|404:35|456:38,1,88.5500001351166,8|2,0:0|0:0,0:0:0:0:
510,111,46454,2,0,B|511:155|511:155|487:205,1,88.5500001351166,8|8,1:0|1:0,0:0:0:0:
419,261,46916,1,8,0:0:0:0:
390,354,47147,1,8,0:0:0:0:
294,369,47377,6,0,L|206:380,1,88.5500001351166,12|0,0:1|0:0,0:0:0:0:
131,316,47839,2,0,B|42:323|42:323|6:356,2,132.825000202675,8|8|2,0:0|1:0|0:0,0:0:0:0:
211,260,48762,1,8,0:0:0:0:
243,168,48993,1,2,0:0:0:0:
331,127,49223,5,8,1:0:0:0:
390,312,49685,2,0,B|466:358|466:358|533:346,2,132.825000202675,8|8|2,0:0|1:0|0:0,0:0:0:0:
300,349,50608,1,8,0:0:0:0:
234,276,50839,1,2,0:0:0:0:
283,193,51070,6,0,B|293:150|293:150|340:121,1,88.5500001351166,8|2,1:0|0:0,0:0:0:0:
413,75,51531,2,0,B|456:89|456:89|509:168,2,132.825000202675,8|8|8,0:0|0:0|1:0,0:0:0:0:
321,39,52454,1,8,0:0:0:0:
232,79,52685,1,8,1:0:0:0:
161,11,52916,6,0,L|71:1,1,88.5500001351166,8|2,1:0|0:0,0:0:0:0:
4,70,53377,2,0,L|28:156,1,88.5500001351166,8|2,0:0|0:0,0:0:0:0:
123,174,53839,2,0,B|144:213|144:213|142:264,1,88.5500001351166,8|8,1:0|1:0,0:0:0:0:
71,323,54300,1,8,0:0:0:0:
147,383,54531,1,8,0:0:0:0:
234,339,54762,5,12,0:1:0:0:
424,376,55223,2,0,B|469:377|469:377|511:350,1,88.5500001351166,8|0,0:0|0:0,0:0:0:0:
493,256,55685,2,0,B|496:211|496:211|464:160,1,88.5500001351166,2|8,0:0|1:0,0:0:0:0:
375,178,56147,2,0,B|293:144|293:144|257:48,1,177.100000270233,8|8,0:0|1:0,0:0:0:0:
449,7,57070,1,8,0:0:0:0:
497,90,57300,2,0,B|512:132|512:132|503:189,1,88.5500001351166,2|2,0:0|0:0,0:0:0:0:
442,250,57762,1,8,1:0:0:0:
452,346,57993,2,0,B|418:374|418:374|372:374,1,88.5500001351166,8|8,0:0|0:0,0:0:0:0:
287,330,58454,5,8,1:0:0:0:
96,372,58916,2,0,B|53:369|53:369|18:340,1,88.5500001351166,8|0,0:0|0:0,0:0:0:0:
52,248,59377,2,0,B|52:204|52:204|32:164,1,88.5500001351166,2|8,0:0|1:0,0:0:0:0:
5,69,59839,2,0,B|78:19|78:19|174:38,1,177.100000270233,8|8,0:0|1:0,0:0:0:0:
253,210,60762,1,8,0:0:0:0:
228,304,60993,2,0,B|247:344|247:344|302:368,1,88.5500001351166,8|2,1:0|0:0,0:0:0:0:
364,301,61454,1,8,1:0:0:0:
457,329,61685,2,0,B|499:315|499:315|517:258,1,88.5500001351166,8|8,0:0|0:0,0:0:0:0:
507,174,62147,5,4,1:0:0:0:
399,11,62608,2,0,B|356:0|356:0|304:25,1,88.5500001351166,8|0,0:0|0:0,0:0:0:0:
289,113,63070,2,0,B|303:156|303:156|293:210,1,88.5500001351166,2|8,0:0|1:0,0:0:0:0:
238,278,63531,2,0,B|160:322|160:322|68:312,1,177.100000270233,8|8,0:0|1:0,0:0:0:0:
3,130,64454,2,0,B|11:86|11:86|55:58,1,88.5500001351166,8|2,0:0|0:0,0:0:0:0:
143,39,64916,1,2,0:0:0:0:
216,102,65147,2,0,L|322:84,1,88.5500001351166,8|8,0:0|0:0,0:0:0:0:
372,18,65608,1,8,1:0:0:0:
458,62,65839,1,8,1:0:0:0:
508,249,66300,6,0,B|506:293|506:293|472:337,1,88.5500001351166,8|0,0:0|0:0,0:0:0:0:
388,366,66762,2,0,B|345:376|345:376|293:359,1,88.5500001351166,2|8,0:0|1:0,0:0:0:0:
205,368,67223,2,0,B|140:307|140:307|154:218,1,177.100000270233,8|8,0:0|1:0,0:0:0:0:
240,174,67916,1,2,0:0:0:0:
263,79,68147,6,0,L|371:46,1,88.5500001351166,8|2,0:0|0:0,0:0:0:0:
444,61,68608,1,2,0:0:0:0:
496,143,68839,1,8,1:0:0:0:
472,237,69070,2,0,B|445:272|445:272|395:284,1,88.5500001351166,8|8,0:0|0:0,0:0:0:0:
310,249,69531,1,12,0:1:0:0:
256,192,69762,12,2,71377,0:0:0:0:
