osu file format v14

[General]
AudioFilename: audio.mp3
AudioLeadIn: 0
PreviewTime: 7753
Countdown: 0
SampleSet: Soft
StackLeniency: 0.5
Mode: 0
LetterboxInBreaks: 0
WidescreenStoryboard: 1

[Editor]
Bookmarks: 2779,12884,17937,22989,28042,33095,38147,39993,47377,54762,62147,69531
DistanceSpacing: 1
BeatDivisor: 4
GridSize: 32
TimelineZoom: 2.1

[Metadata]
Title:Discomdance
TitleUnicode:ディスコムダンス
Artist:YUKA NAGASE
ArtistUnicode:長瀬有花
Creator:Kudou Chitose
Version:HARD
Source:
Tags:riot music riotmusic vtuber vsinger virtual youtuber singer lonepi japanese pop jpop j-pop female vocals vocalist mrrrk namki
BeatmapID:3347260
BeatmapSetID:1636898

[Difficulty]
HPDrainRate:4
CircleSize:4
OverallDifficulty:6
ApproachRate:8
SliderMultiplier:1.3
SliderTickRate:1

[Events]
//Background and Video events
0,0,"bgYK6.png",0,0
Video,0,"discomdancevd2.m4v"
//Break Periods
//Storyboard Layer 0 (Background)
//Storyboard Layer 1 (Fail)
//Storyboard Layer 2 (Pass)
//Storyboard Layer 3 (Foreground)
//Storyboard Layer 4 (Overlay)
//Storyboard Sound Samples

[TimingPoints]
253,315.789473684211,4,2,1,55,1,0
2779,-83.3333333333333,4,2,1,65,0,0
12884,-100,4,2,1,55,0,0
22989,-83.3333333333333,4,2,1,65,0,0
33095,-83.3333333333333,4,2,1,70,0,0
37516,-100,4,2,1,75,0,0
38147,461.538461538462,4,2,1,55,1,0
38147,-62.111801242236,4,2,1,55,0,0
39070,-62.111801242236,4,2,1,65,0,0
39993,-51.8134715025907,4,2,1,85,0,1
54762,-62.111801242236,4,2,1,75,0,0
71377,-62.111801242236,4,2,1,35,0,0

[Colours]
Combo1 : 69,153,245
Combo2 : 248,196,86
Combo3 : 138,138,138
Combo4 : 218,136,14

[HitObjects]
418,2,253,5,8,1:0:0:0:
512,44,568,1,8,1:0:0:0:
430,108,884,1,8,1:0:0:0:
334,66,1200,1,8,1:0:0:0:
248,7,1516,6,0,P|215:11|170:34,1,65,8|0,1:0|0:0,0:0:0:0:
111,16,1831,2,0,P|90:41|84:90,1,65,8|0,1:0|0:0,0:0:0:0:
132,128,2147,1,8,1:0:0:0:
75,180,2305,1,8,1:0:0:0:
73,187,2384,1,8,1:0:0:0:
71,194,2463,2,0,P|63:224|79:268,1,65,8|8,0:0|0:0,0:0:0:0:
157,289,2779,6,0,P|194:290|229:320,1,77.999997619629,12|0,1:1|0:0,0:0:0:0:
276,372,3095,1,8,0:0:0:0:
353,380,3253,2,0,P|392:374|423:345,1,77.999997619629,2|8,0:0|1:0,0:0:0:0:
404,274,3568,2,0,P|401:237|417:197,1,77.999997619629,2|8,0:0|0:0,0:0:0:0:
484,166,3884,1,2,0:0:0:0:
477,80,4042,6,0,P|488:65|514:51,2,38.9999988098145,8|2|8,1:0|0:0|1:0,0:0:0:0:
462,83,4279,1,8,1:0:0:0:
447,86,4358,2,0,P|413:103|363:96,1,77.999997619629,8|8,0:0|1:0,0:0:0:0:
330,35,4674,1,8,1:0:0:0:
330,35,4831,1,2,0:0:0:0:
252,55,4989,2,0,P|238:91|251:130,1,77.999997619629,8|2,0:0|0:0,0:0:0:0:
319,181,5305,6,0,P|331:254|269:313,1,155.999995239258,8|8,1:0|0:0,0:0:0:0:
207,342,5779,1,2,0:0:0:0:
129,325,5937,2,0,P|95:341|61:388,2,77.999997619629,8|0|8,1:0|0:0|0:0,0:0:0:0:
139,247,6410,1,2,0:0:0:0:
17,76,6726,1,8,1:0:0:0:
14,69,6805,1,8,1:0:0:0:
11,62,6884,2,0,P|36:32|81:23,1,77.999997619629,8|2,0:0|0:0,0:0:0:0:
138,58,7200,2,0,P|172:73|219:60,1,77.999997619629,8|8,1:0|1:0,0:0:0:0:
261,12,7516,2,0,P|279:9|304:17,3,38.9999988098145,8|8|8|8,0:0|1:0|1:0|1:0,0:0:0:0:
319,37,7831,6,0,P|324:75|301:109,1,77.999997619629,12|0,0:1|0:0,0:0:0:0:
234,142,8147,1,8,0:0:0:0:
229,220,8305,2,0,P|258:241|306:240,1,77.999997619629,2|8,0:0|1:0,0:0:0:0:
355,298,8621,2,0,P|347:336|310:368,1,77.999997619629,2|8,0:0|0:0,0:0:0:0:
244,384,8937,1,2,0:0:0:0:
158,352,9095,6,0,P|144:367|135:390,2,38.9999988098145,8|2|8,1:0|0:0|1:0,0:0:0:0:
156,336,9331,1,8,1:0:0:0:
152,321,9410,2,0,P|120:296|78:290,1,77.999997619629,8|8,0:0|1:0,0:0:0:0:
26,239,9726,1,8,1:0:0:0:
26,239,9884,1,2,0:0:0:0:
31,160,10042,2,0,P|66:141|110:145,1,77.999997619629,8|2,0:0|0:0,0:0:0:0:
170,196,10358,6,0,P|243:203|305:133,1,155.999995239258,8|8,1:0|0:0,0:0:0:0:
284,74,10831,1,2,0:0:0:0:
339,17,10989,2,0,P|374:1|426:8,2,77.999997619629,8|2|8,1:0|0:0|0:0,0:0:0:0:
356,92,11463,1,2,0:0:0:0:
505,259,11779,1,8,1:0:0:0:
509,267,11858,1,8,1:0:0:0:
512,275,11937,2,0,P|506:313|481:343,1,77.999997619629,8|2,0:0|0:0,0:0:0:0:
404,347,12253,1,8,1:0:0:0:
395,345,12331,1,8,1:0:0:0:
386,344,12410,2,0,P|365:350|352:362,2,38.9999988098145,8|8|8,1:0|1:0|0:0,0:0:0:0:
321,350,12647,2,0,P|310:366|296:379,2,38.9999988098145,8|8|8,1:0|1:0|1:0,0:0:0:0:
262,359,12884,6,0,P|202:341|177:278,1,130,12|2,0:1|0:0,0:0:0:0:
232,225,13358,1,2,0:0:0:0:
232,225,13516,2,0,P|247:193|241:146,1,65,8|2,1:0|0:0,0:0:0:0:
174,145,13831,1,8,1:0:0:0:
174,145,13989,2,0,P|135:97|161:38,1,130,2|8,0:0|1:0,0:0:0:0:
228,1,14463,1,8,1:0:0:0:
367,156,14779,2,0,P|396:168|433:164,1,65,8|2,1:0|0:0,0:0:0:0:
457,93,15095,2,0,P|484:73|495:36,2,65,8|2|8,1:0|0:0|1:0,0:0:0:0:
329,335,15726,5,2,0:0:0:0:
334,340,15884,1,2,0:0:0:0:
405,376,16042,2,0,P|436:378|472:357,2,65,8|2|8,1:0|0:0|1:0,0:0:0:0:
417,298,16516,2,0,P|424:265|408:220,1,65,2|2,0:0|0:0,0:0:0:0:
378,157,16831,1,2,0:0:0:0:
367,154,16989,2,0,P|344:175|339:214,2,65,8|2|2,1:0|0:0|0:0,0:0:0:0:
310,82,17463,1,2,0:0:0:0:
300,78,17621,2,0,P|272:92|257:128,1,65,8|8,1:0|1:0,0:0:0:0:
174,144,17937,6,0,P|113:134|101:53,1,130,4|2,1:0|0:0,0:0:0:0:
30,29,18410,1,2,0:0:0:0:
30,29,18568,2,0,P|15:56|15:99,1,65,8|2,1:0|0:0,0:0:0:0:
43,169,18884,1,8,1:0:0:0:
43,169,19042,2,0,P|74:226|56:295,1,130,2|2,0:0|0:0,0:0:0:0:
0,331,19516,1,8,1:0:0:0:
197,227,19831,2,0,P|225:245|248:290,1,65,8|2,1:0|0:0,0:0:0:0:
320,281,20147,2,0,P|318:312|291:351,2,65,8|2|8,1:0|0:0|1:0,0:0:0:0:
234,71,20779,5,8,1:0:0:0:
236,64,20937,1,2,0:0:0:0:
300,24,21095,2,0,P|332:20|366:29,2,65,8|2|8,1:0|0:0|1:0,0:0:0:0:
327,99,21568,1,2,0:0:0:0:
485,238,21884,2,0,P|496:268|496:303,2,65,2|8|8,0:0|1:0|1:0,0:0:0:0:
406,239,22358,1,8,1:0:0:0:
345,189,22516,1,8,0:0:0:0:
343,182,22595,1,8,0:0:0:0:
341,175,22674,2,0,P|338:161|347:129,3,32.5,8|8|8|8,0:0|1:0|1:0|1:0,0:0:0:0:
350,107,22989,6,0,P|319:40|235:25,1,155.999995239258,12|8,0:1|0:0,0:0:0:0:
176,58,23463,1,2,0:0:0:0:
170,132,23621,2,0,P|155:167|124:191,1,77.999997619629,8|2,1:0|0:0,0:0:0:0:
48,174,23937,1,8,0:0:0:0:
48,174,24095,2,0,P|26:206|22:253,1,77.999997619629,2|8,0:0|1:0,0:0:0:0:
33,322,24410,1,2,0:0:0:0:
107,343,24568,2,0,P|140:324|185:323,1,77.999997619629,8|2,0:0|0:0,0:0:0:0:
253,358,24884,1,8,1:0:0:0:
253,358,25042,1,2,0:0:0:0:
321,314,25200,2,0,P|329:277|313:242,1,77.999997619629,8|8,0:0|1:0,0:0:0:0:
236,220,25516,6,0,P|182:167|194:85,1,155.999995239258,8|8,1:0|0:0,0:0:0:0:
267,73,25989,1,2,0:0:0:0:
267,73,26147,2,0,P|304:62|331:28,1,77.999997619629,8|8,1:0|1:0,0:0:0:0:
413,31,26463,1,8,0:0:0:0:
413,31,26621,2,0,P|447:47|475:80,1,77.999997619629,2|8,0:0|1:0,0:0:0:0:
425,149,26937,1,2,0:0:0:0:
424,160,27095,2,0,P|394:183|345:181,2,77.999997619629,8|2|8,0:0|0:0|1:0,0:0:0:0:
497,209,27568,1,2,0:0:0:0:
498,219,27726,2,0,P|476:251|476:297,1,77.999997619629,8|2,0:0|0:0,0:0:0:0:
420,358,28042,6,0,P|349:373|291:320,1,155.999995239258,12|8,0:1|0:0,0:0:0:0:
311,244,28516,1,2,0:0:0:0:
247,196,28674,2,0,P|219:168|211:117,1,77.999997619629,8|2,1:0|0:0,0:0:0:0:
261,71,28989,1,8,0:0:0:0:
261,71,29147,2,0,P|294:53|332:56,1,77.999997619629,2|8,0:0|1:0,0:0:0:0:
409,31,29463,1,2,0:0:0:0:
472,80,29621,2,0,P|482:117|459:160,1,77.999997619629,8|2,0:0|0:0,0:0:0:0:
403,198,29937,1,8,1:0:0:0:
403,198,30095,1,2,0:0:0:0:
323,185,30253,2,0,P|290:207|279:255,1,77.999997619629,8|8,0:0|1:0,0:0:0:0:
288,331,30568,6,0,P|232:368|151:342,1,155.999995239258,8|8,1:0|0:0,0:0:0:0:
80,318,31042,1,2,0:0:0:0:
80,318,31200,2,0,P|66:280|73:238,1,77.999997619629,8|8,1:0|1:0,0:0:0:0:
123,183,31516,1,8,0:0:0:0:
123,183,31674,2,0,P|113:145|83:114,1,77.999997619629,8|2,1:0|0:0,0:0:0:0:
16,84,31989,1,8,1:0:0:0:
45,11,32147,1,8,0:0:0:0:
122,5,32305,1,8,1:0:0:0:
183,53,32463,2,0,P|198:66|208:99,3,38.9999988098145,8|8|8|8,1:0|1:0|1:0|1:0,0:0:0:0:
232,100,32779,2,0,P|237:120|234:142,3,38.9999988098145,8|8|8|8,0:0|1:0|1:0|1:0,0:0:0:0:
250,167,33095,6,0,P|219:226|137:226,1,155.999995239258,12|8,0:1|0:0,0:0:0:0:
55,198,33568,1,2,0:0:0:0:
4,270,33726,2,0,P|29:344|123:355,1,155.999995239258,8|8,1:0|0:0,0:0:0:0:
165,306,34200,1,2,0:0:0:0:
165,306,34358,2,0,P|202:301|243:320,1,77.999997619629,8|2,1:0|0:0,0:0:0:0:
324,364,34674,2,0,P|361:371|404:360,1,77.999997619629,8|8,0:0|1:0,0:0:0:0:
417,278,34989,5,8,1:0:0:0:
417,278,35147,1,8,1:0:0:0:
486,222,35305,2,0,P|506:190|500:140,1,77.999997619629,8|8,0:0|1:0,0:0:0:0:
502,70,35621,2,0,P|470:47|424:46,1,77.999997619629,8|2,1:0|0:0,0:0:0:0:
386,111,35937,2,0,P|350:125|307:108,1,77.999997619629,8|2,0:0|0:0,0:0:0:0:
247,56,36253,2,0,P|213:34|168:29,2,77.999997619629,8|2|8,1:0|0:0|0:0,0:0:0:0:
230,142,36726,1,2,0:0:0:0:
160,196,36884,5,8,0:0:0:0:
160,196,37042,1,8,1:0:0:0:
196,290,37200,1,8,0:0:0:0:
196,290,37358,1,8,1:0:0:0:
289,324,37516,1,8,0:0:0:0:
295,327,37595,1,8,1:0:0:0:
301,331,37674,2,0,P|312:340|329:359,2,32.5,8|8|8,1:0|1:0|0:0,0:0:0:0:
315,257,37989,1,8,1:0:0:0:
385,232,38147,6,0,B|432:209|432:209|440:152,1,104.650000159683,8|2,1:0|0:0,0:0:0:0:
414,123,38493,1,2,0:0:0:0:
414,123,38608,2,0,B|427:101|427:101|459:91,2,52.3250000798416,8|2|2,0:0|0:0|0:0,0:0:0:0:
319,99,39070,6,0,B|272:82|272:82|245:26,1,104.650000159683,8|8,0:0|1:0,0:0:0:0:
217,29,39416,2,0,B|167:19|167:19|115:45,1,104.650000159683,8|8,0:0|1:0,0:0:0:0:
110,75,39762,2,0,L|139:136,1,52.3250000798416,8|8,0:0|1:0,0:0:0:0:
122,158,39993,5,12,0:1:0:0:
33,200,40223,1,2,0:0:0:0:
30,299,40454,2,0,B|52:357|52:357|117:385,1,125.449996985111,8|2,0:0|0:0,0:0:0:0:
150,359,40800,1,8,1:0:0:0:
150,359,40916,2,0,L|154:296,2,62.7249984925557,2|8|2,0:0|1:0|0:0,0:0:0:0:
190,369,41262,1,2,0:0:0:0:
201,364,41377,1,8,0:0:0:0:
211,359,41493,1,2,0:0:0:0:
221,354,41608,2,0,L|247:281,1,62.7249984925557,2|8,0:0|1:0,0:0:0:0:
233,251,41839,6,0,B|182:215|182:215|170:150,1,125.449996985111,8|0,1:0|0:0,0:0:0:0:
154,58,42300,2,0,B|194:9|194:9|262:0,1,125.449996985111,8|2,0:0|0:0,0:0:0:0:
293,26,42647,1,8,1:0:0:0:
391,17,42877,1,8,1:0:0:0:
396,13,42993,2,0,B|427:10|427:10|458:27,1,62.7249984925557,2|2,0:0|0:0,0:0:0:0:
490,56,43223,2,0,B|490:87|490:87|469:117,1,62.7249984925557,8|2,0:0|0:0,0:0:0:0:
431,124,43454,1,2,0:0:0:0:
425,134,43570,1,8,1:0:0:0:
420,143,43685,6,0,B|407:172|407:172|416:208,1,62.7249984925557,8|2,1:0|0:0,0:0:0:0:
450,229,43916,1,8,1:0:0:0:
512,306,44147,2,0,B|480:358|480:358|413:379,1,125.449996985111,8|8,0:0|1:0,0:0:0:0:
390,361,44493,1,8,0:0:0:0:
390,361,44608,2,0,L|322:352,1,62.7249984925557,2|8,0:0|1:0,0:0:0:0:
300,373,44839,1,8,1:0:0:0:
195,364,45070,1,8,0:0:0:0:
188,359,45185,1,8,1:0:0:0:
182,354,45300,2,0,L|126:321,1,62.7249984925557,8|8,1:0|1:0,0:0:0:0:
97,344,45531,6,0,B|34:335|34:335|-2:282,1,125.449996985111,8|2,1:0|0:0,0:0:0:0:
73,207,45993,2,0,B|123:166|123:166|128:106,1,125.449996985111,8|2,0:0|0:0,0:0:0:0:
100,86,46339,1,2,0:0:0:0:
100,86,46454,2,0,B|95:55|95:55|117:17,1,62.7249984925557,8|2,1:0|0:0,0:0:0:0:
144,8,46685,2,0,L|209:27,1,62.7249984925557,8|8,1:0|1:0,0:0:0:0:
228,54,46916,1,8,0:0:0:0:
236,60,47031,1,8,1:0:0:0:
244,65,47147,2,0,L|257:133,1,62.7249984925557,8|8,0:0|1:0,0:0:0:0:
287,149,47377,5,12,0:1:0:0:
220,221,47608,1,0,0:0:0:0:
225,320,47839,2,0,B|273:362|273:362|347:373,1,125.449996985111,8|2,0:0|0:0,0:0:0:0:
371,342,48185,1,8,1:0:0:0:
371,342,48300,2,0,L|435:366,2,62.7249984925557,2|8|2,0:0|1:0|0:0,0:0:0:0:
363,300,48647,1,2,0:0:0:0:
367,292,48762,1,8,0:0:0:0:
371,285,48877,1,2,0:0:0:0:
375,279,48993,2,0,L|401:213,1,62.7249984925557,2|8,0:0|1:0,0:0:0:0:
425,201,49223,5,8,1:0:0:0:
476,117,49454,1,8,1:0:0:0:
401,53,49685,2,0,B|342:78|342:78|263:64,1,125.449996985111,8|2,0:0|0:0,0:0:0:0:
254,37,50031,1,8,1:0:0:0:
163,0,50262,1,8,1:0:0:0:
156,3,50377,2,0,B|129:19|129:19|96:16,1,62.7249984925557,2|2,0:0|0:0,0:0:0:0:
54,26,50608,2,0,B|45:56|45:56|61:96,1,62.7249984925557,8|2,0:0|0:0,0:0:0:0:
96,105,50839,1,2,0:0:0:0:
99,112,50954,1,8,0:0:0:0:
101,119,51070,6,0,B|98:150|98:150|69:186,1,62.7249984925557,8|0,1:0|0:0,0:0:0:0:
34,192,51300,1,2,0:0:0:0:
2,286,51531,2,0,B|42:335|42:335|105:345,1,125.449996985111,8|2,0:0|0:0,0:0:0:0:
129,317,51877,1,8,0:0:0:0:
129,317,51993,2,0,L|196:310,1,62.7249984925557,0|8,0:0|1:0,0:0:0:0:
224,341,52223,1,8,1:0:0:0:
307,290,52454,1,8,0:0:0:0:
313,295,52570,1,8,1:0:0:0:
319,299,52685,2,0,L|372:340,1,62.7249984925557,8|8,1:0|1:0,0:0:0:0:
390,375,52916,6,0,B|449:356|449:356|495:300,1,125.449996985111,8|2,1:0|0:0,0:0:0:0:
476,280,53262,1,2,0:0:0:0:
476,280,53377,2,0,B|446:224|446:224|466:163,1,125.449996985111,8|2,0:0|0:0,0:0:0:0:
485,140,53723,1,2,0:0:0:0:
485,140,53839,2,0,B|475:112|475:112|431:90,1,62.7249984925557,8|2,1:0|0:0,0:0:0:0:
414,96,54070,2,0,L|354:126,1,62.7249984925557,8|8,1:0|1:0,0:0:0:0:
348,152,54300,1,8,0:0:0:0:
352,160,54416,1,8,1:0:0:0:
356,168,54531,2,0,B|321:233,1,62.7249984925557,8|8,0:0|1:0,0:0:0:0:
297,233,54762,5,12,0:1:0:0:
269,327,54993,1,2,0:0:0:0:
269,327,55108,2,0,B|248:342|248:342|212:344,1,52.3250000798416,2|8,0:0|0:0,0:0:0:0:
192,331,55339,1,8,1:0:0:0:
113,272,55570,1,8,1:0:0:0:
113,272,55685,2,0,L|133:216,1,52.3250000798416,2|2,0:0|0:0,0:0:0:0:
109,198,55916,2,0,B|94:176|94:176|91:140,1,52.3250000798416,8|2,1:0|0:0,0:0:0:0:
66,135,56147,5,8,0:0:0:0:
60,130,56262,1,2,0:0:0:0:
54,125,56377,2,0,B|56:99|56:99|85:75,1,52.3250000798416,8|8,1:0|1:0,0:0:0:0:
87,56,56608,1,8,1:0:0:0:
184,7,56839,2,0,L|239:24,1,52.3250000798416,2|2,0:0|0:0,0:0:0:0:
251,50,57070,1,8,0:0:0:0:
258,54,57185,1,2,0:0:0:0:
265,58,57300,2,0,B|288:70|288:70|328:66,1,52.3250000798416,2|8,0:0|1:0,0:0:0:0:
338,40,57531,5,2,0:0:0:0:
443,7,57762,1,8,1:0:0:0:
449,13,57877,1,2,0:0:0:0:
455,18,57993,2,0,B|473:37|473:37|477:69,1,52.3250000798416,8|8,0:0|1:0,0:0:0:0:
501,84,58223,2,0,B|507:109|507:109|494:139,1,52.3250000798416,8|8,0:0|1:0,0:0:0:0:
471,155,58454,5,8,1:0:0:0:
360,151,58685,1,2,0:0:0:0:
360,151,58800,2,0,L|297:129,1,52.3250000798416,2|8,0:0|0:0,0:0:0:0:
282,149,59031,1,8,1:0:0:0:
173,114,59262,1,8,1:0:0:0:
173,114,59377,2,0,L|116:129,1,52.3250000798416,2|2,0:0|0:0,0:0:0:0:
100,147,59608,2,0,B|87:170|87:170|86:220,1,52.3250000798416,8|2,1:0|0:0,0:0:0:0:
63,215,59839,5,8,0:0:0:0:
57,221,59954,1,2,0:0:0:0:
51,227,60070,2,0,B|35:249|35:249|31:288,1,52.3250000798416,8|8,1:0|1:0,0:0:0:0:
9,295,60300,1,8,1:0:0:0:
97,378,60531,2,0,L|154:385,1,52.3250000798416,0|2,0:0|0:0,0:0:0:0:
173,365,60762,1,8,0:0:0:0:
179,360,60877,1,2,0:0:0:0:
185,355,60993,2,0,B|206:341|206:341|253:345,1,52.3250000798416,8|8,1:0|1:0,0:0:0:0:
257,367,61223,5,2,0:0:0:0:
368,384,61454,1,8,1:0:0:0:
376,383,61570,1,8,1:0:0:0:
384,382,61685,2,0,B|410:379|410:379|436:356,1,52.3250000798416,8|8,0:0|1:0,0:0:0:0:
461,365,61916,2,0,B|483:350|483:350|495:320,1,52.3250000798416,8|8,0:0|1:0,0:0:0:0:
481,294,62147,5,4,1:0:0:0:
446,189,62377,1,2,0:0:0:0:
446,189,62493,2,0,B|451:163|451:163|481:138,1,52.3250000798416,2|8,0:0|0:0,0:0:0:0:
504,139,62723,1,8,1:0:0:0:
474,24,62954,1,8,1:0:0:0:
474,24,63070,2,0,L|424:11,1,52.3250000798416,2|2,0:0|0:0,0:0:0:0:
397,26,63300,2,0,B|385:49|385:49|358:64,1,52.3250000798416,8|2,1:0|0:0,0:0:0:0:
325,52,63531,5,8,0:0:0:0:
320,57,63647,1,2,0:0:0:0:
315,62,63762,2,0,B|302:84|302:84|307:118,1,52.3250000798416,8|8,1:0|1:0,0:0:0:0:
291,134,63993,1,8,1:0:0:0:
246,241,64223,2,0,L|196:263,1,52.3250000798416,2|2,0:0|0:0,0:0:0:0:
174,252,64454,1,8,0:0:0:0:
167,248,64570,1,2,0:0:0:0:
161,242,64685,2,0,B|140:227|140:227|107:229,1,52.3250000798416,2|8,0:0|1:0,0:0:0:0:
83,240,64916,5,2,0:0:0:0:
6,172,65147,1,8,0:0:0:0:
9,159,65262,1,2,0:0:0:0:
12,147,65377,2,0,B|24:124|24:124|56:106,1,52.3250000798416,8|2,0:0|0:0,0:0:0:0:
59,80,65608,2,0,B|82:69|82:69|103:39,1,52.3250000798416,8|8,1:0|1:0,0:0:0:0:
95,8,65839,5,8,1:0:0:0:
211,0,66070,1,2,0:0:0:0:
211,0,66185,2,0,L|234:55,1,52.3250000798416,2|8,0:0|0:0,0:0:0:0:
219,78,66416,1,8,1:0:0:0:
141,139,66647,1,8,1:0:0:0:
141,139,66762,2,0,L|137:202,1,52.3250000798416,2|2,0:0|0:0,0:0:0:0:
157,211,66993,6,0,B|170:234|170:234|209:251,1,52.3250000798416,8|2,1:0|0:0,0:0:0:0:
213,276,67223,1,8,0:0:0:0:
220,279,67339,1,2,0:0:0:0:
227,281,67454,2,0,B|252:289|252:289|288:279,1,52.3250000798416,8|8,1:0|1:0,0:0:0:0:
311,294,67685,2,0,B|347:257|347:257|412:245,1,104.650000159683,8|2,1:0|0:0,0:0:0:0:
506,181,68147,6,0,B|497:132|497:132|457:93,1,104.650000159683,8|2,0:0|0:0,0:0:0:0:
431,92,68493,1,8,1:0:0:0:
431,92,68608,2,0,B|391:126|391:126|320:132,1,104.650000159683,2|8,0:0|1:0,0:0:0:0:
278,53,69070,1,8,0:0:0:0:
275,47,69185,1,8,1:0:0:0:
271,41,69300,2,0,B|255:22|255:22|222:9,1,52.3250000798416,8|8,0:0|1:0,0:0:0:0:
196,25,69531,1,12,0:1:0:0:
256,192,69647,12,2,71377,0:0:0:0:
