osu file format v14

[General]
AudioFilename: audio.mp3
AudioLeadIn: 0
PreviewTime: 218338
Countdown: 0
SampleSet: Soft
StackLeniency: 0.5
Mode: 0
LetterboxInBreaks: 0
WidescreenStoryboard: 1

[Editor]
Bookmarks: 16881,30896,44910,58925,72939,86954,100969,114983,128998,143012,157027,171042,185056,199071,211334,218341,228852,239360,249871,262133,273520,286662,300677,314691
DistanceSpacing: 0.8
BeatDivisor: 6
GridSize: 4
TimelineZoom: 2.2

[Metadata]
Title:Binetsuen
TitleUnicode:微熱煙
Artist:YUKA NAGASE
ArtistUnicode:長瀬有花
Creator:Kudou Chitose
Version:Seek
Source:
Tags:vtuber vsinger virtual youtuber singer riot music female japanese rock jrock j-rock mrrrk
BeatmapID:3796038
BeatmapSetID:1847928

[Difficulty]
HPDrainRate:6
CircleSize:3.5
OverallDifficulty:8.5
ApproachRate:9
SliderMultiplier:1.8
SliderTickRate:1

[Events]
//Background and Video events
0,0,"FVnHacHaIAEngj2.jpg",0,0
//Break Periods
//Storyboard Layer 0 (Background)
//Storyboard Layer 1 (Fail)
//Storyboard Layer 2 (Pass)
//Storyboard Layer 3 (Foreground)
//Storyboard Layer 4 (Overlay)
//Storyboard Sound Samples

[TimingPoints]
1112,437.956204379562,4,2,1,50,1,0
2863,-200,4,2,1,50,0,0
16659,-200,4,2,1,60,0,0
16878,-125,4,2,1,60,0,0
19506,-400,4,2,1,60,0,0
20382,-125,4,2,1,60,0,0
23009,-400,4,2,1,50,0,0
23885,-125,4,2,1,60,0,0
26513,-400,4,2,1,60,0,0
27389,-125,4,2,1,60,0,0
29141,-400,4,2,1,60,0,0
30893,-83.3333333333333,4,2,1,70,0,0
31330,-125,4,2,1,70,0,0
32644,-166.666666666667,4,2,1,70,0,0
34396,-83.3333333333334,4,2,1,70,0,0
34834,-125,4,2,1,70,0,0
36148,-166.666666666667,4,2,1,70,0,0
37900,-83.3333333333334,4,2,1,70,0,0
38338,-125,4,2,1,70,0,0
39652,-166.666666666667,4,2,1,70,0,0
41403,-83.3333333333334,4,2,1,70,0,0
41841,-125,4,2,1,70,0,0
43155,-166.666666666667,4,2,1,70,0,0
44907,-100,4,2,1,65,0,0
45783,-125,4,2,1,65,0,0
47535,-200,4,2,1,65,0,0
48411,-100,4,2,1,65,0,0
49287,-125,4,2,1,65,0,0
51039,-200,4,2,1,65,0,0
51914,-100,4,2,1,65,0,0
52352,-125,4,2,1,65,0,0
54542,-200,4,2,1,65,0,0
55418,-100,4,2,1,65,0,0
56294,-125,4,2,1,65,0,0
57170,-200,4,2,1,65,0,0
58484,-100,4,2,1,65,0,0
58922,-66.6666666666667,4,2,1,75,0,0
60455,-83.3333333333333,4,2,1,75,0,0
62425,-66.6666666666667,4,2,1,75,0,0
63958,-83.3333333333333,4,2,1,75,0,0
65929,-66.6666666666667,4,2,1,75,0,0
67462,-83.3333333333333,4,2,1,75,0,0
69433,-66.6666666666667,4,2,1,75,0,0
70966,-83.3333333333333,4,2,1,75,0,0
72936,-66.6666666666667,4,2,1,75,0,0
74469,-83.3333333333333,4,2,1,75,0,0
76440,-66.6666666666667,4,2,1,75,0,0
77973,-83.3333333333333,4,2,1,75,0,0
79944,-66.6666666666667,4,2,1,75,0,0
81695,-66.6666666666667,4,2,1,80,0,0
85199,-58.8235294117647,4,2,1,80,0,0
86075,-100,4,2,1,80,0,0
86951,-200,4,2,1,60,0,0
94615,-200,4,2,1,5,0,0
95491,-200,4,2,1,60,0,0
100090,-125,4,2,1,70,0,0
100966,-83.3333333333333,4,2,1,80,0,0
107973,-100,4,2,1,80,0,0
111476,-200,4,2,1,60,0,0
113666,-200,4,2,1,70,0,0
114980,-125,4,2,1,70,0,0
128995,-100,4,2,1,70,0,0
140820,-125,4,2,1,70,0,0
143009,-83.3333333333333,4,2,1,75,0,0
150017,-66.6666666666667,4,2,1,80,0,0
156148,-142.857142857143,4,2,1,80,0,0
157024,-55.5555555555556,4,2,1,90,0,1
164469,-62.5,4,2,1,90,0,1
167535,-55.5555555555556,4,2,1,90,0,1
168411,-66.6666666666667,4,2,1,90,0,1
169287,-83.3333333333333,4,2,1,90,0,1
170163,-66.6666666666667,4,2,1,90,0,1
171039,-66.6666666666667,4,2,1,85,0,0
172352,-83.3333333333333,4,2,1,85,0,0
181549,-200,4,2,1,75,0,0
184177,-58.8235294117647,4,2,1,85,0,1
184998,-66.6666666666667,4,2,1,5,0,1
185053,-50,4,2,1,90,0,1
185217,-50,4,2,1,5,0,1
185272,-50,4,2,1,90,0,1
185436,-50,4,2,1,5,0,1
185491,-50,4,2,1,90,0,1
185655,-50,4,2,1,5,0,1
185710,-50,4,2,1,90,0,1
185874,-50,4,2,1,5,0,1
185929,-58.8235294117647,4,2,1,90,0,1
186093,-58.8235294117647,4,2,1,5,0,1
186148,-58.8235294117647,4,2,1,90,0,1
186312,-58.8235294117647,4,2,1,5,0,1
186367,-66.6666666666667,4,2,1,90,0,1
186531,-66.6666666666667,4,2,1,5,0,1
186586,-66.6666666666667,4,2,1,90,0,1
186750,-66.6666666666667,4,2,1,5,0,1
186805,-76.9230769230769,4,2,1,90,0,1
186969,-76.9230769230769,4,2,1,5,0,1
187024,-76.9230769230769,4,2,1,90,0,1
187188,-76.9230769230769,4,2,1,5,0,1
187243,-90.9090909090909,4,2,1,90,0,1
187407,-90.9090909090909,4,2,1,5,0,1
187462,-90.9090909090909,4,2,1,90,0,1
187626,-90.9090909090909,4,2,1,5,0,1
187681,-111.111111111111,4,2,1,90,0,1
187845,-111.111111111111,4,2,1,5,0,1
187900,-111.111111111111,4,2,1,90,0,1
188064,-111.111111111111,4,2,1,5,0,1
188119,-111.111111111111,4,2,1,90,0,1
188283,-111.111111111111,4,2,1,5,0,1
188338,-111.111111111111,4,2,1,90,0,1
188502,-111.111111111111,4,2,1,5,0,1
188557,-142.857142857143,4,2,1,90,0,1
190309,-50,4,2,1,90,0,1
192060,-111.111111111111,4,2,1,90,0,1
192225,-111.111111111111,4,2,1,5,0,1
192279,-111.111111111111,4,2,1,90,0,1
192444,-111.111111111111,4,2,1,5,0,1
192498,-111.111111111111,4,2,1,90,0,1
192663,-111.111111111111,4,2,1,5,0,1
192717,-111.111111111111,4,2,1,90,0,1
192882,-111.111111111111,4,2,1,5,0,1
192936,-90.9090909090909,4,2,1,90,0,1
193101,-90.9090909090909,4,2,1,5,0,1
193155,-90.9090909090909,4,2,1,90,0,1
193320,-90.9090909090909,4,2,1,5,0,1
193374,-76.9230769230769,4,2,1,90,0,1
193539,-76.9230769230769,4,2,1,5,0,1
193593,-76.9230769230769,4,2,1,90,0,1
193757,-76.9230769230769,4,2,1,5,0,1
193812,-66.6666666666667,4,2,1,90,0,1
193976,-66.6666666666667,4,2,1,5,0,1
194031,-66.6666666666667,4,2,1,90,0,1
194195,-66.6666666666667,4,2,1,5,0,1
194250,-66.6666666666667,4,2,1,90,0,1
194414,-66.6666666666667,4,2,1,5,0,1
194469,-66.6666666666667,4,2,1,90,0,1
194633,-66.6666666666667,4,2,1,5,0,1
194688,-58.8235294117647,4,2,1,90,0,1
194852,-58.8235294117647,4,2,1,5,0,1
194907,-58.8235294117647,4,2,1,90,0,1
195071,-58.8235294117647,4,2,1,5,0,1
195126,-58.8235294117647,4,2,1,90,0,1
195290,-58.8235294117647,4,2,1,5,0,1
195345,-58.8235294117647,4,2,1,90,0,1
195509,-58.8235294117647,4,2,1,5,0,1
195564,-52.6315789473684,4,2,1,90,0,1
195728,-52.6315789473684,4,2,1,5,0,1
195783,-52.6315789473684,4,2,1,90,0,1
195947,-52.6315789473684,4,2,1,5,0,1
196002,-47.6190476190476,4,2,1,90,0,1
196166,-47.6190476190476,4,2,1,5,0,1
196221,-47.6190476190476,4,2,1,90,0,1
196385,-47.6190476190476,4,2,1,5,0,1
196440,-43.4782608695652,4,2,1,90,0,1
196604,-43.4782608695652,4,2,1,5,0,1
196659,-43.4782608695652,4,2,1,90,0,1
196823,-43.4782608695652,4,2,1,5,0,1
196878,-40,4,2,1,90,0,1
197042,-40,4,2,1,5,0,1
197097,-40,4,2,1,90,0,1
199068,-66.6666666666667,4,2,1,90,0,1
207827,-50,4,2,1,90,0,1
209579,-66.6666666666667,4,2,1,90,0,1
211330,-66.6666666666667,4,2,1,95,0,1
218338,-200,4,2,1,60,0,0
227973,-200,4,2,1,70,0,0
228849,-100,4,2,1,80,0,0
239360,-83.3333333333333,4,2,1,80,0,0
249871,-76.9230769230769,4,2,1,85,0,0
252936,-62.5,4,2,1,85,0,0
253374,-76.9230769230769,4,2,1,85,0,0
255126,-62.5,4,2,1,85,0,0
256002,-55.5555555555556,4,2,1,85,0,0
256878,-62.5,4,2,1,85,0,0
258630,-76.9230769230769,4,2,1,85,0,0
262133,-66.6666666666667,4,2,1,90,0,1
267389,-55.5555555555556,4,2,1,90,0,1
267827,-66.6666666666667,4,2,1,90,0,1
273520,-50,4,2,1,90,0,1
274396,-100,4,2,1,90,0,1
275272,-66.6666666666667,4,2,1,90,0,1
280966,-55.5555555555556,4,2,1,90,0,1
283155,-200,4,2,1,75,0,0
284469,-333.333333333333,4,2,1,65,0,0
286659,-125,4,2,1,70,0,0
300674,-125,4,2,1,60,0,0
303301,-400,4,2,1,60,0,0
304177,-125,4,2,1,60,0,0
306805,-400,4,2,1,60,0,0
307681,-125,4,2,1,60,0,0
310309,-400,4,2,1,60,0,0
311184,-125,4,2,1,60,0,0
312936,-400,4,2,1,60,0,0
314250,-200,4,2,1,60,0,0
314469,-200,4,2,1,5,0,0

[Colours]
Combo1 : 69,153,245
Combo2 : 248,196,86
Combo3 : 138,138,138
Combo4 : 218,136,14

[HitObjects]
511,354,2863,6,0,P|492:343|469:342,1,45,2|0,0:0|0:0,0:0:0:0:
479,384,3301,2,0,P|498:373|510:353,1,45,2|0,0:0|0:0,0:0:0:0:
469,341,3739,2,0,P|468:362|479:383,1,45,2|0,0:0|0:0,0:0:0:0:
487,358,4177,5,2,0:0:0:0:
469,341,4396,1,2,0:0:0:0:
376,341,4615,6,0,P|356:351|344:371,1,45,2|0,0:0|0:0,0:0:0:0:
385,383,5053,2,0,P|385:361|374:340,1,45,2|0,0:0|0:0,0:0:0:0:
344,371,5491,2,0,P|362:381|385:383,1,45,2|0,0:0|0:0,0:0:0:0:
367,363,5929,5,2,0:0:0:0:
344,371,6148,1,2,0:0:0:0:
262,284,6367,6,0,P|261:305|272:326,1,45,2|0,0:0|0:0,0:0:0:0:
302,297,6805,2,0,P|283:285|260:285,1,45,2|0,0:0|0:0,0:0:0:0:
272,326,7243,2,0,P|291:315|303:295,1,45,2|0,0:0|0:0,0:0:0:0:
276,302,7681,5,2,0:0:0:0:
272,326,7900,1,2,0:0:0:0:
154,361,8119,6,0,P|172:372|195:373,1,45,2|0,0:0|0:0,0:0:0:0:
185,332,8557,2,0,P|165:342|153:362,1,45,2|0,0:0|0:0,0:0:0:0:
195,373,8995,2,0,P|195:351|184:330,1,45,2|0,0:0|0:0,0:0:0:0:
176,357,9433,5,2,0:0:0:0:
195,373,9652,1,2,0:0:0:0:
110,287,9871,6,0,P|110:268|119:242,1,45,2|0,0:0|0:0,0:0:0:0:
76,258,10309,2,0,P|92:267|110:288,1,45,2|0,0:0|0:0,0:0:0:0:
118,243,10747,2,0,P|101:252|74:257,1,45,2|0,0:0|0:0,0:0:0:0:
102,262,11184,5,2,0:0:0:0:
118,243,11403,1,2,0:0:0:0:
236,264,11622,6,0,P|219:254|201:233,1,45,2|0,0:0|0:0,0:0:0:0:
193,278,12060,2,0,P|209:268|236:263,1,45,2|0,0:0|0:0,0:0:0:0:
202,235,12498,2,0,P|202:254|192:279,1,45,2|0,0:0|0:0,0:0:0:0:
210,258,12935,5,2,0:0:0:0:
202,235,13154,1,2,0:0:0:0:
279,144,13374,6,0,P|262:153|235:158,1,45,2|0,0:0|0:0,0:0:0:0:
270,187,13812,2,0,P|270:168|279:142,1,45,2|0,0:0|0:0,0:0:0:0:
237,158,14250,2,0,P|253:167|271:188,1,45,2|0,0:0|0:0,0:0:0:0:
260,163,14687,5,2,0:0:0:0:
237,158,14907,1,2,0:0:0:0:
200,46,15126,6,0,P|199:64|191:90,1,45,2|0,0:0|0:0,0:0:0:0:
233,74,15564,2,0,P|216:64|198:43,1,45,2|0,0:0|0:0,0:0:0:0:
191,89,16002,1,2,0:0:0:0:
211,79,16111,1,2,0:0:0:0:
233,74,16221,1,2,0:0:0:0:
237,158,16440,5,2,0:0:0:0:
129,209,16659,1,2,0:0:0:0:
97,102,16878,6,0,P|107:136|96:181,1,72,2|0,0:0|0:0,0:0:0:0:
50,290,17316,2,0,P|74:264|118:251,1,72,2|0,0:0|0:0,0:0:0:0:
174,307,17754,1,2,0:0:0:0:
174,307,17973,1,2,0:0:0:0:
237,237,18192,6,0,P|202:228|169:196,1,72,2|2,0:0|0:0,0:0:0:0:
100,171,18630,1,2,0:0:0:0:
175,205,18849,1,2,0:0:0:0:
108,252,19068,1,2,0:0:0:0:
167,124,19506,6,0,P|170:108|163:123,1,45,2|2,0:0|0:0,0:0:0:0:
175,205,20163,1,2,0:0:0:0:
302,288,20382,6,0,P|318:257|317:222,1,72,2|0,0:0|0:0,0:0:0:0:
404,221,20820,1,2,0:0:0:0:
404,221,21039,1,2,0:0:0:0:
426,127,21257,6,0,P|390:128|360:146,1,72,2|0,0:0|0:0,0:0:0:0:
223,100,21695,2,0,P|241:130|273:147,1,72,2|2,0:0|0:0,0:0:0:0:
360,146,22133,1,2,0:0:0:0:
273,147,22352,1,2,0:0:0:0:
317,222,22571,1,2,0:0:0:0:
316,71,23009,6,0,P|314:58|313:73,1,45,2|2,0:0|0:0,0:0:0:0:
273,147,23666,1,2,0:0:0:0:
188,26,23885,6,0,P|159:47|143:79,1,72,2|0,0:0|0:0,0:0:0:0:
133,215,24323,1,2,0:0:0:0:
211,221,24542,6,0,P|187:155|120:137,2,144,2|2|2,0:0|0:0|0:0,0:0:0:0:
30,143,25637,2,0,P|62:157|98:154,1,72,2|2,0:0|0:0,0:0:0:0:
143,79,26075,1,2,0:0:0:0:
26,1,26513,6,0,P|10:0|26:6,1,45,2|2,0:0|0:0,0:0:0:0:
98,154,27170,1,2,0:0:0:0:
179,151,27389,6,0,P|177:186|154:213,1,72,2|0,0:0|0:0,0:0:0:0:
5,241,27827,2,0,P|36:224|71:231,1,72,2|0,0:0|0:0,0:0:0:0:
170,346,28265,6,0,P|140:326|128:293,1,72,2|2,0:0|0:0,0:0:0:0:
154,213,28703,1,2,0:0:0:0:
45,311,29141,6,0,P|46:321|48:313,2,22.5,2|0|0,0:0|0:0|0:0,0:0:0:0:
128,293,29798,1,2,0:0:0:0:
71,231,30017,1,2,0:0:0:0:
65,225,30126,1,2,0:0:0:0:
237,195,30455,5,2,0:0:0:0:
474,338,30674,1,2,0:0:0:0:
407,384,30893,6,0,P|442:294|428:187,1,161.999995056153,12|0,0:1|0:0,0:0:0:0:
374,194,31330,6,0,P|384:244|434:254,1,108,2|0,0:0|0:0,0:0:0:0:
469,157,31768,1,0,1:0:0:0:
326,34,32097,5,2,0:0:0:0:
315,19,32206,1,8,0:1:0:0:
399,53,32425,1,2,0:0:0:0:
472,31,32644,2,0,P|434:69|433:121,2,107.999996704102,2|2|8,0:0|0:0|0:1,0:0:0:0:
314,113,33849,5,2,0:0:0:0:
325,128,33958,1,8,0:1:0:0:
433,121,34177,1,8,0:1:0:0:
265,201,34396,6,0,P|277:146|239:29,1,161.999995056153,8|0,0:1|0:0,0:0:0:0:
175,56,34834,6,0,P|196:101|245:90,1,108,2|0,0:0|0:0,0:0:0:0:
241,11,35272,1,0,1:0:0:0:
251,196,35601,5,2,0:0:0:0:
265,201,35710,1,8,0:1:0:0:
175,193,35929,1,2,0:0:0:0:
136,258,36148,2,0,P|134:205|104:162,2,107.999996704102,2|2|8,0:0|0:0|0:1,0:0:0:0:
36,198,37352,5,2,0:0:0:0:
22,193,37462,1,8,0:1:0:0:
104,162,37681,1,8,0:1:0:0:
154,384,37900,6,0,P|195:315|264:274,1,161.999995056153,8|0,0:1|0:0,0:0:0:0:
326,327,38338,6,0,P|277:338|253:294,1,108,2|0,0:0|0:0,0:0:0:0:
327,226,38776,1,0,1:0:0:0:
70,311,39104,5,2,0:0:0:0:
58,304,39214,1,8,0:1:0:0:
152,298,39433,1,2,0:0:0:0:
183,222,39652,2,0,P|191:275|233:308,2,107.999996704102,2|2|8,0:0|0:0|0:1,0:0:0:0:
90,93,40856,5,2,0:0:0:0:
102,100,40966,1,8,0:1:0:0:
183,222,41184,1,8,0:1:0:0:
8,75,41403,6,0,P|90:75|171:28,1,161.999995056153,8|0,0:1|0:0,0:0:0:0:
213,99,41841,6,0,P|162:110|128:72,1,108,2|0,0:0|0:0,0:0:0:0:
249,14,42279,1,0,1:0:0:0:
267,176,42608,5,2,0:0:0:0:
274,187,42717,1,8,0:1:0:0:
358,189,42936,1,2,0:0:0:0:
385,109,43155,2,0,P|390:149|451:188,1,107.999996704102,2|2,0:0|0:0,0:0:0:0:
350,375,44031,5,0,1:0:0:0:
345,360,44141,1,2,0:0:0:0:
388,268,44360,1,2,0:0:0:0:
393,283,44470,1,8,0:1:0:0:
303,279,44688,5,2,0:0:0:0:
512,384,44907,2,0,P|474:361|425:357,1,90,12|0,0:1|0:0,0:0:0:0:
254,357,45345,1,2,0:0:0:0:
303,279,45564,1,2,0:0:0:0:
202,206,45783,6,0,P|201:250|214:279,1,72,2|0,0:0|0:0,0:0:0:0:
293,262,46221,2,0,P|293:217|281:189,1,72,2|0,0:0|0:0,0:0:0:0:
232,129,46659,1,2,0:0:0:0:
202,206,46878,1,2,0:0:0:0:
283,192,47097,1,2,0:0:0:0:
151,143,47535,6,0,P|141:134|148:149,2,45,2|0|0,0:0|0:0|0:0,0:0:0:0:
313,115,48192,1,8,0:1:0:0:
84,73,48411,6,0,P|78:118|48:159,1,90,8|0,0:1|0:0,0:0:0:0:
130,296,48849,1,2,0:0:0:0:
74,352,49068,1,2,0:0:0:0:
130,296,49287,6,0,P|165:300|199:290,1,72,2|0,0:0|0:0,0:0:0:0:
192,206,49725,2,0,P|156:201|122:211,1,72,2|0,0:0|0:0,0:0:0:0:
54,260,50163,1,2,0:0:0:0:
130,296,50382,1,2,0:0:0:0:
123,212,50601,1,2,0:0:0:0:
61,344,51039,6,0,P|49:353|60:342,2,45,2|0|0,0:0|0:0|0:0,0:0:0:0:
123,212,51695,1,8,0:1:0:0:
332,31,51914,6,0,P|340:74|380:112,1,90,8|0,0:1|0:0,0:0:0:0:
274,175,52352,2,0,P|267:104|221:49,1,144,2|0,0:0|0:0,0:0:0:0:
194,134,53009,1,2,0:0:0:0:
274,175,53228,6,0,P|309:171|344:181,1,72,2|0,0:0|0:0,0:0:0:0:
421,167,53666,1,2,0:0:0:0:
370,107,53885,1,2,0:0:0:0:
344,181,54104,1,2,0:0:0:0:
447,93,54542,6,0,P|458:84|448:96,2,45,2|0|0,0:0|0:0|0:0,0:0:0:0:
395,241,55199,1,8,0:1:0:0:
183,7,55418,6,0,P|143:27|94:26,1,90,8|0,0:1|0:0,0:0:0:0:
65,119,55856,1,2,0:0:0:0:
0,74,56075,1,2,0:0:0:0:
65,119,56294,6,0,P|102:118|133:132,1,72,2|0,0:0|0:0,0:0:0:0:
85,196,56732,1,2,0:0:0:0:
98,27,57170,6,0,P|100:10|96:27,2,45,2|0|0,0:0|0:0|0:0,0:0:0:0:
85,196,57827,1,2,0:0:0:0:
117,271,58046,1,2,0:0:0:0:
36,261,58265,1,2,0:0:0:0:
166,206,58484,2,0,P|206:226|251:232,1,90,8|0,0:1|0:0,0:0:0:0:
23,144,58922,6,0,P|38:231|4:344,1,202.500007724762,12|0,0:1|0:0,0:0:0:0:
117,271,59360,1,8,0:1:0:0:
425,384,59688,5,2,0:0:0:0:
425,384,59798,1,8,0:1:0:0:
368,325,60017,1,8,0:1:0:0:
404,252,60236,1,8,0:1:0:0:
340,86,60455,6,0,P|357:138|349:195,1,107.999996704102,2|8,0:0|0:1,0:0:0:0:
404,252,60893,1,8,0:1:0:0:
277,144,61111,1,8,0:1:0:0:
479,43,61330,5,2,0:0:0:0:
397,25,61549,1,8,0:1:0:0:
236,212,61878,6,0,P|224:215|236:216,2,26.9999991760254,8|8|8,0:1|0:1|0:1,0:1:0:0:
318,230,62206,1,8,0:1:0:0:
255,367,62425,6,0,P|298:294|406:251,1,202.500007724762,12|0,0:1|0:0,0:0:0:0:
236,212,62863,1,8,0:1:0:0:
485,265,63082,5,8,0:1:0:0:
490,259,63155,5,8,0:1:0:0:
495,253,63228,5,8,0:1:0:0:
501,247,63301,5,8,0:1:0:0:
456,176,63520,1,8,0:1:0:0:
494,101,63739,1,8,0:1:0:0:
271,144,63958,6,0,P|325:151|373:173,1,107.999996704102,2|8,0:0|0:1,0:0:0:0:
456,26,64396,1,8,0:1:0:0:
494,101,64615,1,8,0:1:0:0:
295,62,64834,5,2,0:0:0:0:
379,67,65053,1,8,0:1:0:0:
245,207,65345,5,8,0:1:0:0:
249,213,65418,5,8,0:1:0:0:
254,218,65491,5,8,0:1:0:0:
300,147,65710,1,8,0:1:0:0:
114,6,65929,6,0,P|157:93|147:218,1,202.500007724762,12|0,0:1|0:0,0:0:0:0:
211,85,66367,1,8,0:1:0:0:
67,90,66586,5,8,0:1:0:0:
64,97,66659,5,8,0:1:0:0:
61,105,66732,5,8,0:1:0:0:
58,113,66805,5,8,0:1:0:0:
72,193,67024,1,8,0:1:0:0:
32,264,67243,1,8,0:1:0:0:
149,363,67462,6,0,P|144:311|101:257,1,107.999996704102,2|8,0:0|0:1,0:0:0:0:
236,197,67900,1,8,0:1:0:0:
154,196,68119,1,8,0:1:0:0:
231,321,68338,5,8,0:1:0:0:
237,332,68411,5,8,0:1:0:0:
244,342,68484,5,8,0:1:0:0:
250,351,68557,5,8,0:1:0:0:
303,283,68776,1,8,0:1:0:0:
211,85,68995,1,8,0:1:0:0:
195,74,69104,1,8,0:1:0:0:
194,94,69214,1,8,0:1:0:0:
413,72,69433,6,0,P|363:108|288:124,1,135.000005149842,12|2,0:1|0:0,0:0:0:0:
106,76,69871,1,8,0:1:0:0:
38,137,70090,5,8,0:1:0:0:
37,145,70163,5,8,0:1:0:0:
36,154,70236,5,8,0:1:0:0:
35,163,70309,5,8,0:1:0:0:
119,244,70528,1,8,0:1:0:0:
84,234,70637,1,8,0:1:0:0:
109,208,70747,1,8,0:1:0:0:
374,318,70966,2,0,P|345:265|355:189,1,107.999996704102,12|8,0:0|0:1,0:0:0:0:
326,384,71403,5,8,0:1:0:0:
454,302,71622,1,0,1:0:0:0:
460,329,71732,1,0,1:0:0:0:
449,353,71841,1,8,0:1:0:0:
344,218,72060,1,8,0:1:0:0:
158,226,72279,5,8,0:1:0:0:
145,184,72389,1,0,1:0:0:0:
174,152,72498,1,0,1:0:0:0:
207,123,72608,1,8,0:1:0:0:
200,80,72717,1,8,0:1:0:0:
374,318,72936,6,0,P|314:227|326:116,1,202.500007724762,12|0,0:1|0:0,0:0:0:0:
232,201,73374,1,8,0:1:0:0:
289,64,73593,5,8,0:1:0:0:
286,52,73666,5,8,0:1:0:0:
276,50,73739,5,8,0:1:0:0:
277,63,73812,5,8,0:1:0:0:
396,140,74031,1,4,1:0:0:0:
317,136,74250,1,2,0:0:0:0:
155,331,74469,6,0,B|168:280|168:280|153:206,1,107.999996704102,12|8,0:1|0:1,0:0:0:0:
45,23,74907,1,2,0:0:0:0:
13,97,75126,1,8,0:1:0:0:
203,153,75345,5,8,0:1:0:0:
211,161,75418,5,8,0:1:0:0:
220,155,75491,5,8,0:1:0:0:
212,147,75564,5,8,0:1:0:0:
53,169,75783,1,0,1:0:0:0:
90,180,75893,1,8,0:1:0:0:
79,217,76002,1,8,0:1:0:0:
68,254,76111,1,0,1:0:0:0:
30,243,76221,1,0,1:0:0:0:
280,90,76440,6,0,P|212:104|147:76,1,135.000005149842,12|8,0:1|0:1,0:0:0:0:
303,175,76878,1,8,0:1:0:0:
512,28,77097,5,8,0:1:0:0:
503,25,77170,5,8,0:1:0:0:
500,34,77243,5,8,0:1:0:0:
509,37,77316,5,8,0:1:0:0:
348,43,77535,1,4,1:0:0:0:
426,69,77754,1,8,0:1:0:0:
398,221,77973,5,12,0:0:0:0:
381,140,78192,1,0,0:0:0:0:
216,303,78411,5,8,0:1:0:0:
233,384,78630,1,4,1:0:0:0:
303,238,78849,5,8,0:1:0:0:
294,233,78922,5,8,0:1:0:0:
289,242,78995,5,8,0:1:0:0:
298,247,79068,5,4,1:0:0:0:
137,258,79287,1,0,1:0:0:0:
99,255,79396,1,0,1:0:0:0:
96,293,79506,1,0,1:0:0:0:
93,331,79615,1,8,0:1:0:0:
131,334,79725,1,8,0:1:0:0:
198,105,79944,6,0,B|123:125|123:125|-49:80,1,202.500007724762,12|0,0:1|0:0,0:0:0:0:
77,65,80382,6,0,B|92:128|92:128|169:186,1,135.000005149842,8|8,0:0|0:1,0:0:0:0:
157,176,80674,5,8,0:1:0:0:
152,185,80747,5,8,0:1:0:0:
142,179,80820,5,8,0:1:0:0:
14,14,81039,1,8,0:0:0:0:
261,52,81257,5,8,0:1:0:0:
290,89,81367,1,8,0:1:0:0:
276,134,81476,1,8,0:1:0:0:
198,105,81695,5,12,0:1:0:0:
366,53,81914,1,8,0:1:0:0:
213,59,82133,5,8,0:1:0:0:
417,143,82352,1,8,0:1:0:0:
227,142,82571,5,12,0:1:0:0:
467,53,82790,1,8,0:1:0:0:
378,331,83009,5,8,0:1:0:0:
290,89,83228,1,8,0:1:0:0:
53,347,83447,6,0,B|75:284|75:284|57:206,1,135.000005149842,4|8,1:0|0:1,0:0:0:0:
57,204,83739,5,8,0:1:0:0:
45,206,83812,5,8,0:1:0:0:
48,222,83885,5,12,0:1:0:0:
213,384,84104,1,12,0:0:0:0:
380,234,84323,5,8,0:1:0:0:
371,226,84396,5,8,0:1:0:0:
362,232,84469,5,8,0:1:0:0:
369,243,84542,5,8,0:1:0:0:
173,160,84761,6,0,B|151:223|151:223|169:301,1,135.000005149842,12|8,0:0|0:1,0:0:0:0:
169,303,85053,5,8,0:1:0:0:
181,301,85126,5,8,0:1:0:0:
178,285,85199,6,0,B|122:228|122:228|43:222,1,153.000002918243,8|2,0:1|0:0,0:0:0:0:
294,330,85564,5,8,0:1:0:0:
296,335,85637,5,0,1:0:0:0:
216,49,85856,1,8,0:1:0:0:
279,0,86075,5,8,0:1:0:0:
233,384,86732,6,0,L|286:373,1,45,2|0,0:0|0:0,0:0:0:0:
296,335,86951,1,8,0:1:0:0:
394,382,87389,5,2,0:0:0:0:
394,382,87608,2,0,B|360:332|358:264|395:225|441:223|470:245,1,225,2|2,0:0|0:0,0:0:0:0:
470,245,89360,5,2,0:0:0:0:
401,275,89579,2,0,P|386:272|399:271,2,45,2|0|0,0:0|0:0|0:0,0:0:0:0:
463,323,90236,2,0,L|478:292,1,22.5,2|0,0:0|0:0,0:0:0:0:
484,280,90455,1,2,0:0:0:0:
448,156,90893,5,2,0:0:0:0:
448,156,91111,2,0,P|336:160|220:115,1,225,2|2,0:0|0:0,0:0:0:0:
231,121,92863,5,2,0:0:0:0:
294,73,93082,2,0,P|290:118|300:162,1,90,2|0,0:0|0:0,0:0:0:0:
245,220,93739,2,0,L|245:247,1,22.5,2|0,0:0|0:0,0:0:0:0:
246,265,93958,1,8,0:1:0:0:
293,333,94177,6,0,P|256:307|164:292,1,135,2|0,0:0|0:0,0:0:0:0:
168,291,95491,6,0,P|156:292|143:298,1,22.5,2|0,0:0|0:0,0:0:0:0:
131,309,95710,1,2,0:0:0:0:
50,297,95929,2,0,P|57:341|46:384,1,90,2|0,0:0|0:0,0:0:0:0:
99,238,96586,6,0,P|85:221|60:213,1,45,2|2,0:0|0:0,0:0:0:0:
20,226,97024,1,2,0:0:0:0:
11,131,97243,2,0,P|17:141|28:148,2,22.5,2|0|0,0:0|0:0|0:0,0:0:0:0:
11,131,98776,5,2,0:0:0:0:
25,146,98995,2,0,P|26:170|15:197,1,45,2|0,0:0|0:0,0:0:0:0:
48,58,99871,5,2,0:0:0:0:
115,108,100090,1,2,0:0:0:0:
191,74,100309,1,2,0:0:0:0:
124,24,100528,5,2,0:0:0:0:
106,192,100747,1,2,0:0:0:0:
242,291,100966,6,0,P|293:307|368:298,1,107.999996704102,12|0,0:1|0:0,0:0:0:0:
374,288,101294,1,2,0:0:0:0:
345,285,101403,1,8,0:1:0:0:
180,353,101622,1,2,0:0:0:0:
157,370,101732,1,2,0:0:0:0:
189,369,101841,6,0,P|228:332|254:171,1,215.999993408203,8|8,0:1|0:1,0:0:0:0:
33,63,102498,1,2,0:0:0:0:
32,28,102608,1,2,0:0:0:0:
48,58,102717,1,8,0:1:0:0:
9,137,102936,1,8,0:1:0:0:
133,80,103155,1,8,0:1:0:0:
84,139,103374,5,2,0:0:0:0:
48,58,103593,5,8,0:1:0:0:
172,148,103812,1,2,0:0:0:0:
32,210,104031,1,8,0:1:0:0:
240,63,104250,5,2,0:0:0:0:
466,174,104469,6,0,P|469:231|452:291,1,107.999996704102,8|0,0:1|0:0,0:0:0:0:
436,301,104798,1,2,0:0:0:0:
436,276,104907,1,8,0:1:0:0:
318,314,105126,6,0,P|369:298|470:152,1,215.999993408203,2|0,0:0|0:0,0:0:0:0:
465,134,105674,1,2,0:0:0:0:
451,170,105783,1,8,0:1:0:0:
397,370,106002,1,2,0:0:0:0:
512,374,106221,6,0,P|472:337|296:323,1,215.999993408203,12|8,0:1|0:1,0:0:0:0:
256,368,106878,1,2,0:0:0:0:
348,154,107097,5,8,0:1:0:0:
320,77,107316,1,2,0:0:0:0:
268,140,107535,1,8,0:1:0:0:
400,91,107754,1,8,0:1:0:0:
160,51,107973,6,0,P|173:148|158:244,1,180,12|8,0:1|0:1,0:0:0:0:
428,168,108630,2,0,P|422:211|429:273,1,90,2|8,0:0|0:1,0:0:0:0:
240,63,109068,5,0,1:0:0:0:
348,154,109287,1,8,0:1:0:0:
320,77,109506,1,8,0:1:0:0:
254,209,109725,2,0,P|294:228|330:255,1,90,12|2,0:1|0:0,0:0:0:0:
512,384,110163,5,8,0:1:0:0:
464,280,110382,1,0,1:0:0:0:
434,269,110491,1,0,1:0:0:0:
403,277,110601,1,8,0:1:0:0:
346,332,110820,1,8,0:1:0:0:
276,353,111039,1,8,0:1:0:0:
215,312,111257,1,8,0:1:0:0:
211,303,111367,1,8,0:1:0:0:
213,294,111476,2,0,P|259:221|353:231,1,180,8|0,0:1|0:0,0:0:0:0:
344,224,113009,5,2,0:0:0:0:
308,240,113228,2,0,P|276:232|253:206,1,67.5,2|0,0:0|0:0,0:0:0:0:
249,192,113666,2,0,P|249:216|229:234,1,45,4|0,0:0|0:0,0:0:0:0:
132,295,113995,5,8,0:1:0:0:
127,315,114104,1,8,0:1:0:0:
314,149,114323,1,8,0:1:0:0:
46,52,114542,5,0,1:0:0:0:
66,57,114651,1,8,0:1:0:0:
86,62,114761,1,8,0:1:0:0:
177,164,114980,1,12,0:1:0:0:
256,192,115090,12,2,118046,0:0:0:0:
318,246,118484,6,0,P|352:234|391:238,1,72,8|0,0:1|0:0,0:0:0:0:
379,143,118922,2,0,P|345:155|306:151,1,72,8|0,0:1|0:0,0:0:0:0:
249,204,119360,1,8,0:1:0:0:
249,204,119579,1,2,0:0:0:0:
178,153,119798,6,0,P|143:156|106:162,1,72,8|0,0:1|0:0,0:0:0:0:
173,26,120236,2,0,P|192:54|216:82,1,72,8|0,0:1|0:0,0:0:0:0:
66,94,120674,2,0,P|80:61|92:26,1,72,8|0,0:1|0:0,0:0:0:0:
141,93,121111,5,8,0:1:0:0:
141,93,121331,1,2,0:0:0:0:
107,163,121549,1,8,0:1:0:0:
107,163,121768,1,2,0:0:0:0:
128,257,121987,6,0,P|128:294|114:333,1,72,8|0,0:1|0:0,0:0:0:0:
38,311,122425,2,0,P|38:274|52:235,1,72,8|0,0:1|0:0,0:0:0:0:
74,338,122863,1,8,0:1:0:0:
272,213,123301,6,0,P|272:250|286:289,1,72,8|0,0:1|0:0,0:0:0:0:
362,267,123739,2,0,P|362:230|348:191,1,72,8|0,0:1|0:0,0:0:0:0:
326,294,124177,1,8,0:1:0:0:
216,60,124615,5,8,0:1:0:0:
224,27,124834,5,2,0:0:0:0:
239,83,125053,1,8,0:1:0:0:
183,68,125272,1,2,0:0:0:0:
304,36,125491,6,0,P|337:44|383:47,1,72,8|0,0:1|0:0,0:0:0:0:
477,118,125929,2,0,P|444:126|398:129,1,72,8|0,0:1|0:0,0:0:0:0:
352,198,126367,1,8,0:1:0:0:
477,118,126805,6,0,P|444:126|398:129,1,72,8|0,0:1|0:0,0:0:0:0:
281,186,127243,2,0,P|314:194|360:197,1,72,8|0,0:1|0:0,0:0:0:0:
403,270,127681,1,8,0:1:0:0:
281,186,128119,5,8,0:1:0:0:
314,269,128338,1,8,0:1:0:0:
309,293,128447,1,8,0:1:0:0:
291,310,128557,1,8,0:1:0:0:
403,270,128776,5,12,0:1:0:0:
188,279,128995,2,0,P|230:286|276:326,1,90,8|0,0:1|0:0,0:0:0:0:
177,291,129323,1,2,0:0:0:0:
179,305,129433,2,0,P|151:337|94:357,1,90,8|0,0:1|0:0,0:0:0:0:
177,291,129761,1,2,0:0:0:0:
163,285,129871,2,0,P|148:245|159:185,1,90,8|0,0:1|0:0,0:0:0:0:
78,32,130309,1,8,0:1:0:0:
60,105,130528,1,8,0:1:0:0:
6,53,130747,5,8,0:1:0:0:
132,84,130966,1,2,0:0:0:0:
258,115,131184,1,8,0:1:0:0:
204,63,131622,5,8,0:1:0:0:
186,136,131841,1,8,0:1:0:0:
312,167,132060,1,8,0:1:0:0:
330,94,132279,1,2,0:0:0:0:
276,313,132498,6,0,B|257:271|257:271|264:228,1,90,8|0,0:1|0:0,0:0:0:0:
388,179,132936,1,8,0:1:0:0:
388,179,133155,1,8,0:1:0:0:
464,360,133374,2,0,B|483:318|483:318|461:172,1,180,8|8,0:1|0:1,0:0:0:0:
443,32,134031,1,2,0:0:0:0:
501,84,134250,5,8,0:1:0:0:
430,117,134469,1,8,0:1:0:0:
277,39,134688,2,0,P|318:55|363:62,1,90,8|0,0:1|0:0,0:0:0:0:
353,316,135126,5,8,0:1:0:0:
390,384,135345,1,2,0:0:0:0:
440,312,135564,1,8,0:1:0:0:
477,380,135783,1,2,0:0:0:0:
288,244,136002,6,0,P|283:288|258:326,1,90,8|0,0:1|0:0,0:0:0:0:
197,210,136440,2,0,P|172:247|167:291,1,90,8|0,0:1|0:0,0:0:0:0:
263,172,136878,1,8,0:1:0:0:
263,172,137097,1,2,0:0:0:0:
193,365,137316,1,8,0:1:0:0:
101,328,137535,1,8,0:1:0:0:
91,92,137754,6,0,P|75:133|44:167,1,90,8|0,0:1|0:0,0:0:0:0:
220,174,138192,2,0,P|192:139|178:95,1,90,8|0,0:1|0:0,0:0:0:0:
131,203,138630,1,8,0:1:0:0:
139,18,138849,1,2,0:0:0:0:
178,96,139068,5,8,0:1:0:0:
91,92,139287,1,12,0:1:0:0:
57,292,139506,6,0,P|101:289|155:298,1,90,8|0,0:1|0:0,0:0:0:0:
279,376,139944,2,0,P|235:373|181:382,1,90,8|0,0:1|0:0,0:0:0:0:
296,280,140382,5,8,0:1:0:0:
214,229,140601,1,8,0:1:0:0:
139,18,140820,6,0,P|104:22|61:17,1,72,8|0,0:1|0:0,0:0:0:0:
103,98,141257,1,8,0:1:0:0:
347,43,141476,5,0,1:0:0:0:
402,287,141695,1,8,0:0:0:0:
419,195,141914,1,6,0:0:0:0:
386,379,142133,5,8,0:1:0:0:
436,103,142352,1,8,0:1:0:0:
387,117,142462,1,0,1:0:0:0:
338,128,142571,1,0,1:0:0:0:
321,176,142681,1,8,0:1:0:0:
334,190,142790,5,8,0:1:0:0:
244,127,143009,2,0,P|258:178|249:232,1,107.999996704102,12|0,0:1|0:0,0:0:0:0:
510,165,143447,1,0,1:0:0:0:
171,44,143885,5,8,0:1:0:0:
159,84,143995,1,8,0:1:0:0:
167,96,144104,1,8,0:1:0:0:
252,45,144323,1,0,1:0:0:0:
98,9,144542,1,2,0:0:0:0:
40,280,144761,5,8,0:1:0:0:
4,210,144980,1,2,0:0:0:0:
48,293,145199,1,0,1:0:0:0:
131,249,145418,1,2,0:0:0:0:
43,83,145637,1,8,0:1:0:0:
10,97,145747,1,8,0:1:0:0:
4,117,145856,1,8,0:1:0:0:
175,332,146075,5,0,1:0:0:0:
184,171,146294,1,2,0:0:0:0:
193,161,146403,1,2,0:0:0:0:
223,154,146513,2,0,P|226:210|258:257,1,107.999996704102,8|0,0:1|0:0,0:0:0:0:
329,121,146951,2,0,P|358:166|360:219,1,107.999996704102,0|0,1:0|0:0,0:0:0:0:
324,318,147389,1,8,0:1:0:0:
340,333,147498,1,8,0:1:0:0:
346,315,147608,1,8,0:1:0:0:
424,338,147827,6,0,P|344:340|277:384,1,161.999995056153,0|0,1:0|0:0,0:0:0:0:
346,315,148265,1,8,0:1:0:0:
255,71,148484,5,2,0:0:0:0:
328,32,148703,1,0,1:0:0:0:
238,80,148922,1,2,0:0:0:0:
415,86,149141,1,8,0:1:0:0:
437,52,149250,1,8,0:1:0:0:
430,31,149360,1,8,0:1:0:0:
421,171,149579,5,8,0:0:0:0:
383,209,149688,1,0,1:0:0:0:
407,257,149798,1,0,1:0:0:0:
492,124,150017,5,12,0:1:0:0:
344,133,150236,1,8,0:1:0:0:
340,370,150455,1,8,0:1:0:0:
488,361,150674,1,8,0:1:0:0:
268,109,150893,5,0,1:0:0:0:
264,346,151111,1,8,0:1:0:0:
412,337,151330,1,8,0:1:0:0:
188,224,151549,5,8,0:1:0:0:
174,230,151622,5,8,0:1:0:0:
180,244,151695,5,8,0:1:0:0:
194,238,151768,5,12,0:1:0:0:
274,264,151987,5,8,0:1:0:0:
174,331,152206,1,8,0:1:0:0:
53,272,152425,1,8,0:1:0:0:
52,120,152644,1,0,1:0:0:0:
226,16,152863,1,8,0:1:0:0:
415,143,153082,1,8,0:1:0:0:
413,384,153301,1,0,1:0:0:0:
490,113,153520,5,12,0:1:0:0:
340,174,153739,1,8,0:1:0:0:
297,194,153849,1,8,0:1:0:0:
252,179,153958,1,0,1:0:0:0:
214,207,154068,1,8,0:1:0:0:
172,184,154177,1,8,0:1:0:0:
137,216,154287,1,8,0:1:0:0:
99,187,154396,1,0,1:0:0:0:
74,227,154506,1,0,1:0:0:0:
49,186,154615,5,8,0:1:0:0:
84,205,154725,1,8,0:1:0:0:
119,224,154834,1,8,0:0:0:0:
155,242,154944,1,8,0:1:0:0:
191,258,155053,1,8,0:1:0:0:
224,234,155163,1,8,0:1:0:0:
258,213,155272,1,4,1:0:0:0:
171,65,155491,5,8,0:1:0:0:
164,82,155564,5,8,0:1:0:0:
181,89,155637,5,8,0:1:0:0:
188,72,155710,5,8,0:1:0:0:
216,363,155929,1,8,0:1:0:0:
297,384,156148,5,2,0:0:0:0:
49,186,156586,6,0,B|68:160|68:160|77:90,1,94.499997116089,8|0,0:1|0:0,0:0:0:0:
62,69,157024,6,0,B|70:149|70:149|147:211,1,161.999995056153,12|0,0:1|0:0,0:0:0:0:
123,308,157352,1,8,0:1:0:0:
118,333,157462,1,0,1:0:0:0:
463,195,157681,6,0,P|384:209|238:128,1,242.999992584229,0|0,1:0|0:0,0:0:0:0:
335,237,158119,1,8,0:0:0:0:
394,8,158338,1,8,0:0:0:0:
420,282,158557,5,0,1:1:0:0:
399,353,158666,1,0,1:0:0:0:
417,364,158776,2,0,B|371:245|371:245|405:120,1,242.999992584229,4|8,1:0|0:1,0:0:0:0:
509,64,159214,1,8,0:1:0:0:
323,134,159433,5,8,0:1:0:0:
363,202,159652,1,12,0:1:0:0:
209,75,159871,5,0,1:0:0:0:
401,133,160090,2,0,B|405:214|405:214|341:298,1,161.999995056153,0|0,1:0|0:0,0:0:0:0:
199,151,160418,1,8,0:1:0:0:
209,75,160528,6,0,B|160:138|160:138|164:220,1,161.999995056153,12|0,0:1|0:0,0:0:0:0:
237,328,160856,1,8,0:1:0:0:
254,356,160966,1,0,1:1:0:0:
63,327,161184,6,0,P|152:326|273:217,1,242.999992584229,0|0,1:0|0:0,0:0:0:0:
221,357,161622,1,8,0:0:0:0:
23,178,161841,1,8,0:0:0:0:
309,90,162060,1,0,1:0:0:0:
292,18,162170,1,0,1:0:0:0:
313,0,162279,6,0,B|289:100|289:100|327:259,1,242.999992584229,12|0,0:0|0:0,0:0:0:0:
493,327,162717,1,0,1:0:0:0:
326,162,162936,5,4,1:0:0:0:
463,32,163155,2,0,P|382:104|224:140,1,242.999992584229,8|0,0:1|0:0,0:0:0:0:
138,105,163593,1,8,0:0:0:0:
0,326,163812,5,0,1:0:0:0:
13,376,163922,1,0,1:0:0:0:
66,381,164031,2,0,P|124:316|70:164,1,242.999992584229,12|0,0:1|0:0,0:0:0:0:
3,189,164469,6,0,P|65:228|115:176,1,144,8|4,0:1|0:0,0:0:0:0:
57,65,164907,1,8,0:1:0:0:
292,18,165126,5,8,0:0:0:0:
339,253,165345,1,8,0:0:0:0:
501,48,165564,5,8,0:1:0:0:
442,0,165673,1,8,0:1:0:0:
421,5,165783,2,0,B|421:78|421:78|472:139,1,144,12|0,0:1|0:0,0:0:0:0:
339,253,166112,1,8,0:1:0:0:
417,205,166221,2,0,B|353:168|353:168|275:182,1,144,0|12,1:0|0:1,0:0:0:0:
505,211,166659,5,8,0:1:0:0:
319,68,166878,1,8,0:0:0:0:
113,162,167097,1,8,0:0:0:0:
399,155,167316,5,8,0:1:0:0:
436,121,167425,1,8,0:1:0:0:
436,72,167535,2,0,B|407:190|407:190|508:264,1,242.999992584229,12|8,0:1|0:1,0:0:0:0:
295,230,167973,1,8,0:0:0:0:
467,195,168192,1,12,0:1:0:0:
249,164,168411,6,0,B|296:209|296:209|359:182,1,135.000005149842,8|8,0:1|0:0,0:0:0:0:
314,111,168849,1,8,0:0:0:0:
276,349,169068,1,8,0:1:0:0:
299,362,169177,1,8,0:1:0:0:
320,358,169287,6,0,B|396:335|396:335|405:254,1,161.999995056153,12|8,0:1|0:1,0:0:0:0:
359,181,169725,1,8,0:0:0:0:
59,170,169944,5,8,0:1:0:0:
166,50,170163,1,0,1:0:0:0:
182,94,170272,1,8,0:1:0:0:
189,140,170382,1,8,0:1:0:0:
182,186,170491,1,8,0:1:0:0:
165,230,170601,1,0,1:0:0:0:
165,277,170710,1,8,0:1:0:0:
186,319,170820,1,0,1:0:0:0:
222,348,170929,1,0,1:0:0:0:
239,332,171039,6,0,L|130:69,1,270.000010299683,12|0,0:1|1:0,0:0:0:0:
422,14,171695,1,0,1:0:0:0:
422,14,171805,1,8,0:1:0:0:
395,106,172024,1,8,0:1:0:0:
395,106,172133,1,8,0:1:0:0:
300,92,172352,6,0,P|377:108|461:158,1,161.999995056153,8|0,1:0|0:0,0:0:0:0:
512,99,172790,1,8,0:1:0:0:
466,169,173009,1,8,0:1:0:0:
502,245,173228,1,0,1:0:0:0:
310,337,173447,5,0,1:0:0:0:
310,337,173557,1,8,0:1:0:0:
271,241,173776,1,8,0:1:0:0:
271,241,173885,1,8,0:1:0:0:
367,202,174104,1,0,1:0:0:0:
214,376,174323,1,0,1:0:0:0:
194,328,174433,1,0,1:0:0:0:
175,280,174542,5,8,0:1:0:0:
406,298,174761,1,8,0:1:0:0:
193,49,174980,5,0,1:0:0:0:
117,102,175199,1,0,1:0:0:0:
117,102,175309,1,8,0:1:0:0:
173,175,175528,1,8,0:1:0:0:
173,175,175637,1,8,0:1:0:0:
249,122,175856,1,0,1:0:0:0:
22,362,176184,5,8,0:1:0:0:
22,362,176294,2,0,P|47:308|39:150,1,215.999993408203,12|0,0:1|1:0,0:0:0:0:
325,69,177060,1,8,0:1:0:0:
279,85,177170,1,0,1:0:0:0:
230,82,177279,1,8,0:1:0:0:
193,49,177389,1,8,0:1:0:0:
338,175,177608,1,0,1:0:0:0:
224,237,177827,1,0,1:0:0:0:
188,216,177936,1,0,1:0:0:0:
173,175,178046,6,0,P|193:223|182:291,1,107.999996704102,12|8,0:1|0:1,0:0:0:0:
131,344,178484,1,4,1:0:0:0:
276,316,178702,1,0,1:0:0:0:
276,316,178812,1,8,0:1:0:0:
361,351,179031,1,8,0:1:0:0:
361,351,179141,1,8,0:1:0:0:
417,284,179360,6,0,P|382:230|387:114,1,161.999995056153,0|8,1:0|0:1,0:0:0:0:
327,72,179798,1,8,0:1:0:0:
393,123,180017,1,8,0:1:0:0:
473,98,180236,1,0,1:0:0:0:
341,228,180455,5,0,1:0:0:0:
341,228,180564,1,8,0:1:0:0:
263,241,180783,1,8,0:1:0:0:
263,241,180893,1,8,0:1:0:0:
276,316,181112,1,0,1:0:0:0:
498,266,181330,5,0,1:0:0:0:
503,278,181440,1,0,1:0:0:0:
508,288,181549,2,0,P|472:366|386:365,1,180,12|0,0:1|0:0,0:0:0:0:
403,265,183082,5,2,0:0:0:0:
411,264,183192,1,2,0:0:0:0:
419,266,183301,2,0,P|438:326|381:365,1,135,2|0,0:0|0:0,0:0:0:0:
487,353,184068,5,8,0:1:0:0:
494,384,184177,2,2,L|39:15,1,573.750010943413,12|0,0:1|0:0,1:0:0:0:
58,0,185053,6,0,B|85:62|85:62|74:133,1,135,12|0,0:1|0:0,0:0:0:0:
51,130,185272,2,0,B|91:75|91:75|158:49,1,135,8|0,0:1|0:0,0:0:0:0:
168,72,185491,6,0,B|100:64|100:64|44:19,1,135,8|0,0:1|0:0,0:0:0:0:
58,0,185710,2,0,B|85:62|85:62|74:133,1,135,8|0,0:1|0:0,0:0:0:0:
128,225,185929,6,0,L|20:267,1,114.750002188683,8|0,0:0|0:0,0:0:0:0:
9,252,186148,2,0,L|117:294,1,114.750002188683,8|0,0:1|0:0,0:0:0:0:
127,308,186367,6,0,L|118:201,1,101.250003862381,8|0,0:1|0:0,0:0:0:0:
134,194,186586,2,0,L|113:308,1,101.250003862381,8|0,0:1|0:0,0:0:0:0:
237,349,186805,6,0,L|198:256,1,87.749995983124,8|0,0:1|0:0,0:0:0:0:
224,253,187024,2,0,L|207:339,1,87.749995983124,8|0,0:1|0:0,0:0:0:0:
348,345,187243,6,0,L|295:285,1,74.2500022659302,8|0,0:1|0:0,0:0:0:0:
336,282,187462,2,0,L|319:367,1,74.2500022659302,8|0,0:1|0:0,0:0:0:0:
471,265,187681,6,0,L|406:246,1,60.7499981460572,8|0,0:0|0:0,0:0:0:0:
415,237,187900,2,0,L|431:302,1,60.7499981460572,8|0,0:1|0:0,0:0:0:0:
418,299,188119,2,0,L|466:252,1,60.7499981460572,8|0,0:1|0:0,0:0:0:0:
470,265,188338,2,0,L|405:246,1,60.7499981460572,8|0,0:1|0:0,0:0:0:0:
359,175,188557,6,0,L|287:188,2,62.9999980773926,8|8|8,0:1|0:1|0:1,0:0:0:0:
217,203,189214,1,8,0:1:0:0:
414,34,189433,1,8,0:0:0:0:
414,34,189487,1,8,0:0:0:0:
414,34,189542,1,8,0:0:0:0:
414,34,189597,1,8,0:0:0:0:
414,34,189652,1,8,0:1:0:0:
426,120,189871,1,8,0:1:0:0:
139,165,190090,5,8,0:1:0:0:
127,79,190309,2,0,P|125:166|46:267,1,180,12|0,0:1|0:0,0:0:0:0:
235,66,190637,1,8,0:1:0:0:
230,113,190747,2,0,P|212:64|213:4,1,90,8|0,0:1|0:0,0:0:0:0:
217,203,190966,1,8,0:1:0:0:
8,175,191184,6,0,P|96:180|239:321,1,270,12|0,0:0|0:0,0:0:0:0:
180,378,191622,1,8,0:1:0:0:
44,87,191841,1,8,0:1:0:0:
394,12,192060,6,0,L|458:29,1,60.7499981460572,12|0,0:1|0:0,0:0:0:0:
475,20,192279,2,0,L|428:66,1,60.7499981460572,8|0,0:1|0:0,0:0:0:0:
427,86,192498,2,0,L|409:22,1,60.7499981460572,8|0,0:1|0:0,0:0:0:0:
394,12,192717,2,0,L|458:29,1,60.7499981460572,8|0,0:1|0:0,0:0:0:0:
499,132,192936,6,0,L|435:200,1,74.2500022659302,8|0,0:0|0:0,0:0:0:0:
433,171,193155,2,0,L|509:159,1,74.2500022659302,8|0,0:1|0:0,0:0:0:0:
470,278,193374,6,0,L|363:253,1,87.749995983124,8|0,0:1|0:0,0:0:0:0:
385,241,193593,2,0,L|466:316,1,87.749995983124,8|0,0:1|0:0,0:0:0:0:
316,337,193812,6,0,L|282:231,1,101.250003862381,8|0,0:1|0:0,0:0:0:0:
304,242,194031,2,0,L|229:324,1,101.250003862381,8|0,0:1|0:0,0:0:0:0:
227,299,194250,2,0,L|335:322,1,101.250003862381,8|0,0:1|0:0,0:0:0:0:
316,337,194469,2,0,L|282:230,1,101.250003862381,8|0,0:1|0:0,0:0:0:0:
179,130,194688,6,0,B|153:181|153:181|117:227,1,114.750002188683,8|0,0:0|0:0,0:0:0:0:
92,213,194907,2,0,B|149:210|149:210|207:218,1,114.750002188683,8|0,0:1|0:0,0:0:0:0:
265,160,195126,2,0,B|233:112|233:112|211:57,1,114.750002188683,8|0,0:1|0:0,0:0:0:0:
133,36,195345,2,0,B|107:86|107:86|71:133,1,114.750002188683,8|0,0:1|0:0,0:0:0:0:
0,195,195564,6,0,B|29:252|29:252|39:328,1,128.249996575356,8|0,0:1|0:0,0:0:0:0:
16,322,195783,2,0,B|32:277|32:277|111:220,1,128.249996575356,8|0,0:1|0:0,0:0:0:0:
224,235,196002,6,0,B|220:299|220:299|151:362,1,141.749995674133,8|0,0:1|0:0,0:0:0:0:
120,326,196221,2,0,B|187:320|187:320|267:364,1,141.749995674133,8|0,0:1|0:0,0:0:0:0:
451,275,196440,6,0,B|408:340|408:340|305:309,1,155.250002961159,8|0,0:0|0:0,0:0:0:0:
307,286,196659,2,0,B|384:290|384:290|409:395,1,155.250002961159,8|0,0:1|0:0,0:0:0:0:
509,257,196878,6,0,B|421:226|421:226|389:118,1,168.75,0|0,1:0|0:0,0:0:0:0:
471,72,197097,1,8,0:1:0:0:
256,192,197316,5,8,0:1:0:0:
256,192,197371,1,8,0:1:0:0:
256,192,197425,1,8,0:1:0:0:
256,192,197480,1,8,0:1:0:0:
256,192,197535,1,8,0:1:0:0:
88,112,197754,5,8,0:0:0:0:
400,154,197973,1,8,0:1:0:0:
46,229,198192,5,8,0:0:0:0:
436,281,198411,1,8,0:1:0:0:
172,0,198630,5,8,0:0:0:0:
256,384,198849,1,8,0:0:0:0:
471,72,199068,5,12,0:1:0:0:
403,32,199287,1,8,0:1:0:0:
363,100,199506,1,2,0:0:0:0:
431,140,199725,1,8,0:1:0:0:
295,60,199944,6,0,P|301:162|235:267,1,202.500007724762,8|0,0:0|0:0,0:0:0:0:
332,319,200382,1,8,0:1:0:0:
55,199,200601,1,8,0:1:0:0:
35,227,200710,1,8,0:1:0:0:
63,273,200820,1,8,0:1:0:0:
164,299,201039,1,0,1:0:0:0:
52,87,201257,5,8,0:1:0:0:
63,104,201367,1,8,0:1:0:0:
98,113,201476,1,0,1:0:0:0:
140,74,201586,1,0,1:0:0:0:
192,73,201695,1,8,0:0:0:0:
246,333,201914,1,0,0:0:0:0:
509,20,202133,5,8,0:0:0:0:
462,10,202243,1,0,1:0:0:0:
415,0,202352,1,0,1:0:0:0:
181,175,202571,5,12,0:1:0:0:
190,184,202681,1,8,0:1:0:0:
202,185,202790,1,8,0:1:0:0:
211,194,202900,1,8,0:1:0:0:
206,220,203009,5,8,0:1:0:0:
230,208,203119,1,8,0:1:0:0:
256,213,203228,1,2,0:0:0:0:
280,201,203338,1,8,0:1:0:0:
303,168,203447,5,8,0:0:0:0:
298,208,203557,1,8,0:1:0:0:
336,220,203666,1,8,0:1:0:0:
331,260,203776,1,8,0:1:0:0:
368,244,203885,5,8,0:1:0:0:
411,276,203995,1,8,0:1:0:0:
462,261,204104,2,0,B|497:257|497:257|511:295,1,67.5000025749208,0|8,1:0|0:1,0:0:0:0:
429,158,204323,5,12,0:1:0:0:
435,151,204396,5,8,0:1:0:0:
435,142,204469,5,8,0:1:0:0:
441,135,204542,5,8,0:1:0:0:
441,126,204615,5,8,0:1:0:0:
447,119,204688,5,8,0:1:0:0:
447,110,204761,6,0,B|448:144|448:144|475:164,1,67.5000025749208,0|8,1:0|0:1,0:0:0:0:
355,91,204980,1,8,0:1:0:0:
206,220,205199,5,8,0:0:0:0:
212,236,205272,5,8,0:1:0:0:
200,249,205345,5,8,0:1:0:0:
206,265,205418,5,8,0:1:0:0:
194,278,205491,5,8,0:1:0:0:
200,294,205564,5,8,0:1:0:0:
188,307,205637,6,0,B|183:273|183:273|230:265,1,67.5000025749208,8|8,0:0|0:1,0:0:0:0:
97,344,205856,1,8,0:0:0:0:
298,354,206075,5,12,0:1:0:0:
63,273,206294,1,8,0:1:0:0:
144,38,206513,1,0,1:0:0:0:
386,254,206732,5,8,0:0:0:0:
56,138,206951,1,8,0:1:0:0:
379,119,207170,5,0,1:0:0:0:
352,243,207389,1,0,1:0:0:0:
325,367,207608,1,8,0:1:0:0:
279,31,207827,6,0,B|282:166|282:166|147:213,1,270,12|0,0:1|0:0,0:0:0:0:
0,329,208265,1,8,0:1:0:0:
17,380,208374,1,8,0:1:0:0:
34,384,208484,1,8,0:0:0:0:
32,210,208703,5,8,0:1:0:0:
114,384,208922,1,8,0:0:0:0:
480,174,209141,1,8,0:0:0:0:
398,0,209360,1,8,0:0:0:0:
256,192,209579,5,12,0:1:0:0:
255,205,209688,1,8,0:1:0:0:
254,218,209798,1,8,0:1:0:0:
265,225,209907,1,2,0:0:0:0:
276,232,210017,5,8,0:1:0:0:
298,217,210126,1,8,0:1:0:0:
321,202,210236,1,8,0:1:0:0:
321,175,210345,1,8,0:1:0:0:
321,147,210455,5,8,0:0:0:0:
281,137,210564,1,8,0:1:0:0:
241,127,210674,1,8,0:1:0:0:
208,151,210783,1,8,0:1:0:0:
175,175,210893,5,12,0:1:0:0:
194,224,211002,1,8,0:1:0:0:
214,273,211111,2,0,L|248:280,2,33.7500012874604,8|8|8,0:1|0:1|0:1,0:0:0:0:
357,27,211330,5,12,0:0:0:0:
356,33,211440,1,8,0:1:0:0:
355,39,211549,1,0,1:0:0:0:
354,45,211659,1,8,0:1:0:0:
353,51,211768,1,8,0:0:0:0:
352,57,211878,1,8,0:1:0:0:
351,63,211987,1,0,1:0:0:0:
350,69,212097,1,8,0:1:0:0:
349,75,212206,1,0,1:0:0:0:
348,81,212316,1,8,0:1:0:0:
347,87,212425,1,0,1:0:0:0:
346,93,212535,1,8,0:1:0:0:
345,99,212644,1,8,0:0:0:0:
344,105,212754,1,8,0:1:0:0:
343,111,212863,1,0,1:0:0:0:
342,117,212973,1,8,0:1:0:0:
341,123,213082,1,0,1:0:0:0:
337,136,213192,1,8,0:1:0:0:
333,149,213301,1,0,1:0:0:0:
329,162,213411,1,8,0:1:0:0:
325,175,213520,1,8,0:0:0:0:
314,192,213630,1,8,0:1:0:0:
303,209,213739,1,0,1:0:0:0:
292,226,213849,1,8,0:1:0:0:
281,243,213958,1,0,1:0:0:0:
259,260,214068,1,8,0:1:0:0:
238,277,214177,1,0,1:0:0:0:
217,294,214287,1,8,0:1:0:0:
196,311,214396,1,8,0:0:0:0:
169,332,214506,1,8,0:1:0:0:
139,347,214615,1,0,1:0:0:0:
109,363,214725,1,8,0:1:0:0:
125,384,214834,5,12,1:0:0:0:
106,0,215053,1,0,1:0:0:0:
218,384,215272,5,12,0:0:0:0:
199,0,215491,1,0,1:0:0:0:
311,384,215710,5,4,1:0:0:0:
292,0,215929,1,0,1:0:0:0:
404,384,216148,5,12,0:0:0:0:
385,0,216367,1,0,1:0:0:0:
124,243,216586,5,12,0:0:0:0:
105,222,216732,1,0,1:0:0:0:
109,195,216878,1,0,1:0:0:0:
204,191,217024,5,12,0:0:0:0:
190,148,217170,1,0,1:0:0:0:
221,116,217316,1,0,1:0:0:0:
297,232,217462,5,12,0:0:0:0:
297,168,217608,1,0,1:0:0:0:
356,148,217754,1,0,1:0:0:0:
371,293,217900,5,12,0:0:0:0:
432,240,218046,1,12,0:0:0:0:
507,268,218192,1,12,0:0:0:0:
508,292,218338,5,6,0:0:0:0:
508,292,220090,5,2,0:0:0:0:
441,329,220966,1,2,0:0:0:0:
365,315,221841,1,2,0:0:0:0:
365,315,223593,5,2,0:0:0:0:
405,249,224469,1,2,0:0:0:0:
354,190,225345,1,2,0:0:0:0:
354,190,227097,5,2,0:0:0:0:
427,217,227973,2,0,L|473:196,1,45,2|0,0:0|0:0,0:0:0:0:
470,188,228301,1,2,0:0:0:0:
471,178,228411,2,0,L|429:148,1,45,2|0,0:0|0:0,0:0:0:0:
102,27,228849,6,0,P|111:113|88:225,1,180,12|0,0:1|0:0,0:0:0:0:
18,315,229506,1,8,0:1:0:0:
57,380,229725,1,0,1:0:0:0:
251,338,229944,5,2,0:0:0:0:
212,273,230163,1,2,0:0:0:0:
175,339,230382,1,8,0:1:0:0:
288,272,230601,5,8,0:1:0:0:
221,159,230820,2,0,P|258:185|305:198,1,90,0|2,1:0|0:0,0:0:0:0:
378,179,231257,1,8,0:1:0:0:
481,66,231476,2,0,P|444:92|397:105,1,90,8|0,0:0|0:0,0:0:0:0:
286,42,231914,1,8,0:1:0:0:
216,80,232133,1,8,0:1:0:0:
288,299,232352,6,0,P|273:218|289:107,1,180,8|0,0:1|0:0,0:0:0:0:
218,0,233009,1,8,0:1:0:0:
216,80,233228,1,0,1:0:0:0:
433,234,233447,5,2,0:0:0:0:
431,314,233666,1,2,0:0:0:0:
501,276,233885,1,8,0:1:0:0:
363,272,234104,5,8,0:1:0:0:
277,379,234323,2,0,P|320:374|368:344,1,90,0|0,1:0|0:0,0:0:0:0:
433,234,234761,1,8,0:1:0:0:
216,80,234980,5,8,0:0:0:0:
271,181,235199,1,8,0:1:0:0:
211,258,235418,1,8,0:1:0:0:
130,256,235637,1,8,0:1:0:0:
120,248,235747,1,8,0:1:0:0:
107,214,235856,6,0,P|185:202|382:251,1,270,12|8,0:1|0:1,0:0:0:0:
512,139,236732,1,0,1:0:0:0:
259,22,236951,5,2,0:0:0:0:
234,95,237170,1,2,0:0:0:0:
310,81,237389,1,8,0:1:0:0:
183,36,237608,5,8,0:1:0:0:
80,123,237827,1,8,0:0:0:0:
131,182,238046,1,8,0:1:0:0:
68,339,238265,5,8,0:1:0:0:
66,347,238338,5,8,0:1:0:0:
64,355,238411,5,8,0:1:0:0:
62,363,238484,5,8,0:0:0:0:
19,276,238703,1,8,0:1:0:0:
149,348,238922,1,8,0:1:0:0:
240,310,239141,1,8,0:1:0:0:
255,76,239360,6,0,B|250:186|250:186|310:277,1,215.999993408203,12|0,0:1|0:0,0:0:0:0:
414,310,240017,1,8,0:1:0:0:
155,107,240236,1,0,1:0:0:0:
429,30,240455,5,2,0:0:0:0:
390,128,240674,1,2,0:0:0:0:
495,113,240893,1,8,0:1:0:0:
324,45,241111,5,8,0:1:0:0:
456,211,241330,2,0,P|409:180|346:174,1,107.999996704102,0|0,1:0|0:0,0:0:0:0:
287,239,241768,1,8,0:1:0:0:
102,236,241987,2,0,P|149:205|212:199,1,107.999996704102,8|0,0:0|0:0,0:0:0:0:
332,326,242425,1,8,0:1:0:0:
280,384,242644,1,8,0:1:0:0:
332,326,242863,6,0,P|299:224|306:107,1,215.999993408203,8|0,0:1|0:0,0:0:0:0:
86,3,243520,1,8,0:1:0:0:
37,75,243739,1,0,1:0:0:0:
253,290,243958,5,2,0:0:0:0:
280,384,244177,1,2,0:0:0:0:
185,360,244396,1,8,0:1:0:0:
348,314,244615,5,8,0:1:0:0:
227,196,244834,2,0,P|269:214|341:213,1,107.999996704102,0|0,1:0|0:0,0:0:0:0:
420,156,245272,1,8,0:1:0:0:
175,24,245491,5,8,0:0:0:0:
206,167,245710,1,8,0:1:0:0:
98,238,245929,1,8,0:1:0:0:
9,201,246148,1,8,0:1:0:0:
0,178,246257,1,8,0:1:0:0:
13,136,246367,6,0,P|95:197|210:394,1,323.999990112305,12|8,0:1|0:1,0:0:0:0:
267,91,247243,1,0,1:0:0:0:
206,167,247462,5,2,0:0:0:0:
364,106,247681,1,2,0:0:0:0:
231,0,247900,1,8,0:1:0:0:
339,273,248119,5,8,0:1:0:0:
322,22,248338,1,0,1:0:0:0:
422,7,248557,1,8,0:1:0:0:
493,133,248776,5,8,0:1:0:0:
495,151,248885,1,8,0:1:0:0:
497,169,248995,5,8,0:0:0:0:
454,208,249141,1,8,0:1:0:0:
399,190,249287,1,8,0:1:0:0:
316,131,249433,5,0,1:0:0:0:
276,138,249579,1,8,0:1:0:0:
259,164,249725,1,8,0:1:0:0:
325,209,249871,6,0,B|271:107|271:107|148:59,1,233.999989288331,12|0,0:1|0:0,0:0:0:0:
26,184,250528,1,8,0:1:0:0:
331,52,250747,1,0,1:0:0:0:
16,92,250966,5,2,0:0:0:0:
133,151,251184,1,8,0:1:0:0:
125,20,251403,1,8,0:1:0:0:
24,223,251622,5,8,0:1:0:0:
252,202,251841,2,0,P|193:208|142:250,1,116.999994644165,0|0,1:0|0:0,0:0:0:0:
276,106,252279,1,8,0:1:0:0:
98,0,252498,2,0,P|144:34|202:39,1,116.999994644165,8|0,0:0|0:0,0:0:0:0:
353,203,252936,6,0,P|299:129|301:-1,1,216,8|0,0:1|0:0,0:0:0:0:
252,202,253374,1,8,0:1:0:0:
445,55,253593,5,0,1:0:0:0:
458,59,253703,2,0,B|476:68|476:68|436:79,1,58.4999973220826,8|0,0:1|0:0,0:0:0:0:
276,106,254031,1,8,0:1:0:0:
493,247,254250,1,8,0:0:0:0:
499,304,254360,1,2,0:0:0:0:
457,331,254469,1,2,0:0:0:0:
415,326,254579,1,2,0:0:0:0:
398,343,254688,1,8,0:1:0:0:
396,353,254798,1,8,0:1:0:0:
399,358,254907,1,8,0:1:0:0:
252,202,255126,5,8,0:1:0:0:
213,326,255345,2,0,P|233:263|216:162,1,144,0|0,1:0|0:0,0:0:0:0:
458,59,255783,1,8,0:1:0:0:
322,263,256002,6,0,P|241:197|213:55,1,242.999992584229,8|0,0:0|0:0,0:0:0:0:
187,253,256440,1,8,0:1:0:0:
213,326,256659,1,8,0:1:0:0:
13,329,256878,6,0,P|156:296|292:333,1,288,12|0,0:1|0:0,0:0:0:0:
389,18,257535,1,8,0:1:0:0:
512,0,257754,1,0,1:0:0:0:
406,196,257973,5,2,0:0:0:0:
295,118,258192,1,2,0:0:0:0:
512,111,258411,1,8,0:1:0:0:
189,203,258630,6,0,P|96:194|26:135,1,175.499991966248,8|0,0:1|0:0,0:0:0:0:
147,286,259068,1,8,0:1:0:0:
52,64,259287,1,8,0:1:0:0:
0,384,259506,1,0,1:0:0:0:
317,279,259725,5,8,0:1:0:0:
317,279,259798,5,8,0:1:0:0:
336,329,259944,1,8,0:0:0:0:
329,359,260090,1,8,0:0:0:0:
318,376,260236,1,8,0:0:0:0:
308,384,260382,5,12,0:1:0:0:
256,192,260601,1,12,0:1:0:0:
204,0,260820,1,12,0:1:0:0:
308,384,261257,5,0,1:0:0:0:
434,291,261476,5,8,0:1:0:0:
432,276,261549,5,8,0:1:0:0:
418,277,261622,5,8,0:1:0:0:
421,295,261695,5,8,0:1:0:0:
343,138,261914,1,0,1:0:0:0:
372,150,262024,1,0,1:0:0:0:
434,107,262133,2,0,P|418:187|302:287,1,202.500007724762,12|0,0:1|0:0,0:0:0:0:
241,298,262571,1,8,0:1:0:0:
217,70,262790,6,0,P|246:128|249:205,1,135.000005149842,8|8,0:1|0:0,0:0:0:0:
146,330,263228,1,8,0:1:0:0:
298,380,263447,1,2,0:0:0:0:
241,298,263666,5,8,0:1:0:0:
434,107,263885,2,0,P|342:106|44:222,1,405.000015449525,12|8,0:1|0:1,0:0:0:0:
13,374,264761,1,0,1:0:0:0:
153,135,264980,5,2,0:0:0:0:
87,90,265199,1,2,0:0:0:0:
224,96,265418,1,8,0:1:0:0:
200,366,265637,2,0,P|200:300|227:230,1,135.000005149842,8|0,0:1|1:0,0:0:0:0:
456,70,266075,5,2,0:0:0:0:
358,2,266294,1,8,0:1:0:0:
439,191,266513,5,8,0:0:0:0:
388,216,266659,1,8,0:1:0:0:
398,270,266805,1,8,0:1:0:0:
470,309,266951,5,0,1:0:0:0:
470,342,267097,1,8,0:1:0:0:
444,364,267243,1,8,0:1:0:0:
367,342,267389,6,0,P|399:213|390:19,1,323.999990112305,12|8,0:1|0:1,0:0:0:0:
439,191,268046,1,8,0:1:0:0:
106,359,268265,1,0,1:0:0:0:
3,150,268484,5,2,0:0:0:0:
143,208,268703,1,12,0:1:0:0:
123,57,268922,1,8,0:1:0:0:
90,138,269141,6,0,P|187:128|291:139,1,202.500007724762,12|0,0:1|0:0,0:0:0:0:
382,114,269579,1,0,1:0:0:0:
297,357,269798,5,8,0:1:0:0:
307,370,269907,1,8,0:1:0:0:
304,384,270017,5,8,0:0:0:0:
335,357,270126,1,8,0:1:0:0:
343,317,270236,1,8,0:1:0:0:
374,290,270345,1,8,0:1:0:0:
382,251,270455,1,0,1:0:0:0:
413,224,270564,1,0,1:0:0:0:
422,184,270674,1,8,0:1:0:0:
453,157,270783,1,8,0:1:0:0:
462,117,270893,5,12,0:1:0:0:
416,360,271112,1,12,0:1:0:0:
173,314,271330,1,4,1:0:0:0:
258,280,271549,1,2,0:0:0:0:
219,71,271768,5,8,0:0:0:0:
175,39,271914,1,8,0:1:0:0:
131,6,272060,1,8,0:1:0:0:
104,93,272206,5,0,1:0:0:0:
85,124,272352,1,8,0:1:0:0:
67,155,272498,1,8,0:1:0:0:
9,101,272644,5,12,0:1:0:0:
256,192,272863,1,12,0:1:0:0:
503,283,273082,1,12,0:1:0:0:
310,98,273520,5,8,0:0:0:0:
202,286,273739,1,2,0:0:0:0:
184,28,273958,2,0,P|230:105|256:195,1,180,8|0,0:1|0:0,0:0:0:0:
294,346,274287,1,0,1:0:0:0:
287,384,274396,6,0,P|306:358|337:348,2,60,0|2|2,1:0|0:0|0:0,0:0:0:0:
415,151,275053,5,8,0:1:0:0:
92,89,275272,1,0,1:0:0:0:
84,92,275382,1,8,0:1:0:0:
77,95,275491,1,8,0:1:0:0:
274,22,275710,1,2,0:0:0:0:
212,384,275929,5,8,0:0:0:0:
183,339,276039,1,8,0:0:0:0:
163,290,276148,1,8,0:1:0:0:
138,364,276367,5,8,0:1:0:0:
238,312,276586,1,8,0:1:0:0:
197,77,276805,5,8,0:1:0:0:
191,67,276878,5,8,0:1:0:0:
182,70,276951,5,8,0:1:0:0:
186,81,277024,5,12,0:0:0:0:
215,192,277243,1,8,0:1:0:0:
21,263,277462,5,8,0:0:0:0:
52,244,277608,1,8,0:0:0:0:
63,205,277754,1,8,0:0:0:0:
15,140,277900,6,0,P|22:207|59:292,1,135.000005149842,12|0,0:1|1:0,0:0:0:0:
328,236,278338,1,2,0:0:0:0:
356,354,278557,1,8,0:1:0:0:
425,107,278776,5,0,1:0:0:0:
457,187,278995,5,8,0:1:0:0:
339,94,279214,1,4,1:0:0:0:
478,38,279433,1,2,0:0:0:0:
328,236,279652,6,0,P|301:148|199:20,1,202.500007724762,12|0,0:1|0:0,0:0:0:0:
227,216,280090,1,0,1:0:0:0:
317,0,280309,1,8,0:1:0:0:
150,187,280528,5,8,0:0:0:0:
395,26,280747,1,8,0:1:0:0:
72,14,280966,6,0,P|106:134|93:261,1,242.999992584229,4|0,1:0|0:0,0:0:0:0:
213,137,281403,5,12,0:1:0:0:
194,222,281622,1,8,0:1:0:0:
270,285,281841,1,8,0:1:0:0:
376,248,282060,1,8,0:1:0:0:
402,120,282279,1,0,1:0:0:0:
297,0,282498,1,8,0:1:0:0:
127,56,282717,1,8,0:0:0:0:
70,268,282936,1,8,0:1:0:0:
508,366,283155,6,0,P|423:338|316:328,1,180,12|0,0:0|0:0,0:0:0:0:
262,358,284250,1,2,0:0:0:0:
268,367,284469,6,0,B|305:392|364:369|380:277|298:185,1,256.499992172241,2|0,0:0|0:0,0:0:0:0:
267,167,286659,6,0,P|302:177|345:167,1,72,8|0,0:1|0:0,0:0:0:0:
298,229,287097,2,0,P|289:193|259:161,1,72,2|0,0:0|0:0,0:0:0:0:
336,171,287535,2,0,P|309:196|297:238,1,72,2|0,0:0|0:0,0:0:0:0:
301,189,287973,5,2,0:0:0:0:
301,189,288192,1,2,0:0:0:0:
361,299,288411,6,0,P|396:309|439:299,1,72,2|0,0:0|0:0,0:0:0:0:
430,303,288849,2,0,P|395:293|352:303,1,72,2|0,0:0|0:0,0:0:0:0:
268,321,289287,1,8,0:1:0:0:
425,203,289615,1,2,0:0:0:0:
425,203,289725,1,8,0:1:0:0:
404,107,289944,1,8,0:1:0:0:
318,65,290163,6,0,P|283:75|239:65,1,72,8|0,0:1|0:0,0:0:0:0:
240,29,290601,2,0,P|266:54|279:97,1,72,2|0,0:0|0:0,0:0:0:0:
248,115,291039,2,0,P|256:79|312:31,2,108,0|0|8,1:0|1:0|0:1,0:0:0:0:
164,146,291914,6,0,P|176:179|202:204,1,72,2|0,0:0|0:0,0:0:0:0:
202,204,292352,2,0,P|189:170|163:145,1,72,2|0,0:0|0:0,0:0:0:0:
85,144,292790,1,8,0:1:0:0:
68,274,293119,1,2,0:0:0:0:
68,274,293228,1,8,0:1:0:0:
30,200,293447,1,8,0:1:0:0:
106,348,293666,5,8,0:1:0:0:
85,144,294104,1,2,0:0:0:0:
289,123,294542,2,0,P|246:154|181:170,2,108,0|0|8,1:0|1:0|0:1,0:0:0:0:
383,98,295418,6,0,P|388:62|377:27,1,72,2|0,0:0|0:0,0:0:0:0:
440,58,295856,2,0,P|406:71|381:98,1,72,2|0,0:0|0:0,0:0:0:0:
377,28,296294,2,0,P|405:50|480:49,2,108,8|8|8,0:1|0:1|0:1,0:0:0:0:
456,141,297170,6,0,P|431:166|398:180,1,72,8|0,0:1|0:0,0:0:0:0:
461,210,297608,2,0,P|450:175|455:140,1,72,2|0,0:0|0:0,0:0:0:0:
398,180,298046,2,0,P|432:188|480:251,2,108,0|0|8,1:0|1:0|0:1,0:0:0:0:
316,150,298922,6,0,P|282:163|258:189,1,72,2|0,0:0|0:0,0:0:0:0:
277,273,299360,1,2,0:0:0:0:
176,163,299798,1,2,0:0:0:0:
162,158,299907,1,2,0:0:0:0:
149,159,300017,1,2,0:0:0:0:
97,211,300236,1,2,0:0:0:0:
89,296,300455,1,2,0:0:0:0:
181,293,300674,6,0,P|159:265|154:223,1,72,2|0,0:0|0:0,0:0:0:0:
45,377,301112,2,0,P|80:371|119:388,1,72,2|0,0:0|0:0,0:0:0:0:
89,296,301549,1,2,0:0:0:0:
89,296,301768,1,2,0:0:0:0:
40,217,301987,6,0,P|26:250|-7:275,1,72,2|2,0:0|0:0,0:0:0:0:
89,296,302425,1,2,0:0:0:0:
89,296,302644,1,2,0:0:0:0:
153,229,302863,1,2,0:0:0:0:
54,49,303301,6,0,P|40:38|50:53,1,45,2|2,0:0|0:0,0:0:0:0:
119,96,303958,1,2,0:0:0:0:
190,57,304177,6,0,P|205:88|249:113,1,72,2|0,0:0|0:0,0:0:0:0:
300,155,304615,1,2,0:0:0:0:
300,155,304834,1,2,0:0:0:0:
375,63,305053,2,0,P|340:60|297:86,1,72,2|0,0:0|0:0,0:0:0:0:
278,221,305491,2,0,P|297:192|296:141,1,72,2|2,0:0|0:0,0:0:0:0:
235,109,305929,5,2,0:0:0:0:
307,75,306148,1,2,0:0:0:0:
300,155,306367,1,2,0:0:0:0:
242,29,306805,6,0,P|233:14|236:31,1,45,2|2,0:0|0:0,0:0:0:0:
235,109,307462,1,2,0:0:0:0:
167,149,307681,6,0,P|167:185|196:220,1,72,2|0,0:0|0:0,0:0:0:0:
278,281,308119,1,2,0:0:0:0:
330,221,308338,2,0,P|261:204|204:251,2,144,2|2|2,0:0|0:0|0:0,0:0:0:0:
187,327,309433,2,0,P|218:309|233:266,1,72,2|2,0:0|0:0,0:0:0:0:
186,213,309871,1,2,0:0:0:0:
242,29,310309,6,0,P|233:14|236:31,1,45,2|2,0:0|0:0,0:0:0:0:
359,129,310966,1,2,0:0:0:0:
424,172,311184,6,0,P|436:139|428:92,1,72,2|0,0:0|0:0,0:0:0:0:
318,10,311622,2,0,P|340:36|385:53,1,72,2|0,0:0|0:0,0:0:0:0:
512,0,312060,6,0,P|477:6|440:36,1,72,2|2,0:0|0:0,0:0:0:0:
432,102,312498,1,0,0:0:0:0:
469,266,312936,6,0,P|472:273|465:266,2,22.5,2|0|0,0:0|0:0|0:0,0:0:0:0:
392,228,313593,1,2,0:0:0:0:
355,251,313812,1,2,0:0:0:0:
371,210,314031,1,2,0:0:0:0:
382,253,314250,2,0,P|369:235|346:228,1,45,2|0,0:0|0:0,0:0:0:0:
