osu file format v14

[General]
AudioFilename: audio.mp3
AudioLeadIn: 0
PreviewTime: 48944
Countdown: 0
SampleSet: Soft
StackLeniency: 0.7
Mode: 0
LetterboxInBreaks: 0
WidescreenStoryboard: 0

[Editor]
DistanceSpacing: 0.7
BeatDivisor: 4
GridSize: 4
TimelineZoom: 2.3

[Metadata]
Title:Ring Ring Rainbow!! (TV size)
TitleUnicode:Ring Ring Rainbow!! (TV size)
Artist:YUIKAORI
ArtistUnicode:ゆいかおり
Creator:Garden
Version:Prismatic Extra
Source:城下町のダンデライオン
Tags:Left toara_fict Joukamachi no Dandelion castle town opening tvsize 小倉 唯 ogura yui 石原 夏織 ishihara kaori
BeatmapID:993361
BeatmapSetID:463905

[Difficulty]
HPDrainRate:6.5
CircleSize:4
OverallDifficulty:8.5
ApproachRate:9.1
SliderMultiplier:2
SliderTickRate:1

[Events]
//Background and Video events
0,0,"hikari.jpg",0,0
//Break Periods
//Storyboard Layer 0 (Background)
//Storyboard Layer 1 (Fail)
//Storyboard Layer 2 (Pass)
//Storyboard Layer 3 (Foreground)
//Storyboard Sound Samples

[TimingPoints]
298,331.491712707182,4,2,1,60,1,0
878,-100,4,2,1,10,0,0
960,-200,4,2,1,60,0,0
3281,-100,4,2,1,60,0,0
3530,-100,4,2,1,10,0,0
3612,-166.666666666667,4,2,1,60,0,0
4773,-142.857142857143,4,2,1,60,0,0
5270,-125,4,2,1,60,0,0
5601,-100,4,2,1,70,0,0
6181,-100,4,2,1,10,0,0
6264,-117.647058823529,4,2,1,70,0,0
8253,-100,4,2,1,70,0,0
8833,-100,4,2,1,10,0,0
8916,-111.111111111111,4,2,1,70,0,0
10905,-100,4,2,1,70,0,0
11485,-100,4,2,1,10,0,0
11568,-100,4,2,1,70,0,0
13557,-142.857142857143,4,2,1,60,0,0
15878,-111.111111111111,4,2,2,60,0,0
16126,-111.111111111111,4,2,1,10,0,0
16209,-142.857142857143,4,2,1,60,0,0
18447,-142.857142857143,4,2,1,10,0,0
18530,-125,4,2,2,60,0,0
18861,-142.857142857143,4,2,1,60,0,0
21181,-100,4,2,2,60,0,0
21430,-100,4,2,1,10,0,0
21513,-111.111111111111,4,2,1,70,0,0
37425,-133.333333333333,4,2,1,70,0,0
42728,-125,4,2,1,70,0,0
43060,-166.666666666667,4,2,1,70,0,0
43391,-111.111111111111,4,2,1,70,0,0
44386,-166.666666666667,4,2,1,70,0,0
44717,-111.111111111111,4,2,1,70,0,0
46706,-100,4,2,1,70,0,0
47204,-200,4,2,1,70,0,0
47535,-200,4,2,1,35,0,0
47701,-100,4,2,1,70,0,0
48198,-166.666666666667,4,2,1,70,0,0
48695,-111.111111111111,4,2,1,70,0,0
49027,-83.3333333333333,4,2,1,70,0,0
49275,-83.3333333333333,4,2,1,10,0,0
49358,-90.9090909090909,4,2,1,80,0,1
59635,-100,4,2,1,80,0,0
59966,-90.9090909090909,4,2,1,80,0,1
67922,-125,4,2,1,80,0,0
69911,-111.111111111111,4,2,1,80,0,0
70242,-90.9090909090909,4,2,1,80,0,0
70491,-90.9090909090909,4,2,1,10,0,0
70574,-125,4,2,1,80,0,0
73391,-166.666666666667,4,2,1,80,0,0
73640,-166.666666666667,4,2,1,10,0,0
73723,-166.666666666667,4,2,1,80,0,0
74137,-166.666666666667,4,2,1,10,0,0
74220,-166.666666666667,4,2,1,80,0,0
74635,-166.666666666667,4,2,1,10,0,0
74717,-166.666666666667,4,2,1,80,0,0
75132,-166.666666666667,4,2,1,10,0,0
75215,-100,4,2,1,80,0,0
75795,-100,4,2,1,10,0,0
75878,-166.666666666667,4,2,1,80,0,0
76292,-166.666666666667,4,2,1,10,0,0
76375,-166.666666666667,4,2,1,80,0,0
76789,-166.666666666667,4,2,1,10,0,0
76872,-166.666666666667,4,2,1,80,0,0
77286,-166.666666666667,4,2,1,10,0,0
77369,-166.666666666667,4,2,1,80,0,0
77784,-166.666666666667,4,2,1,10,0,0
77867,-100,4,2,1,80,0,0
78530,-100,4,2,1,80,0,1
85159,-166.666666666667,4,2,1,80,0,1
86485,-166.666666666667,4,2,1,80,0,0
88474,-100,4,2,1,5,0,0

[Colours]
Combo1 : 255,255,132
Combo2 : 255,49,152
Combo3 : 142,193,255
Combo4 : 255,134,255

[HitObjects]
107,141,298,6,0,L|90:249,1,100,12|0,0:0|0:0,0:0:0:0:
198,54,629,2,0,P|283:46|347:69,1,150,12|0,0:0|0:0,0:0:0:0:
342,66,960,5,8,0:1:0:0:
424,161,1126,2,0,L|429:221,1,50,8|2,0:1|0:1,0:0:0:0:
308,284,1458,2,0,L|302:228,1,50,8|2,0:1|0:1,0:0:0:0:
348,72,1789,1,8,0:1:0:0:
424,161,1955,1,2,0:1:0:0:
229,115,2121,2,0,P|201:109|169:109,2,50,8|2|8,0:1|0:1|0:1,0:0:0:0:
124,209,2618,2,0,P|96:214|62:213,1,50,8|0,0:1|0:0,0:0:0:0:
183,287,2949,5,12,0:0:0:0:
229,115,3115,1,8,0:0:0:0:
407,189,3281,2,0,P|330:207|249:213,1,150,12|0,0:0|0:0,0:0:0:0:
259,212,3612,5,8,0:1:0:0:
374,249,3778,2,0,L|381:312,1,59.9999981689454,8|2,0:1|0:1,0:0:0:0:
485,216,4110,2,0,L|493:152,1,59.9999981689454,8|2,0:1|0:1,0:0:0:0:
384,50,4441,2,0,L|389:119,1,59.9999981689454,8|2,0:1|0:1,0:0:0:0:
374,249,4773,1,2,0:1:0:0:
349,240,4856,1,2,0:1:0:0:
323,237,4938,6,0,L|285:237,1,34.9999989318848,8|0,0:0|0:0,0:0:0:0:
148,325,5104,2,0,L|204:320,1,34.9999989318848,2|0,0:1|0:0,0:0:0:0:
283,332,5270,2,0,L|275:379,1,40,8|0,0:0|0:0,0:0:0:0:
188,230,5436,2,0,L|182:175,1,40,8|0,0:0|0:0,0:0:0:0:
288,93,5601,6,0,L|388:97,1,100,12|0,0:0|0:0,0:0:0:0:
179,34,5933,2,0,P|98:48|54:103,1,150,12|0,0:0|0:0,0:0:0:0:
56,97,6264,5,2,0:1:0:0:
149,230,6430,2,0,P|157:189|162:146,1,85.0000016212464,0|8,0:0|0:0,0:0:0:0:
32,259,6762,2,0,P|35:308|43:350,1,85.0000016212464,0|2,0:0|0:1,0:0:0:0:
252,322,7093,1,0,0:0:0:0:
149,230,7259,1,8,0:0:0:0:
349,176,7425,1,0,3:0:0:0:
349,176,7507,1,0,3:0:0:0:
349,176,7590,2,0,L|339:274,1,85.0000016212464,0|0,3:0|0:0,0:0:0:0:
431,85,7922,1,8,0:0:0:0:
476,240,8088,1,0,0:0:0:0:
321,155,8253,6,0,P|265:143|205:151,1,100,12|0,0:0|0:0,0:0:0:0:
120,346,8585,2,0,L|112:188,1,150,12|0,0:0|0:0,0:0:0:0:
112,196,8916,5,2,0:1:0:0:
265,246,9082,2,0,P|307:257|374:256,1,89.9999972534181,0|8,0:0|0:0,0:0:0:0:
476,182,9414,2,0,P|481:138|480:85,1,89.9999972534181,0|2,0:0|0:1,0:0:0:0:
381,258,9745,2,0,L|388:349,1,89.9999972534181,0|8,0:0|0:0,0:0:0:0:
370,154,10077,1,0,3:0:0:0:
370,154,10159,1,0,3:0:0:0:
370,154,10242,2,0,L|276:142,1,89.9999972534181,0|0,3:0|0:0,0:0:0:0:
168,90,10574,1,8,0:0:0:0:
333,28,10739,1,0,0:0:0:0:
271,228,10905,6,0,L|171:215,1,100,12|0,0:0|0:0,0:0:0:0:
18,346,11237,2,0,P|99:335|175:338,1,150,12|0,0:0|0:0,0:0:0:0:
167,337,11568,5,2,0:1:0:0:
53,245,11734,2,0,L|48:133,1,100,0|8,0:0|0:0,0:0:0:0:
129,46,12065,2,0,P|174:35|239:35,1,100,0|2,0:0|0:1,0:0:0:0:
422,85,12397,1,8,0:0:0:0:
249,158,12563,1,8,0:0:0:0:
426,282,12728,2,0,B|405:150|405:150|427:69,1,200,8|0,0:0|0:0,0:0:0:0:
249,158,13226,2,0,P|218:163|193:164,1,50,2|0,0:0|0:0,0:0:0:0:
69,244,13391,2,0,P|100:240|132:241,1,50,2|0,0:0|0:0,0:0:0:0:
246,265,13557,5,8,0:0:0:0:
103,147,13723,1,8,0:0:0:0:
271,32,13889,1,8,0:0:0:0:
271,32,14220,1,2,0:1:0:0:
346,108,14386,2,0,P|349:148|349:190,2,69.9999978637696,0|2|0,0:0|0:1|0:0,0:0:0:0:
414,23,14883,5,8,0:0:0:0:
452,161,15049,1,8,0:0:0:0:
241,128,15215,1,8,0:0:0:0:
241,128,15546,2,0,L|147:122,1,69.9999978637696,2|0,0:1|0:0,0:0:0:0:
300,73,15878,2,0,P|283:151|281:213,1,134.999995880127,12|0,0:0|0:0,0:0:0:0:
280,205,16209,5,8,0:0:0:0:
429,187,16375,1,8,0:0:0:0:
315,329,16541,2,0,L|222:325,1,69.9999978637696,8|0,0:0|0:0,0:0:0:0:
147,247,16872,2,0,P|141:205|149:161,1,69.9999978637696,2|0,0:1|0:0,0:0:0:0:
261,72,17204,2,0,P|267:108|265:143,1,69.9999978637696,2|0,0:1|0:0,0:0:0:0:
166,32,17535,5,8,0:0:0:0:
350,22,17701,1,8,0:0:0:0:
166,32,17867,2,0,L|90:47,1,69.9999978637696,8|0,0:0|0:0,0:0:0:0:
28,122,18198,2,0,P|8:175|21:246,1,104.999996795654,2|0,0:1|0:0,0:0:0:0:
35,247,18530,2,0,L|25:333,1,80,10|0,0:0|0:0,0:0:0:0:
150,190,18861,5,8,0:0:0:0:
255,288,19027,1,8,0:0:0:0:
234,93,19193,1,8,0:0:0:0:
234,93,19524,2,0,L|155:84,1,69.9999978637696,2|0,0:1|0:0,0:0:0:0:
320,166,19856,2,0,L|401:157,1,69.9999978637696,2|0,0:1|0:0,0:0:0:0:
490,50,20187,5,8,0:0:0:0:
413,169,20353,1,8,0:0:0:0:
234,93,20518,2,0,P|207:165|232:241,1,139.999995727539,8|2,0:0|0:1,0:0:0:0:
320,320,21016,2,0,L|316:373,1,34.9999989318848,2|0,0:1|0:0,0:0:0:0:
299,239,21181,6,0,B|222:225|222:225|246:272|237:315,1,150,12|0,0:0|0:0,0:0:0:0:
227,329,21513,6,0,B|188:324|165:313|165:313|97:323|44:302,1,179.999994506836,12|8,0:0|0:0,0:0:0:0:
221,224,22010,1,0,0:0:0:0:
91,161,22176,2,0,B|88:118|88:118|105:73,1,89.9999972534181,2|2,0:1|0:1,0:0:0:0:
282,61,22507,1,8,0:0:0:0:
221,224,22673,1,0,0:0:0:0:
190,23,22839,5,2,0:0:0:0:
361,129,23005,1,0,0:0:0:0:
188,126,23170,1,10,0:0:0:0:
417,38,23336,2,0,B|454:81|454:81|469:204,1,179.999994506836,2|0,0:0|0:0,0:0:0:0:
349,271,23751,1,2,0:0:0:0:
324,276,23833,2,0,P|304:283|283:297,1,44.999998626709,2|0,0:0|0:0,0:0:0:0:
456,328,23999,2,0,P|484:337|505:340,1,44.999998626709,2|0,0:0|0:0,0:0:0:0:
468,203,24165,6,0,P|426:184|374:175,1,89.9999972534181,2|0,0:0|0:0,0:0:0:0:
417,38,24496,1,10,0:0:0:0:
295,116,24662,2,0,L|283:311,1,179.999994506836,2|2,0:1|0:1,0:0:0:0:
176,373,25159,2,0,L|166:281,1,89.9999972534181,8|0,0:0|0:0,0:0:0:0:
283,295,25491,5,2,0:0:0:0:
103,197,25657,1,0,0:0:0:0:
103,197,25822,2,0,P|145:181|190:180,1,89.9999972534181,10|2,0:0|0:1,0:0:0:0:
360,216,26154,1,0,0:0:0:0:
166,283,26320,1,2,0:1:0:0:
380,310,26485,2,0,P|424:306|465:286,1,89.9999972534181,8|0,0:0|0:0,0:0:0:0:
296,144,26817,5,2,0:0:0:0:
296,144,26983,2,0,P|247:131|198:135,1,89.9999972534181,0|10,0:0|0:0,0:0:0:0:
72,183,27314,1,2,0:1:0:0:
160,341,27480,1,0,0:0:0:0:
242,228,27646,1,2,0:1:0:0:
160,341,27811,1,8,0:0:0:0:
344,316,27977,1,0,0:0:0:0:
296,144,28143,6,0,B|239:124|239:124|123:163,1,179.999994506836,2|10,0:0|0:0,0:0:0:0:
232,317,28640,2,0,L|242:225,1,89.9999972534181,2|0,0:1|0:0,0:0:0:0:
133,361,28972,1,2,0:1:0:0:
351,249,29137,2,0,P|396:246|440:259,1,89.9999972534181,8|0,0:0|0:0,0:0:0:0:
470,275,29386,1,0,3:0:0:0:
470,275,29469,6,0,L|484:92,1,179.999994506836,2|10,3:2|0:0,0:0:0:0:
293,191,29966,1,2,0:1:0:0:
431,169,30132,1,0,0:0:0:0:
293,75,30297,1,2,0:1:0:0:
183,234,30463,2,0,L|177:332,1,89.9999972534181,8|0,0:0|0:0,0:0:0:0:
108,147,30795,6,0,P|194:126|273:167,1,179.999994506836,2|10,0:0|0:0,0:0:0:0:
462,286,31292,2,0,B|351:297|351:297|285:274,1,179.999994506836,2|2,0:1|0:1,0:0:0:0:
373,96,31789,2,0,L|365:188,1,89.9999972534181,8|0,0:0|0:0,0:0:0:0:
177,17,32121,6,0,L|266:25,1,89.9999972534181,2|0,0:0|0:0,0:0:0:0:
59,61,32452,1,10,0:0:0:0:
213,130,32618,1,0,0:0:0:0:
67,266,32784,2,0,P|53:222|58:178,1,89.9999972534181,2|2,0:1|0:1,0:0:0:0:
276,292,33115,2,0,L|187:282,1,89.9999972534181,8|0,0:0|0:0,0:0:0:0:
213,130,33447,5,2,0:0:0:0:
367,242,33612,1,2,0:1:0:0:
337,55,33778,1,10,0:0:0:0:
474,130,33944,2,0,P|431:144|387:143,1,89.9999972534181,2|0,0:1|0:0,0:0:0:0:
213,130,34275,2,0,P|200:172|194:228,1,89.9999972534181,2|8,0:1|0:0,0:0:0:0:
202,340,34607,1,0,0:0:0:0:
67,266,34773,5,10,0:0:0:0:
226,351,34938,2,0,P|272:356|332:353,1,89.9999972534181,8|2,0:0|3:2,0:0:0:0:
67,266,35270,6,0,P|78:192|173:164,1,179.999994506836,12|0,0:0|3:0,0:0:0:0:
325,214,35767,1,8,0:0:0:0:
241,56,35933,6,0,P|144:36|49:36,1,179.999994506836,12|0,0:0|3:0,0:0:0:0:
241,56,36430,1,8,0:0:0:0:
58,166,36596,5,2,0:0:0:0:
61,192,36679,1,2,0:0:0:0:
75,214,36762,1,2,0:0:0:0:
93,232,36844,1,2,0:0:0:0:
118,241,36927,2,0,P|144:242|167:239,1,44.999998626709,8|0,0:3|0:0,0:0:0:0:
326,176,37093,1,10,0:0:0:0:
318,206,37176,1,2,0:0:0:0:
310,236,37259,1,2,0:0:0:0:
301,266,37342,1,2,0:0:0:0:
293,291,37425,6,0,L|279:372,1,75.0000028610231,4|0,0:0|0:0,0:0:0:0:
183,349,37756,1,2,0:0:0:0:
389,301,37922,2,0,P|441:295|485:299,2,75.0000028610231,2|8|2,0:1|0:0|0:1,0:0:0:0:
280,364,38419,1,2,0:0:0:0:
235,230,38585,1,0,3:0:0:0:
235,230,38668,1,0,3:0:0:0:
235,230,38751,6,0,L|228:140,1,75.0000028610231,2|2,3:2|0:1,0:0:0:0:
344,50,39082,2,0,L|333:144,1,75.0000028610231,2|2,3:2|0:1,0:0:0:0:
376,236,39414,1,8,0:0:0:0:
229,155,39579,1,2,0:1:0:0:
376,236,39745,2,0,P|417:240|455:231,1,75.0000028610231,2|0,0:0|3:0,0:0:0:0:
484,226,39994,1,0,3:0:0:0:
484,226,40077,6,0,L|477:316,1,75.0000028610231,2|0,3:2|0:0,0:0:0:0:
406,147,40408,2,0,L|400:58,1,75.0000028610231,2|2,3:2|0:1,0:0:0:0:
248,127,40739,1,8,0:0:0:0:
299,21,40905,1,2,0:1:0:0:
248,127,41071,2,0,L|234:213,1,75.0000028610231,2|0,0:0|3:0,0:0:0:0:
240,239,41320,1,0,3:0:0:0:
240,239,41402,6,0,P|191:235|159:241,1,75.0000028610231,2|0,3:2|3:0,0:0:0:0:
323,297,41734,1,2,0:0:0:0:
168,365,41900,2,0,P|207:367|251:359,1,75.0000028610231,2|8,0:1|0:0,0:0:0:0:
414,250,42231,2,0,P|422:294|418:338,2,75.0000028610231,2|2|0,0:1|0:0|0:0,0:0:0:0:
289,150,42728,5,2,3:2:0:0:
323,297,42894,1,0,3:0:0:0:
432,143,43060,2,0,B|441:116|441:116|443:83,1,59.9999981689454,2|8,3:2|0:0,0:0:0:0:
289,150,43391,2,0,P|239:157|190:156,1,89.9999972534181,2|0,3:2|0:0,0:0:0:0:
44,59,43723,6,0,L|47:121,1,44.999998626709,2|0,0:0|0:0,0:0:0:0:
104,187,43889,2,0,L|101:236,1,44.999998626709,2|0,0:0|0:0,0:0:0:0:
206,306,44054,5,2,3:2:0:0:
55,346,44220,1,0,3:0:0:0:
229,297,44386,2,0,B|233:267|233:267|229:237,1,59.9999981689454,2|8,3:2|0:0,0:0:0:0:
330,368,44717,2,0,L|423:349,1,89.9999972534181,2|0,3:2|0:0,0:0:0:0:
489,241,45049,6,0,L|486:181,1,44.999998626709,2|0,0:0|0:0,0:0:0:0:
394,112,45215,2,0,L|388:171,1,44.999998626709,2|0,0:0|0:0,0:0:0:0:
313,232,45380,5,4,0:0:0:0:
185,104,45546,1,4,0:3:0:0:
133,328,45712,5,8,0:0:0:0:
292,128,45878,1,4,0:3:0:0:
32,283,46043,5,8,0:0:0:0:
313,232,46209,1,4,0:3:0:0:
70,77,46375,5,8,0:0:0:0:
133,328,46541,1,8,0:0:0:0:
308,30,46706,6,0,P|394:67|400:167,1,200,4|0,0:0|3:0,0:0:0:0:
283,248,47204,6,0,B|333:243|333:243|386:270,1,100,4|0,0:0|0:0,0:0:0:0:
315,125,47701,6,0,B|254:109|208:141|208:141|144:131|136:71,1,200,4|0,0:0|3:0,0:0:0:0:
308,30,48198,6,0,B|366:41|366:41|405:94,1,119.999996337891,4|8,0:0|0:3,0:0:0:0:
410,126,48612,1,4,0:3:0:0:
410,126,48695,2,0,L|401:226,1,89.9999972534181,8|0,0:0|0:0,0:0:0:0:
343,330,49027,6,0,B|416:309|477:328|477:328|450:334|424:345,1,179.999994506836,4|0,0:0|0:0,0:0:0:0:
306,340,49358,6,0,P|196:323|164:225,1,220.000006713867,4|10,0:1|0:0,0:0:0:0:
270,37,49856,1,0,0:0:0:0:
377,137,50021,2,0,L|382:257,1,110.000003356934,2|0,0:1|0:0,0:0:0:0:
249,154,50353,1,8,0:0:0:0:
417,22,50518,1,0,0:0:0:0:
381,246,50684,6,0,B|317:228|244:251|244:251|205:229|160:229,1,220.000006713867,2|10,0:0|0:0,0:0:0:0:
267,45,51181,1,0,3:0:0:0:
267,45,51264,1,0,3:0:0:0:
267,45,51347,2,0,L|250:167,1,110.000003356934,2|0,3:1|0:0,0:0:0:0:
143,333,51679,1,8,0:0:0:0:
112,148,51844,1,0,0:0:0:0:
271,278,52010,6,0,B|387:316|382:237|492:280,1,220.000006713867,2|10,0:0|0:0,0:0:0:0:
437,377,52507,1,0,0:0:0:0:
329,181,52673,2,0,P|312:131|321:71,1,110.000003356934,2|0,0:1|0:0,0:0:0:0:
478,122,53005,1,8,0:0:0:0:
385,282,53170,1,0,0:0:0:0:
217,145,53336,6,0,P|155:144|100:168,1,110.000003356934,2|0,0:0|0:0,0:0:0:0:
319,75,53668,1,10,0:0:0:0:
185,256,53833,1,0,3:0:0:0:
185,256,53916,1,0,3:0:0:0:
185,256,53999,1,2,3:1:0:0:
329,181,54165,1,0,0:0:0:0:
199,358,54331,2,0,P|139:346|95:313,1,110.000003356934,8|0,0:0|0:0,0:0:0:0:
255,141,54662,6,0,B|287:123|315:121|315:121|359:140|359:140|413:120|471:147,1,220.000006713867,4|10,0:0|0:0,0:0:0:0:
291,272,55159,2,0,P|232:273|175:250,1,110.000003356934,0|2,0:0|0:1,0:0:0:0:
411,239,55491,1,0,0:0:0:0:
291,272,55657,1,8,0:0:0:0:
468,349,55822,1,0,0:0:0:0:
470,157,55988,6,0,P|404:60|307:71,1,220.000006713867,2|10,0:0|0:0,0:0:0:0:
115,131,56485,2,0,P|159:163|216:171,1,110.000003356934,0|2,0:0|0:1,0:0:0:0:
369,158,56817,1,0,0:0:0:0:
200,67,56983,1,8,0:0:0:0:
256,257,57148,1,0,0:0:0:0:
312,67,57314,5,4,0:0:0:0:
380,267,57480,1,4,0:3:0:0:
143,158,57646,1,12,0:0:0:0:
369,158,57811,1,0,3:0:0:0:
132,267,57977,5,4,0:0:0:0:
200,67,58143,1,4,0:3:0:0:
380,267,58309,1,12,0:0:0:0:
143,158,58474,1,0,3:0:0:0:
398,52,58640,6,0,P|452:34|508:35,1,110.000003356934,4|0,0:0|0:0,0:0:0:0:
472,210,58972,1,8,0:0:0:0:
221,93,59137,2,0,P|104:62|41:138,1,220.000006713867,4|0,0:0|0:0,0:0:0:0:
178,169,59552,1,2,3:2:0:0:
197,170,59635,2,0,L|248:176,1,50,2|0,3:2|0:0,0:0:0:0:
56,303,59800,2,0,L|109:308,1,50,2|0,3:2|0:0,0:0:0:0:
281,254,59966,6,0,L|49:228,1,220.000006713867,4|10,0:1|0:0,0:0:0:0:
243,350,60463,1,0,0:0:0:0:
128,211,60629,2,0,P|119:168|145:103,1,110.000003356934,2|0,0:1|0:0,0:0:0:0:
246,175,60960,1,8,0:0:0:0:
30,103,61126,1,0,0:0:0:0:
246,175,61292,6,0,B|320:166|320:166|397:186|397:186|478:179,1,220.000006713867,2|10,0:0|0:0,0:0:0:0:
490,3,61789,1,0,3:0:0:0:
490,3,61872,1,0,3:0:0:0:
490,3,61955,2,0,L|371:15,1,110.000003356934,2|0,3:1|0:0,0:0:0:0:
246,175,62286,1,8,0:0:0:0:
447,110,62452,1,0,0:0:0:0:
311,267,62618,6,0,P|207:284|138:205,1,220.000006713867,2|10,0:0|0:0,0:0:0:0:
358,167,63115,1,0,0:0:0:0:
237,65,63281,2,0,L|247:191,1,110.000003356934,2|0,0:1|0:0,0:0:0:0:
331,3,63612,1,8,0:0:0:0:
129,95,63778,1,0,0:0:0:0:
378,173,63944,6,0,P|438:159|481:125,1,110.000003356934,2|0,0:0|0:0,0:0:0:0:
245,174,64275,1,10,0:0:0:0:
473,260,64441,1,0,3:0:0:0:
473,260,64524,1,0,3:0:0:0:
473,260,64607,1,2,3:1:0:0:
390,62,64773,1,0,0:0:0:0:
227,190,64938,2,0,L|119:173,1,110.000003356934,8|0,0:0|0:0,0:0:0:0:
312,326,65270,6,0,B|346:187|346:187|321:114,1,220.000006713867,4|10,0:0|0:0,0:0:0:0:
227,190,65767,1,2,0:0:0:0:
461,254,65933,1,2,0:1:0:0:
227,190,66099,1,2,0:0:0:0:
461,254,66264,2,0,B|473:190|473:190|463:145,1,110.000003356934,8|0,0:0|0:0,0:0:0:0:
384,331,66596,5,8,0:3:0:0:
298,169,66762,1,0,3:0:0:0:
279,364,66927,1,8,0:0:0:0:
461,254,67093,1,0,3:0:0:0:
228,236,67259,5,0,3:0:0:0:
204,205,67342,1,0,3:0:0:0:
201,166,67425,1,0,3:0:0:0:
207,128,67507,1,0,3:0:0:0:
231,97,67590,1,8,0:0:0:0:
264,77,67673,1,0,3:0:0:0:
302,74,67756,1,0,3:0:0:0:
339,84,67839,1,0,3:0:0:0:
376,107,67922,6,0,B|395:157|395:157|379:275,1,160,4|10,0:0|3:2,0:0:0:0:
213,350,68419,1,0,3:0:0:0:
298,169,68585,1,0,3:0:0:0:
136,276,68751,2,0,P|132:231|125:178,1,80,0|8,3:0|0:0,0:0:0:0:
143,36,69082,6,0,B|180:38|208:58|208:58|257:44|308:71,1,160,2|10,0:0|3:2,0:0:0:0:
73,113,69579,1,0,3:0:0:0:
243,185,69745,1,0,3:0:0:0:
136,276,69911,2,0,B|117:278|90:271|90:271|73:284|42:291,1,89.9999972534181,2|0,0:0|0:0,0:0:0:0:
186,357,70242,2,0,P|171:277|229:196,1,165.000005035401,10|0,0:0|0:0,0:0:0:0:
243,185,70574,6,0,L|329:179,1,80,4|0,0:0|0:0,0:0:0:0:
454,292,70905,2,0,L|284:300,2,160,2|2|0,0:0|0:0|0:0,0:0:0:0:
454,292,71900,6,0,B|474:179|474:179|458:122,1,160,12|0,0:0|3:0,0:0:0:0:
281,33,72397,1,0,0:0:0:0:
198,172,72563,2,0,P|271:203|350:178,1,160,12|0,0:0|3:0,0:0:0:0:
128,81,73060,1,0,0:0:0:0:
104,267,73226,5,8,0:0:0:0:
266,230,73391,2,0,L|265:329,1,89.9999972534181,8|0,0:0|0:0,0:0:0:0:
103,292,73723,5,8,0:0:0:0:
284,348,73889,2,0,L|282:255,1,89.9999972534181,8|0,0:0|0:0,0:0:0:0:
104,318,74220,5,8,0:0:0:0:
298,232,74386,2,0,L|301:331,1,89.9999972534181,8|0,0:0|0:0,0:0:0:0:
104,341,74717,5,8,0:0:0:0:
319,346,74883,2,0,L|315:249,1,89.9999972534181,8|0,0:0|0:0,0:0:0:0:
238,98,75215,6,0,B|201:86|201:86|141:102,1,100,12|0,0:0|0:0,0:0:0:0:
344,155,75546,2,0,B|372:165|394:165|394:165|439:150|439:150|468:153|490:162,1,150,12|0,0:0|0:0,0:0:0:0:
472,311,75878,5,8,0:0:0:0:
314,345,76043,2,0,L|315:256,1,89.9999972534181,8|0,0:0|0:0,0:0:0:0:
471,286,76375,5,8,0:0:0:0:
291,241,76541,2,0,L|289:338,1,89.9999972534181,8|0,0:0|0:0,0:0:0:0:
471,259,76872,5,8,0:0:0:0:
266,351,77038,2,0,L|266:262,1,89.9999972534181,8|0,0:0|0:0,0:0:0:0:
470,236,77369,5,8,0:0:0:0:
237,247,77535,2,0,L|239:351,1,89.9999972534181,8|0,0:0|0:0,0:0:0:0:
133,184,77867,6,0,P|165:146|226:130,1,100,12|0,0:0|0:0,0:0:0:0:
247,144,78115,1,2,3:2:0:0:
247,144,78198,2,0,L|296:144,1,50,2|0,3:2|0:0,0:0:0:0:
352,0,78364,2,0,L|412:2,1,50,2|0,3:2|0:0,0:0:0:0:
458,76,78530,6,0,L|247:71,1,200,4|10,0:1|0:0,0:0:0:0:
435,174,79027,1,0,0:0:0:0:
279,289,79193,1,2,0:1:0:0:
322,169,79358,1,0,0:0:0:0:
392,350,79524,1,8,0:0:0:0:
322,169,79690,1,0,0:0:0:0:
177,241,79856,6,0,P|119:246|59:233,1,100,2|0,0:0|0:0,0:0:0:0:
326,69,80187,2,0,L|321:184,1,100,10|0,0:0|0:0,0:0:0:0:
305,206,80436,1,0,3:0:0:0:
305,206,80518,1,2,3:1:0:0:
147,63,80684,1,0,0:0:0:0:
78,239,80850,1,8,0:0:0:0:
232,132,81016,1,0,0:0:0:0:
261,329,81181,6,0,L|372:328,1,100,2|0,0:0|0:0,0:0:0:0:
177,239,81513,2,0,L|65:238,1,100,10|0,0:0|0:0,0:0:0:0:
349,197,81844,1,2,0:1:0:0:
232,132,82010,1,0,0:0:0:0:
333,308,82176,1,10,0:0:0:0:
391,109,82342,1,0,0:0:0:0:
147,178,82507,6,0,P|136:130|148:82,1,100,2|0,0:0|0:0,0:0:0:0:
277,19,82839,1,10,0:0:0:0:
346,206,83005,1,0,0:0:0:0:
346,206,83088,1,0,3:0:0:0:
346,206,83170,2,0,L|394:237,1,50,2|0,3:1|0:0,0:0:0:0:
232,132,83336,1,0,0:0:0:0:
407,32,83502,2,0,P|426:75|429:130,1,100,10|0,0:0|0:0,0:0:0:0:
201,282,83833,5,4,0:0:0:0:
328,103,83999,1,4,0:3:0:0:
380,263,84165,1,10,0:0:0:0:
204,115,84331,1,4,0:3:0:0:
199,378,84496,5,4,0:0:0:0:
328,103,84662,1,4,0:3:0:0:
408,361,84828,1,10,0:0:0:0:
204,115,84994,1,4,0:3:0:0:
201,282,85159,6,0,P|114:285|56:220,1,179.999994506836,4|0,0:0|3:0,0:0:0:0:
283,209,85822,2,0,B|363:200|323:223|419:212,1,119.999996337891,4|0,0:0|3:0,0:0:0:0:
121,48,86485,5,4,0:1:0:0:
256,192,86568,12,0,88474,0:0:0:0:
