osu file format v14

[General]
AudioFilename: audio.mp3
AudioLeadIn: 0
PreviewTime: 48944
Countdown: 0
SampleSet: Soft
StackLeniency: 0.5
Mode: 0
LetterboxInBreaks: 0
WidescreenStoryboard: 0

[Editor]
DistanceSpacing: 1.3
BeatDivisor: 4
GridSize: 8
TimelineZoom: 1.2

[Metadata]
Title:Ring Ring Rainbow!! (TV size)
TitleUnicode:Ring Ring Rainbow!! (TV size)
Artist:YUIKAORI
ArtistUnicode:ゆいかおり
Creator:Garden
Version:Hard
Source:城下町のダンデライオン
Tags:Left toara_fict Joukamachi no Dandelion castle town opening tvsize 小倉 唯 ogura yui 石原 夏織 ishihara kaori
BeatmapID:1111048
BeatmapSetID:463905

[Difficulty]
HPDrainRate:5
CircleSize:3.5
OverallDifficulty:5.5
ApproachRate:7.5
SliderMultiplier:1.4
SliderTickRate:1

[Events]
//Background and Video events
0,0,"hikari.jpg",0,0
//Break Periods
//Storyboard Layer 0 (Background)
//Storyboard Layer 1 (Fail)
//Storyboard Layer 2 (Pass)
//Storyboard Layer 3 (Foreground)
//Storyboard Sound Samples

[TimingPoints]
298,331.491712707182,4,2,1,70,1,0
13557,-100,4,2,1,60,0,0
15878,-100,4,2,2,60,0,0
16209,-100,4,2,1,60,0,0
18530,-100,4,2,2,60,0,0
18861,-100,4,2,1,60,0,0
21181,-100,4,2,2,60,0,0
21513,-100,4,2,1,70,0,0
37425,-111.111111111111,4,2,1,70,0,0
42728,-100,4,2,1,70,0,0
49358,-100,4,2,1,80,0,1
59635,-100,4,2,1,80,0,0
59966,-100,4,2,1,80,0,1
67922,-100,4,2,1,80,0,0
78530,-100,4,2,1,80,0,1
86485,-100,4,2,1,80,0,0
88474,-100,4,2,1,5,0,0

[Colours]
Combo1 : 255,255,132
Combo2 : 255,49,152
Combo3 : 142,193,255
Combo4 : 255,134,255

[HitObjects]
80,300,298,5,12,0:0:0:0:
113,121,629,1,12,0:0:0:0:
80,300,960,5,8,0:1:0:0:
161,339,1126,2,0,L|250:328,1,70,8|2,0:1|0:1,0:0:0:0:
305,278,1458,2,0,L|250:206,1,70,8|2,0:1|0:1,0:0:0:0:
180,183,1789,2,0,L|145:265,1,70,8|2,0:1|0:1,0:0:0:0:
161,339,2121,2,0,B|231:331|231:331|256:362|294:369,1,140,8|8,0:1|0:1,0:0:0:0:
374,338,2618,2,0,B|378:303|378:303|394:258,1,70,8|0,0:1|0:0,0:0:0:0:
457,173,2949,5,12,0:0:0:0:
381,81,3115,1,8,0:0:0:0:
281,145,3281,1,12,0:0:0:0:
281,145,3612,5,8,0:1:0:0:
203,193,3778,2,0,L|168:275,1,70,8|2,0:1|0:1,0:0:0:0:
184,349,4110,2,0,L|273:338,1,70,8|2,0:1|0:1,0:0:0:0:
328,288,4441,2,0,L|273:216,1,70,8|2,0:1|0:1,0:0:0:0:
203,193,4773,1,2,0:1:0:0:
203,193,4938,6,0,L|206:158,3,35,8|0|2|0,0:0|0:0|0:1|0:0,0:0:0:0:
243,129,5270,2,0,L|249:95,3,35,8|0|8|0,0:0|0:0|0:0|0:0,0:0:0:0:
286,68,5601,6,0,P|327:85|375:86,1,70,12|0,0:0|0:0,0:0:0:0:
475,53,5933,2,0,B|488:144,1,70,12|0,0:0|0:0,0:0:0:0:
453,211,6264,1,2,0:1:0:0:
453,211,6430,2,0,P|407:224|368:222,1,70,0|8,0:0|0:0,0:0:0:0:
305,179,6762,6,0,P|237:175|185:231,1,140,0|0,0:0|0:0,0:0:0:0:
177,312,7259,1,8,0:0:0:0:
88,290,7425,1,0,3:0:0:0:
88,290,7507,1,0,3:0:0:0:
88,290,7590,2,0,P|44:291|-1:282,1,70,0|0,3:0|0:0,0:0:0:0:
56,200,7922,2,0,L|55:116,1,70,8|0,0:0|0:0,0:0:0:0:
140,37,8253,6,0,P|157:63|174:107,1,70,12|0,0:0|0:0,0:0:0:0:
212,216,8585,2,0,L|292:181,1,70,12|0,0:0|0:0,0:0:0:0:
361,154,8916,1,2,0:1:0:0:
444,191,9082,2,0,P|444:236|434:280,1,70,0|8,0:0|0:0,0:0:0:0:
386,335,9414,6,0,B|344:317|344:317|243:315,1,140,0|0,0:0|0:0,0:0:0:0:
161,338,9911,1,8,0:0:0:0:
89,281,10077,1,0,3:0:0:0:
89,281,10159,1,0,3:0:0:0:
89,281,10242,2,0,L|85:195,1,70,0|0,3:0|0:0,0:0:0:0:
104,121,10574,2,0,P|62:107|30:105,1,70,8|0,0:0|0:0,0:0:0:0:
176,184,10905,6,0,L|249:173,1,70,12|0,0:0|0:0,0:0:0:0:
324,65,11237,2,0,L|330:134,1,70,12|0,0:0|0:0,0:0:0:0:
377,219,11568,1,2,0:1:0:0:
377,219,11734,2,0,P|416:218|456:208,1,70,0|8,0:0|0:0,0:0:0:0:
500,138,12065,1,0,0:0:0:0:
413,45,12231,6,0,L|411:114,1,70,2|8,0:1|0:0,0:0:0:0:
377,219,12563,1,8,0:0:0:0:
283,165,12728,2,0,P|215:155|144:185,1,140,8|0,0:0|0:0,0:0:0:0:
80,263,13226,2,0,L|76:312,3,35,2|0|2|0,0:0|0:0|0:0|0:0,0:0:0:0:
76,343,13557,5,8,0:0:0:0:
76,343,13723,1,8,0:0:0:0:
184,361,13889,1,8,0:0:0:0:
184,361,14220,2,0,P|222:351|263:348,1,70,2|0,0:1|0:0,0:0:0:0:
344,347,14552,2,0,L|345:271,1,70,2|0,0:1|0:0,0:0:0:0:
285,196,14883,5,8,0:0:0:0:
285,196,15049,1,8,0:0:0:0:
350,113,15215,1,8,0:0:0:0:
350,113,15546,2,0,L|436:107,1,70,2|0,0:1|0:0,0:0:0:0:
482,174,15878,2,0,P|482:210|464:259,1,70,12|0,0:0|0:0,0:0:0:0:
390,306,16209,5,8,0:0:0:0:
390,306,16375,1,8,0:0:0:0:
302,259,16541,1,8,0:0:0:0:
302,259,16872,2,0,L|213:248,1,70,2|0,0:1|0:0,0:0:0:0:
158,304,17204,2,0,L|77:293,1,70,2|0,0:1|0:0,0:0:0:0:
30,214,17535,5,8,0:0:0:0:
30,214,17701,1,8,0:0:0:0:
125,165,17867,1,8,0:0:0:0:
125,165,18198,2,0,P|134:126|135:88,1,70,2|0,0:1|0:0,0:0:0:0:
182,17,18530,2,0,P|219:24|269:44,1,70,10|0,0:0|0:0,0:0:0:0:
335,105,18861,5,8,0:0:0:0:
335,105,19027,1,8,0:0:0:0:
260,180,19193,1,8,0:0:0:0:
260,180,19524,2,0,L|263:258,1,70,2|0,0:1|0:0,0:0:0:0:
304,331,19856,2,0,P|344:328|382:313,1,70,2|0,0:1|0:0,0:0:0:0:
458,255,20187,5,8,0:0:0:0:
458,255,20353,1,8,0:0:0:0:
388,184,20518,1,8,0:0:0:0:
388,184,20850,2,0,P|381:147|381:115,1,70,0|0,0:0|0:0,0:0:0:0:
391,24,21181,2,0,P|356:18|316:22,1,70,12|0,0:0|0:0,0:0:0:0:
201,63,21513,6,0,B|151:63|151:63|105:47|105:47|63:47,2,140,12|8|2,0:0|0:0|0:1,0:0:0:0:
288,106,22342,1,2,0:1:0:0:
288,106,22507,2,0,P|276:146|273:181,1,70,8|0,0:0|0:0,0:0:0:0:
367,279,22839,5,2,0:0:0:0:
367,279,23005,2,0,P|364:244|357:210,1,70,0|10,0:0|0:0,0:0:0:0:
226,254,23336,2,0,P|145:247|88:216,1,140,2|0,0:0|0:0,0:0:0:0:
55,119,23833,2,0,L|76:83,3,35,2|0|2|0,0:0|0:0|0:0|0:0,0:0:0:0:
97,49,24165,6,0,P|139:62|184:67,1,70,2|0,0:0|0:0,0:0:0:0:
256,43,24496,1,10,0:0:0:0:
256,43,24662,2,0,P|326:43|379:104,1,140,2|2,0:1|0:1,0:0:0:0:
347,176,25159,2,0,P|337:219|338:255,1,70,8|0,0:0|0:0,0:0:0:0:
363,369,25491,6,0,L|281:357,1,70,2|0,0:0|0:0,0:0:0:0:
245,281,25822,1,10,0:0:0:0:
245,281,25988,2,0,L|172:269,2,70,2|0|2,0:1|0:0|0:1,0:0:0:0:
336,244,26485,2,0,P|362:201|350:109,1,140,8|2,0:0|0:0,0:0:0:0:
294,44,26983,5,0,0:0:0:0:
214,87,27148,2,0,P|172:75|136:57,1,70,10|2,0:0|0:1,0:0:0:0:
59,88,27480,2,0,P|69:129|72:170,1,70,0|2,0:0|0:1,0:0:0:0:
135,222,27811,2,0,P|165:192|199:169,1,70,8|0,0:0|0:0,0:0:0:0:
306,131,28143,6,0,B|317:175|317:175|300:287,1,140,2|10,0:0|0:0,0:0:0:0:
234,329,28640,1,2,0:1:0:0:
234,329,28806,2,0,P|194:324|147:321,1,70,0|2,0:0|0:1,0:0:0:0:
81,338,29137,2,0,P|69:296|67:257,1,70,8|0,0:0|0:0,0:0:0:0:
67,270,29386,1,0,3:0:0:0:
66,269,29469,6,0,P|130:236|137:168,1,140,2|10,3:2|0:0,0:0:0:0:
103,89,29966,2,0,P|136:67|173:57,1,70,2|0,0:1|0:0,0:0:0:0:
254,79,30297,2,0,L|251:156,2,70,2|8|0,0:1|0:0|0:0,0:0:0:0:
367,25,30795,6,0,B|416:45|457:34|457:34|481:47|493:74,1,140,2|10,0:0|0:0,0:0:0:0:
445,147,31292,2,0,P|384:168|352:240,1,140,2|2,0:1|0:1,0:0:0:0:
387,315,31789,2,0,P|422:310|457:308,1,70,8|0,0:0|0:0,0:0:0:0:
307,358,32121,6,0,P|265:357|220:353,1,70,2|0,0:0|0:0,0:0:0:0:
152,321,32452,2,0,P|149:283|156:244,1,70,10|0,0:0|0:0,0:0:0:0:
196,170,32784,1,2,0:1:0:0:
196,170,32949,1,2,0:1:0:0:
127,110,33115,2,0,P|92:102|58:98,1,70,8|0,0:0|0:0,0:0:0:0:
200,55,33447,6,0,P|238:47|293:42,1,70,2|2,0:0|0:1,0:0:0:0:
363,60,33778,1,10,0:0:0:0:
363,60,33944,2,0,P|380:122|329:205,1,140,2|2,0:1|0:1,0:0:0:0:
264,218,34441,1,8,0:0:0:0:
264,218,34773,6,0,P|253:180|247:143,1,70,10|8,0:0|0:0,0:0:0:0:
350,188,35104,1,2,3:2:0:0:
322,293,35270,6,0,P|252:267|170:275,1,140,12|0,0:0|3:0,0:0:0:0:
82,298,35767,1,8,0:0:0:0:
112,192,35933,6,0,B|115:146|100:104|100:104|110:72|148:53,1,140,12|0,0:0|3:0,0:0:0:0:
232,27,36430,1,8,0:0:0:0:
274,130,36596,6,0,L|265:163,4,35,2|2|2|2|8,0:0|0:0|0:0|0:0|0:3,0:0:0:0:
337,231,37093,2,0,L|327:274,3,35,10|2|2|2,0:0|0:0|0:0|0:0,0:0:0:0:
322,310,37425,6,0,P|398:285|452:289,1,125.999996154785,4|2,0:0|0:0,0:0:0:0:
499,218,37922,2,0,P|499:178|491:153,1,62.9999980773926,2|8,0:1|0:0,0:0:0:0:
453,77,38253,2,0,P|448:45|453:11,2,62.9999980773926,2|2|0,0:1|0:0|3:0,0:0:0:0:
403,150,38751,6,0,L|332:158,1,62.9999980773926,2|2,3:2|0:1,0:0:0:0:
265,109,39082,2,0,L|186:116,1,62.9999980773926,2|2,3:2|0:1,0:0:0:0:
139,177,39414,2,0,P|126:234|126:264,1,62.9999980773926,8|2,0:0|0:1,0:0:0:0:
159,325,39745,2,0,P|201:312|243:308,1,62.9999980773926,2|0,0:0|3:0,0:0:0:0:
219,309,39994,1,0,3:0:0:0:
219,309,40077,6,0,P|296:312|354:272,1,125.999996154785,2|2,3:2|3:2,0:0:0:0:
397,225,40574,1,2,0:1:0:0:
397,225,40739,2,0,P|386:176|387:152,1,62.9999980773926,8|2,0:0|0:1,0:0:0:0:
407,77,41071,2,0,L|469:69,1,62.9999980773926,2|0,0:0|3:0,0:0:0:0:
328,30,41402,6,0,P|316:70|316:100,1,62.9999980773926,2|0,3:2|3:0,0:0:0:0:
298,181,41734,1,2,0:0:0:0:
298,181,41900,2,0,L|225:182,2,62.9999980773926,2|8|2,0:1|0:0|0:1,0:0:0:0:
386,163,42397,2,0,P|395:198|399:235,1,62.9999980773926,2|0,0:0|0:0,0:0:0:0:
344,303,42728,5,2,3:2:0:0:
422,349,42894,1,0,3:0:0:0:
344,303,43060,2,0,P|297:300|254:303,1,70,2|8,3:2|0:0,0:0:0:0:
185,324,43391,2,0,P|153:294|128:258,1,70,2|0,3:2|0:0,0:0:0:0:
153,182,43723,2,0,L|152:135,3,35,2|0|2|0,0:0|0:0|0:0|0:0,0:0:0:0:
152,101,44054,5,2,3:2:0:0:
195,21,44220,1,0,3:0:0:0:
273,66,44386,2,0,L|359:62,1,70,2|8,3:2|0:0,0:0:0:0:
429,92,44717,2,0,P|441:136|437:171,1,70,2|0,3:2|0:0,0:0:0:0:
374,224,45049,2,0,L|334:229,3,35,2|0|2|0,0:0|0:0|0:0|0:0,0:0:0:0:
294,235,45380,6,0,L|283:309,1,70,4|0,0:0|0:0,0:0:0:0:
172,366,45712,2,0,L|154:295,1,70,8|4,0:0|0:3,0:0:0:0:
174,129,46043,2,0,L|192:200,1,70,8|4,0:0|0:3,0:0:0:0:
52,260,46375,2,0,L|63:186,1,70,8|8,0:0|0:0,0:0:0:0:
154,298,46706,6,0,P|219:301|290:249,1,140,4|0,0:0|3:0,0:0:0:0:
336,147,47204,1,4,0:0:0:0:
336,147,47701,6,0,B|287:128|239:142|239:142|210:139|190:115,1,140,4|0,0:0|3:0,0:0:0:0:
246,9,48198,1,4,0:0:0:0:
246,9,48530,5,8,0:3:0:0:
330,41,48695,2,0,P|371:49|417:46,1,70,8|0,0:0|0:0,0:0:0:0:
490,37,49027,2,0,P|495:65|495:117,1,70,4|0,0:0|0:0,0:0:0:0:
468,229,49358,6,0,B|437:224|412:201|412:201|372:195|330:211,1,140,4|10,0:1|0:0,0:0:0:0:
242,239,49856,1,0,0:0:0:0:
242,239,50021,2,0,P|216:197|206:161,1,70,2|0,0:1|0:0,0:0:0:0:
199,79,50353,2,0,L|268:72,1,70,8|0,0:0|0:0,0:0:0:0:
134,7,50684,6,0,P|105:75|135:151,1,140,2|10,0:0|0:0,0:0:0:0:
135,240,51181,1,0,3:0:0:0:
135,240,51264,1,0,3:0:0:0:
135,240,51347,2,0,L|50:226,1,70,2|0,3:1|0:0,0:0:0:0:
76,326,51679,2,0,L|162:339,1,70,8|0,0:0|0:0,0:0:0:0:
271,354,52010,6,0,P|314:329|321:218,1,140,2|10,0:0|0:0,0:0:0:0:
296,155,52507,1,0,0:0:0:0:
203,188,52673,2,0,B|168:173|168:173|117:197|56:158,1,140,2|8,0:1|0:0,0:0:0:0:
24,79,53170,1,0,0:0:0:0:
118,17,53336,6,0,L|124:93,1,70,2|0,0:0|0:0,0:0:0:0:
212,43,53668,1,10,0:0:0:0:
269,135,53833,1,0,3:0:0:0:
269,135,53916,1,0,3:0:0:0:
269,135,53999,2,0,L|371:129,1,70,2|0,3:1|0:0,0:0:0:0:
437,124,54331,2,0,P|436:159|440:200,1,70,8|0,0:0|0:0,0:0:0:0:
510,60,54662,6,0,B|476:49|450:31|450:31|417:40|363:41,1,140,4|10,0:0|0:0,0:0:0:0:
280,51,55159,1,0,0:0:0:0:
338,130,55325,2,0,L|337:290,1,140,2|8,0:1|0:0,0:0:0:0:
269,340,55822,1,0,0:0:0:0:
208,260,55988,6,0,P|278:241|342:274,1,140,2|10,0:0|0:0,0:0:0:0:
408,343,56485,1,0,0:0:0:0:
408,343,56651,2,0,P|448:338|486:321,1,70,2|0,0:1|0:0,0:0:0:0:
490,229,56983,2,0,P|477:181|472:154,1,70,8|0,0:0|0:0,0:0:0:0:
468,46,57314,5,4,0:0:0:0:
468,46,57480,1,4,0:3:0:0:
361,77,57646,2,0,L|280:69,1,70,12|0,0:0|3:0,0:0:0:0:
186,25,57977,5,4,0:0:0:0:
186,25,58143,1,4,0:3:0:0:
113,111,58309,2,0,L|123:204,1,70,12|0,0:0|3:0,0:0:0:0:
211,307,58640,6,0,L|220:238,1,70,4|0,0:0|0:0,0:0:0:0:
302,158,58972,1,8,0:0:0:0:
302,158,59137,2,0,P|374:156|425:203,1,140,4|0,0:0|0:0,0:0:0:0:
432,247,59552,1,2,3:2:0:0:
432,247,59635,2,0,L|425:298,3,35,2|0|2|0,3:2|0:0|3:2|0:0,0:0:0:0:
443,328,59966,6,0,P|375:318|283:322,1,140,4|10,0:1|0:0,0:0:0:0:
208,342,60463,1,0,0:0:0:0:
208,342,60629,2,0,P|181:303|174:268,1,70,2|0,0:1|0:0,0:0:0:0:
177,183,60960,2,0,L|261:175,1,70,8|0,0:0|0:0,0:0:0:0:
372,199,61292,6,0,P|389:135|365:53,1,140,2|10,0:0|0:0,0:0:0:0:
287,40,61789,1,0,3:0:0:0:
287,40,61872,1,0,3:0:0:0:
287,40,61955,2,0,L|204:48,1,70,2|0,3:1|0:0,0:0:0:0:
132,95,62286,2,0,P|131:136|136:190,1,70,8|0,0:0|0:0,0:0:0:0:
183,283,62618,6,0,B|223:261|240:235|240:235|284:222|317:222,1,140,2|10,0:0|0:0,0:0:0:0:
401,232,63115,1,0,0:0:0:0:
429,325,63281,2,0,B|386:335|350:314|350:314|310:315|277:328,1,140,2|8,0:1|0:0,0:0:0:0:
202,362,63778,1,0,0:0:0:0:
112,320,63944,6,0,L|113:237,1,70,2|0,0:0|0:0,0:0:0:0:
139,155,64275,1,10,0:0:0:0:
238,196,64441,1,0,3:0:0:0:
238,196,64524,1,0,3:0:0:0:
238,196,64607,2,0,P|271:192|313:167,1,70,2|0,3:1|0:0,0:0:0:0:
355,92,64938,2,0,L|343:11,1,70,8|0,0:0|0:0,0:0:0:0:
465,63,65270,6,0,L|445:220,1,140,4|10,0:0|0:0,0:0:0:0:
398,287,65767,1,0,0:0:0:0:
398,287,65933,2,0,P|353:276|321:275,1,70,2|0,0:1|0:0,0:0:0:0:
233,296,66264,2,0,L|240:374,1,70,8|0,0:0|0:0,0:0:0:0:
121,349,66596,5,8,0:3:0:0:
121,349,66762,1,0,3:0:0:0:
145,255,66927,2,0,P|172:221|206:200,1,70,8|0,0:0|3:0,0:0:0:0:
286,172,67259,1,0,3:0:0:0:
229,105,67425,1,0,3:0:0:0:
229,105,67507,1,0,3:0:0:0:
229,105,67590,2,0,L|236:55,3,35,8|0|0|0,0:0|3:0|3:0|3:0,0:0:0:0:
270,36,67922,6,0,P|190:48|118:46,1,140,4|10,0:0|3:2,0:0:0:0:
37,48,68419,1,0,3:0:0:0:
37,48,68585,2,0,P|25:95|21:135,1,70,0|0,3:0|3:0,0:0:0:0:
49,215,68916,1,8,0:0:0:0:
49,215,69082,6,0,P|131:198|185:213,1,140,2|10,0:0|3:2,0:0:0:0:
266,266,69579,2,0,P|257:302|252:339,1,70,0|0,3:0|3:0,0:0:0:0:
341,376,69911,2,0,P|353:314|360:219,1,140,2|10,0:0|0:0,0:0:0:0:
231,89,70574,2,0,B|192:91|162:104|162:104|130:92|82:91,2,140,4|2|2,0:0|0:0|0:0,0:0:0:0:
231,89,71900,6,0,P|215:156|217:240,1,140,12|0,0:0|3:0,0:0:0:0:
283,296,72397,1,0,0:0:0:0:
283,296,72563,2,0,P|213:273|125:300,1,140,12|0,0:0|3:0,0:0:0:0:
62,330,73060,1,0,0:0:0:0:
58,215,73226,5,8,0:0:0:0:
58,215,73391,1,8,0:0:0:0:
241,144,73723,5,8,0:0:0:0:
241,144,73889,1,8,0:0:0:0:
59,69,74220,5,8,0:0:0:0:
59,69,74386,1,8,0:0:0:0:
144,244,74717,5,8,0:0:0:0:
144,244,74883,1,8,0:0:0:0:
176,50,75215,6,0,P|219:45|266:47,1,70,12|0,0:0|0:0,0:0:0:0:
369,70,75546,2,0,P|358:111|354:149,1,70,12|0,0:0|0:0,0:0:0:0:
366,261,75878,5,8,0:0:0:0:
366,261,76043,1,8,0:0:0:0:
201,154,76375,5,8,0:0:0:0:
201,154,76541,1,8,0:0:0:0:
250,343,76872,5,8,0:0:0:0:
250,343,77038,1,8,0:0:0:0:
342,170,77369,5,8,0:0:0:0:
342,170,77535,1,8,0:0:0:0:
168,261,77867,6,0,P|134:266|95:267,1,70,12|0,0:0|0:0,0:0:0:0:
50,257,78115,1,2,3:2:0:0:
50,257,78198,2,0,L|41:210,3,35,2|0|2|0,3:2|0:0|3:2|0:0,0:0:0:0:
19,179,78530,6,0,L|28:81,1,70,4|0,0:1|0:0,0:0:0:0:
72,23,78861,2,0,P|105:53|119:89,1,70,10|0,0:0|0:0,0:0:0:0:
141,170,79193,2,0,L|225:157,1,70,2|0,0:1|0:0,0:0:0:0:
284,95,79524,2,0,L|371:110,1,70,8|0,0:0|0:0,0:0:0:0:
466,164,79856,6,0,P|419:180|370:258,1,140,2|10,0:0|0:0,0:0:0:0:
364,350,80353,1,0,0:0:0:0:
364,350,80436,1,0,3:0:0:0:
364,350,80518,2,0,P|314:348|276:331,1,70,2|0,3:1|0:0,0:0:0:0:
204,302,80850,1,8,0:0:0:0:
204,302,81181,6,0,L|192:213,1,70,2|0,0:0|0:0,0:0:0:0:
279,182,81513,2,0,L|285:97,1,70,10|0,0:0|0:0,0:0:0:0:
233,27,81844,2,0,P|193:21|157:28,1,70,2|0,0:1|0:0,0:0:0:0:
76,71,82176,2,0,P|80:100|83:149,1,70,10|0,0:0|0:0,0:0:0:0:
60,264,82507,6,0,B|147:231|147:231|203:232,1,140,2|10,0:0|0:0,0:0:0:0:
295,274,83005,1,0,0:0:0:0:
295,274,83088,1,0,3:0:0:0:
295,274,83170,2,0,P|344:260|366:247,1,70,2|0,3:1|0:0,0:0:0:0:
413,167,83502,2,0,P|364:155|333:144,1,70,10|0,0:0|0:0,0:0:0:0:
254,80,83833,5,4,0:0:0:0:
254,80,83999,1,4,0:3:0:0:
172,135,84165,2,0,P|165:180|164:216,1,70,10|4,0:0|0:3,0:0:0:0:
217,317,84496,5,4,0:0:0:0:
217,317,84662,1,4,0:3:0:0:
305,274,84828,2,0,P|345:275|390:284,1,70,10|4,0:0|0:3,0:0:0:0:
413,167,85159,6,0,P|346:157|290:106,1,140,4|0,0:0|0:0,0:0:0:0:
110,37,85822,2,0,P|88:104|74:191,1,140,4|0,0:0|3:0,0:0:0:0:
256,250,86485,5,4,0:1:0:0:
256,192,86568,12,0,88474,0:0:0:0:
