osu file format v14

[General]
AudioFilename: audio.mp3
AudioLeadIn: 0
PreviewTime: 48944
Countdown: 0
SampleSet: Normal
StackLeniency: 0.5
Mode: 1
LetterboxInBreaks: 0
WidescreenStoryboard: 0

[Editor]
DistanceSpacing: 0.7
BeatDivisor: 4
GridSize: 32
TimelineZoom: 2.699999

[Metadata]
Title:Ring Ring Rainbow!! (TV size)
TitleUnicode:Ring Ring Rainbow!! (TV size)
Artist:YUIKAORI
ArtistUnicode:ゆいかおり
Creator:Garden
Version:toara's Muzukashii
Source:城下町のダンデライオン
Tags:Left toara_fict Joukamachi no Dandelion castle town opening tvsize 小倉 唯 ogura yui 石原 夏織 ishihara kaori
BeatmapID:1111242
BeatmapSetID:463905

[Difficulty]
HPDrainRate:6
CircleSize:4.2
OverallDifficulty:5
ApproachRate:10
SliderMultiplier:1.4
SliderTickRate:1

[Events]
//Background and Video events
0,0,"hikari.jpg",0,0
//Break Periods
//Storyboard Layer 0 (Background)
//Storyboard Layer 1 (Fail)
//Storyboard Layer 2 (Pass)
//Storyboard Layer 3 (Foreground)
//Storyboard Sound Samples

[TimingPoints]
298,331.491712707182,4,1,0,80,1,0
49358,-100,4,1,0,80,0,1
59635,-100,4,1,0,80,0,0
59966,-100,4,1,0,80,0,1
67922,-100,4,1,0,80,0,0
78530,-100,4,1,0,80,0,1
86485,-100,4,1,0,80,0,0

[Colours]
Combo1 : 255,255,132
Combo2 : 255,49,152
Combo3 : 142,193,255
Combo4 : 255,134,255

[HitObjects]
192,256,298,5,4,0:0:0:0:
192,256,629,1,4,0:0:0:0:
320,128,960,1,8,0:0:0:0:
320,128,1126,1,8,0:0:0:0:
320,128,1458,1,8,0:0:0:0:
320,128,1789,1,8,0:0:0:0:
320,128,2121,1,8,0:0:0:0:
320,128,2452,1,8,0:0:0:0:
192,128,2618,1,0,0:0:0:0:
192,256,2949,1,4,0:0:0:0:
192,256,3115,1,4,0:0:0:0:
192,256,3281,1,4,0:0:0:0:
320,128,3612,1,8,0:0:0:0:
320,128,3778,1,8,0:0:0:0:
320,128,4110,1,8,0:0:0:0:
192,128,4441,1,0,0:0:0:0:
320,128,4773,1,8,0:0:0:0:
320,128,5104,1,8,0:0:0:0:
320,128,5270,1,8,0:0:0:0:
192,128,5436,1,0,0:0:0:0:
320,256,5601,1,12,0:0:0:0:
320,256,5933,1,12,0:0:0:0:
320,128,6264,1,8,0:0:0:0:
320,128,6430,1,8,0:0:0:0:
320,128,6762,1,8,0:0:0:0:
320,128,7093,1,8,0:0:0:0:
192,128,7259,1,0,0:0:0:0:
320,128,7425,1,8,0:0:0:0:
192,128,7756,1,0,0:0:0:0:
320,128,7922,1,8,0:0:0:0:
192,128,8088,1,0,0:0:0:0:
320,128,8253,1,8,0:0:0:0:
320,128,8585,1,8,0:0:0:0:
320,128,8916,1,8,0:0:0:0:
320,128,9082,1,8,0:0:0:0:
320,128,9414,1,8,0:0:0:0:
320,128,9745,1,8,0:0:0:0:
192,128,9911,1,0,0:0:0:0:
192,128,10077,1,0,0:0:0:0:
192,128,10408,1,0,0:0:0:0:
320,128,10574,1,8,0:0:0:0:
192,128,10739,1,0,0:0:0:0:
320,128,10905,1,8,0:0:0:0:
320,128,11237,1,8,0:0:0:0:
192,128,11568,1,8,0:0:0:0:
320,128,11734,1,8,0:0:0:0:
320,128,12065,1,8,0:0:0:0:
192,128,12231,1,0,0:0:0:0:
192,128,12397,1,0,0:0:0:0:
320,128,12563,1,8,0:0:0:0:
192,128,12728,1,0,0:0:0:0:
192,128,13060,1,0,0:0:0:0:
320,128,13226,1,8,0:0:0:0:
192,256,13557,1,4,0:0:0:0:
192,256,13723,1,4,0:0:0:0:
192,256,13889,1,4,0:0:0:0:
192,128,14552,1,0,0:0:0:0:
192,256,14883,1,4,0:0:0:0:
192,256,15049,1,4,0:0:0:0:
192,256,15215,1,4,0:0:0:0:
320,128,15878,1,8,0:0:0:0:
192,256,16209,1,4,0:0:0:0:
192,256,16375,1,4,0:0:0:0:
192,256,16541,1,4,0:0:0:0:
192,128,17204,1,0,0:0:0:0:
192,256,17535,1,4,0:0:0:0:
192,256,17701,1,4,0:0:0:0:
192,256,17867,1,4,0:0:0:0:
320,128,18530,1,8,0:0:0:0:
192,256,18861,1,4,0:0:0:0:
192,256,19027,1,4,0:0:0:0:
192,256,19193,1,4,0:0:0:0:
192,128,19856,1,0,0:0:0:0:
192,256,20187,1,4,0:0:0:0:
192,256,20353,1,4,0:0:0:0:
192,256,20518,1,4,0:0:0:0:
320,128,21181,1,8,0:0:0:0:
320,256,21513,1,12,0:0:0:0:
192,128,21844,1,0,0:0:0:0:
320,128,22010,1,8,0:0:0:0:
192,128,22176,1,0,0:0:0:0:
320,128,22507,1,8,0:0:0:0:
320,128,22839,1,8,0:0:0:0:
320,128,23005,1,8,0:0:0:0:
192,128,23170,1,0,0:0:0:0:
320,128,23336,1,8,0:0:0:0:
192,128,23668,1,0,0:0:0:0:
320,128,23833,1,8,0:0:0:0:
192,256,24165,1,4,0:0:0:0:
320,128,24496,1,8,0:0:0:0:
192,128,24662,1,0,0:0:0:0:
192,128,24994,1,0,0:0:0:0:
320,128,25159,1,8,0:0:0:0:
192,128,25491,1,0,0:0:0:0:
192,128,25657,1,0,0:0:0:0:
320,128,25822,1,8,0:0:0:0:
320,128,26154,1,8,0:0:0:0:
192,128,26320,1,0,0:0:0:0:
320,128,26485,1,8,0:0:0:0:
320,128,26817,1,8,0:0:0:0:
192,128,26983,1,0,0:0:0:0:
192,128,27314,1,0,0:0:0:0:
320,128,27480,1,8,0:0:0:0:
192,128,27646,1,0,0:0:0:0:
320,128,27811,1,8,0:0:0:0:
320,128,28143,1,8,0:0:0:0:
320,128,28474,1,8,0:0:0:0:
192,128,28640,1,0,0:0:0:0:
320,128,28806,1,8,0:0:0:0:
320,128,29137,1,8,0:0:0:0:
192,128,29469,1,0,0:0:0:0:
192,128,29800,1,0,0:0:0:0:
192,128,29966,1,0,0:0:0:0:
320,128,30132,1,8,0:0:0:0:
320,128,30463,1,8,0:0:0:0:
192,128,30629,1,0,0:0:0:0:
320,128,30795,1,8,0:0:0:0:
192,128,31126,1,0,0:0:0:0:
320,128,31292,1,8,0:0:0:0:
320,128,31623,1,8,0:0:0:0:
192,128,31789,1,0,0:0:0:0:
192,128,31955,1,0,0:0:0:0:
320,128,32121,1,8,0:0:0:0:
192,128,32452,1,0,0:0:0:0:
320,128,32784,1,8,0:0:0:0:
192,128,32949,1,0,0:0:0:0:
320,128,33115,1,8,0:0:0:0:
192,128,33447,1,0,0:0:0:0:
320,128,33778,1,8,0:0:0:0:
192,128,33944,1,0,0:0:0:0:
192,128,34275,1,0,0:0:0:0:
320,128,34441,1,8,0:0:0:0:
192,128,34773,1,0,0:0:0:0:
192,128,34938,1,0,0:0:0:0:
320,128,35270,1,8,0:0:0:0:
192,128,35601,1,0,0:0:0:0:
320,128,35933,1,8,0:0:0:0:
192,128,36264,1,0,0:0:0:0:
320,128,36596,1,12,0:0:0:0:
192,128,36927,1,0,0:0:0:0:
320,128,37093,1,8,0:0:0:0:
320,256,37425,1,12,0:0:0:0:
320,128,38088,1,8,0:0:0:0:
192,128,38585,1,0,0:0:0:0:
192,128,38751,1,0,0:0:0:0:
192,128,39082,1,0,0:0:0:0:
320,128,39414,1,8,0:0:0:0:
320,128,39745,1,8,0:0:0:0:
192,128,40077,1,0,0:0:0:0:
320,128,40739,1,8,0:0:0:0:
192,128,41237,1,0,0:0:0:0:
192,128,41402,1,0,0:0:0:0:
320,128,41734,1,8,0:0:0:0:
192,128,41900,1,0,0:0:0:0:
320,128,42065,1,8,0:0:0:0:
320,128,42397,1,8,0:0:0:0:
192,128,42728,1,0,0:0:0:0:
320,128,43060,1,8,0:0:0:0:
192,128,43226,1,0,0:0:0:0:
192,128,43557,1,0,0:0:0:0:
320,128,43723,1,8,0:0:0:0:
192,128,44054,1,0,0:0:0:0:
192,128,44220,1,0,0:0:0:0:
320,128,44386,1,8,0:0:0:0:
192,128,44552,1,0,0:0:0:0:
192,128,44883,1,0,0:0:0:0:
320,128,45049,1,8,0:0:0:0:
192,128,45380,1,0,0:0:0:0:
192,128,45712,1,0,0:0:0:0:
192,128,45878,1,0,0:0:0:0:
320,128,46043,1,0,0:0:0:0:
320,128,46209,1,8,0:0:0:0:
320,128,46375,1,8,0:0:0:0:
320,128,46541,1,8,0:0:0:0:
192,256,46706,1,4,0:0:0:0:
192,256,47204,1,4,0:0:0:0:
192,256,47701,1,4,0:0:0:0:
192,256,48199,1,4,0:0:0:0:
192,128,48530,1,0,0:0:0:0:
320,128,48695,1,12,0:0:0:0:
320,128,49027,1,8,0:0:0:0:
320,128,49110,1,8,0:0:0:0:
320,128,49193,1,8,0:0:0:0:
192,128,49358,1,4,0:0:0:0:
192,128,49690,1,0,0:0:0:0:
320,128,49856,1,8,0:0:0:0:
192,128,50021,1,0,0:0:0:0:
320,128,50104,1,0,0:0:0:0:
192,128,50187,1,0,0:0:0:0:
320,128,50353,1,8,0:0:0:0:
320,128,50684,1,8,0:0:0:0:
192,128,51016,1,0,0:0:0:0:
192,128,51181,1,8,0:0:0:0:
192,128,51347,1,0,0:0:0:0:
192,128,51513,1,0,0:0:0:0:
320,128,51679,1,8,0:0:0:0:
192,128,52010,1,0,0:0:0:0:
192,128,52342,1,8,0:0:0:0:
320,128,52507,1,8,0:0:0:0:
192,128,52673,1,0,0:0:0:0:
320,128,53005,1,8,0:0:0:0:
192,128,53170,1,0,0:0:0:0:
320,128,53336,1,8,0:0:0:0:
320,128,53419,1,8,0:0:0:0:
320,128,53502,1,8,0:0:0:0:
192,128,53668,1,0,0:0:0:0:
320,128,53833,1,8,0:0:0:0:
192,128,53999,1,0,0:0:0:0:
320,128,54331,1,8,0:0:0:0:
320,128,54496,1,8,0:0:0:0:
192,256,54662,1,4,0:0:0:0:
320,128,54994,1,8,0:0:0:0:
192,128,55159,1,0,0:0:0:0:
192,128,55325,1,0,0:0:0:0:
192,128,55491,1,0,0:0:0:0:
320,128,55657,1,8,0:0:0:0:
192,128,55988,1,0,0:0:0:0:
320,128,56320,1,8,0:0:0:0:
320,128,56485,1,8,0:0:0:0:
192,128,56651,1,0,0:0:0:0:
192,128,57314,1,0,0:0:0:0:
192,128,57480,1,0,0:0:0:0:
320,128,57646,1,12,0:0:0:0:
192,128,57977,1,0,0:0:0:0:
192,128,58143,1,0,0:0:0:0:
320,128,58309,1,12,0:0:0:0:
192,256,58640,1,4,0:0:0:0:
192,256,59137,1,4,0:0:0:0:
192,128,59469,1,0,0:0:0:0:
320,128,59635,1,8,0:0:0:0:
192,128,59717,1,8,0:0:0:0:
320,128,59800,1,8,0:0:0:0:
192,256,59966,1,4,0:0:0:0:
192,128,60298,1,0,0:0:0:0:
320,128,60463,1,8,0:0:0:0:
192,128,60629,1,0,0:0:0:0:
192,128,60712,1,0,0:0:0:0:
192,128,60795,1,0,0:0:0:0:
192,128,60961,1,8,0:0:0:0:
320,128,61292,1,8,0:0:0:0:
192,128,61624,1,0,0:0:0:0:
320,128,61789,1,8,0:0:0:0:
192,128,61955,1,0,0:0:0:0:
192,128,62121,1,0,0:0:0:0:
320,128,62286,1,8,0:0:0:0:
192,128,62618,1,8,0:0:0:0:
192,128,62949,1,0,0:0:0:0:
192,128,63115,1,8,0:0:0:0:
192,128,63281,1,0,0:0:0:0:
192,128,63364,1,0,0:0:0:0:
192,128,63447,1,0,0:0:0:0:
320,128,63612,1,8,0:0:0:0:
320,128,63944,1,8,0:0:0:0:
320,128,64027,1,8,0:0:0:0:
192,128,64110,1,8,0:0:0:0:
192,128,64275,1,0,0:0:0:0:
320,128,64441,1,0,0:0:0:0:
320,128,64607,1,8,0:0:0:0:
320,128,64938,1,8,0:0:0:0:
320,128,65104,1,8,0:0:0:0:
192,256,65270,1,4,0:0:0:0:
320,128,65602,1,8,0:0:0:0:
192,128,65767,1,0,0:0:0:0:
192,128,65933,1,0,0:0:0:0:
192,128,66099,1,0,0:0:0:0:
320,128,66264,1,8,0:0:0:0:
192,128,66596,1,0,0:0:0:0:
192,128,66761,1,0,0:0:0:0:
320,128,66928,1,8,0:0:0:0:
320,128,67093,1,0,0:0:0:0:
320,128,67259,1,8,0:0:0:0:
320,128,67342,1,8,0:0:0:0:
320,128,67425,1,8,0:0:0:0:
192,128,67591,1,0,0:0:0:0:
320,128,67922,1,8,0:0:0:0:
192,128,68419,1,0,0:0:0:0:
320,128,68585,1,8,0:0:0:0:
320,128,68751,1,8,0:0:0:0:
320,128,69082,1,8,0:0:0:0:
192,128,69414,1,0,0:0:0:0:
320,128,69580,1,8,0:0:0:0:
320,128,69911,1,8,0:0:0:0:
192,128,70077,1,0,0:0:0:0:
192,128,70242,1,8,0:0:0:0:
320,128,70325,1,8,0:0:0:0:
320,128,70408,1,8,0:0:0:0:
192,256,70574,1,4,0:0:0:0:
320,128,71237,1,8,0:0:0:0:
192,256,71900,1,4,0:0:0:0:
192,256,72563,1,4,0:0:0:0:
192,128,73226,1,0,0:0:0:0:
192,128,73723,1,0,0:0:0:0:
192,128,74220,1,0,0:0:0:0:
192,128,74717,1,0,0:0:0:0:
320,256,75215,1,12,0:0:0:0:
320,256,75546,1,12,0:0:0:0:
192,128,75878,1,0,0:0:0:0:
192,128,76375,1,0,0:0:0:0:
192,128,76872,1,0,0:0:0:0:
192,128,77369,1,0,0:0:0:0:
320,256,77867,1,12,0:0:0:0:
320,256,78198,1,12,0:0:0:0:
192,224,78530,1,4,0:0:0:0:
320,128,78861,1,8,0:0:0:0:
192,128,79027,1,0,0:0:0:0:
320,128,79193,1,8,0:0:0:0:
320,128,79524,1,8,0:0:0:0:
320,128,79856,1,8,0:0:0:0:
192,128,80021,1,0,0:0:0:0:
320,128,80187,1,8,0:0:0:0:
192,128,80353,1,0,0:0:0:0:
192,128,80684,1,0,0:0:0:0:
320,128,80850,1,8,0:0:0:0:
320,128,81181,1,8,0:0:0:0:
192,128,81347,1,0,0:0:0:0:
320,128,81512,1,8,0:0:0:0:
192,128,81678,1,0,0:0:0:0:
320,128,81844,1,8,0:0:0:0:
192,128,82175,1,0,0:0:0:0:
320,128,82507,1,8,0:0:0:0:
192,128,82673,1,0,0:0:0:0:
320,128,82838,1,8,0:0:0:0:
192,128,83004,1,8,0:0:0:0:
192,128,83336,1,0,0:0:0:0:
320,128,83502,1,8,0:0:0:0:
320,128,83668,1,8,0:0:0:0:
192,128,83833,1,0,0:0:0:0:
320,128,84165,1,8,0:0:0:0:
192,128,84496,1,8,0:0:0:0:
192,128,84662,1,0,0:0:0:0:
192,128,84828,1,0,0:0:0:0:
320,128,84994,1,8,0:0:0:0:
320,256,85159,1,12,0:0:0:0:
320,256,85822,1,12,0:0:0:0:
192,256,86485,1,4,0:0:0:0:
