osu file format v14

[General]
AudioFilename: audio.mp3
AudioLeadIn: 0
PreviewTime: 48944
Countdown: 0
SampleSet: Soft
StackLeniency: 0.5
Mode: 0
LetterboxInBreaks: 0
WidescreenStoryboard: 0

[Editor]
Bookmarks: 82507
DistanceSpacing: 0.9
BeatDivisor: 2
GridSize: 8
TimelineZoom: 0.9

[Metadata]
Title:Ring Ring Rainbow!! (TV size)
TitleUnicode:Ring Ring Rainbow!! (TV size)
Artist:YUIKAORI
ArtistUnicode:ゆいかおり
Creator:Garden
Version:Normal
Source:城下町のダンデライオン
Tags:Left toara_fict Joukamachi no Dandelion castle town opening tvsize 小倉 唯 ogura yui 石原 夏織 ishihara kaori
BeatmapID:1111007
BeatmapSetID:463905

[Difficulty]
HPDrainRate:3
CircleSize:2.6
OverallDifficulty:3
ApproachRate:4.6
SliderMultiplier:1.1
SliderTickRate:1

[Events]
//Background and Video events
0,0,"hikari.jpg",0,0
//Break Periods
//Storyboard Layer 0 (Background)
//Storyboard Layer 1 (Fail)
//Storyboard Layer 2 (Pass)
//Storyboard Layer 3 (Foreground)
//Storyboard Sound Samples

[TimingPoints]
298,331.491712707182,4,2,1,70,1,0
13557,-100,4,2,1,60,0,0
15878,-100,4,2,2,60,0,0
16209,-100,4,2,1,60,0,0
18530,-100,4,2,2,60,0,0
18861,-100,4,2,1,60,0,0
21181,-100,4,2,2,60,0,0
21513,-100,4,2,1,70,0,0
49358,-100,4,2,1,80,0,1
59635,-100,4,2,1,80,0,0
59966,-100,4,2,1,80,0,1
67922,-100,4,2,1,80,0,0
78530,-100,4,2,1,80,0,1
86485,-100,4,2,1,80,0,0
88474,-100,4,2,1,5,0,0

[Colours]
Combo1 : 255,255,132
Combo2 : 255,49,152
Combo3 : 142,193,255
Combo4 : 255,134,255

[HitObjects]
79,248,298,6,0,B|56:201|56:201|62:137,1,110,12|12,0:0|0:0,0:0:0:0:
107,56,960,1,8,0:1:0:0:
107,56,1126,2,0,P|160:74|229:64,1,110,8|8,0:1|0:1,0:0:0:0:
309,47,1789,1,8,0:1:0:0:
282,142,2121,2,0,L|275:267,1,110,8|8,0:1|0:1,0:0:0:0:
273,301,2618,1,8,0:1:0:0:
360,346,2949,6,0,L|416:352,2,55,12|8|12,0:0|0:0|0:0,0:0:0:0:
374,247,3612,1,8,0:1:0:0:
374,247,3778,2,0,L|490:256,1,110,8|8,0:1|0:1,0:0:0:0:
485,156,4441,1,8,0:1:0:0:
399,105,4773,2,0,P|343:104|294:127,1,110,2|2,0:1|0:1,0:0:0:0:
257,158,5270,2,0,L|254:223,1,55,8|8,0:0|0:0,0:0:0:0:
253,262,5601,5,12,0:0:0:0:
197,344,5933,1,12,0:0:0:0:
98,349,6264,2,0,P|81:296|97:233,1,110,2|8,0:1|0:0,0:0:0:0:
118,202,6762,2,0,L|131:64,1,110,0|0,0:0|0:0,0:0:0:0:
170,65,7259,1,8,0:0:0:0:
170,65,7425,2,0,P|230:94|290:92,1,110,0|0,3:0|0:0,0:0:0:0:
320,85,7922,1,8,0:0:0:0:
408,128,8253,6,0,L|411:247,1,110,12|12,0:0|0:0,0:0:0:0:
411,337,8916,2,0,P|355:327|289:328,1,110,2|8,0:1|0:0,0:0:0:0:
253,339,9414,2,0,P|229:300|225:231,1,110,0|0,0:0|0:0,0:0:0:0:
264,208,9911,1,8,0:0:0:0:
264,208,10077,2,0,P|275:158|259:80,1,110,0|0,3:0|0:0,0:0:0:0:
240,58,10574,1,8,0:0:0:0:
141,55,10905,6,0,L|27:53,1,110,12|12,0:0|0:0,0:0:0:0:
63,146,11568,2,0,P|72:196|55:267,1,110,2|8,0:1|0:0,0:0:0:0:
81,350,12231,2,0,P|113:351|145:340,1,55,2|8,0:1|0:0,0:0:0:0:
178,321,12563,1,8,0:0:0:0:
178,321,12728,2,0,L|353:315,1,165,8|2,0:0|0:0,0:0:0:0:
432,273,13557,6,0,L|501:280,2,55,8|8|8,0:0|0:0|0:0,0:0:0:0:
349,217,14220,2,0,L|346:107,1,110,2|2,0:1|0:1,0:0:0:0:
391,19,14883,6,0,P|420:23|444:30,2,55,8|8|8,0:0|0:0|0:0,0:0:0:0:
291,21,15546,2,0,P|216:32|174:57,1,110,2|12,0:1|0:0,0:0:0:0:
105,105,16209,6,0,P|83:101|41:104,2,55,8|8|8,0:0|0:0|0:0,0:0:0:0:
195,146,16872,2,0,P|211:195|206:259,1,110,2|2,0:1|0:1,0:0:0:0:
128,312,17535,6,0,L|61:304,2,55,8|8|8,0:0|0:0|0:0,0:0:0:0:
219,349,18198,2,0,L|339:340,1,110,2|10,0:1|0:0,0:0:0:0:
413,290,18861,6,0,P|439:293|471:293,2,55,8|8|8,0:0|0:0|0:0,0:0:0:0:
325,242,19524,2,0,P|313:186|327:130,1,110,2|2,0:1|0:1,0:0:0:0:
404,77,20187,6,0,L|470:77,2,55,8|8|8,0:0|0:0|0:0,0:0:0:0:
312,38,20850,2,0,L|196:38,1,110,0|12,0:0|0:0,0:0:0:0:
106,63,21513,6,0,P|85:134|92:183,1,110,12|8,0:0|0:0,0:0:0:0:
166,229,22176,2,0,L|166:300,2,55,2|2|8,0:1|0:1|0:0,0:0:0:0:
247,171,22839,2,0,L|368:170,1,110,2|10,0:0|0:0,0:0:0:0:
406,172,23336,2,0,P|374:225|369:287,1,110,2|0,0:0|0:0,0:0:0:0:
381,319,23833,1,2,0:0:0:0:
290,359,24165,6,0,L|167:341,1,110,2|10,0:0|0:0,0:0:0:0:
132,335,24662,2,0,P|150:268|137:209,1,110,2|2,0:1|0:1,0:0:0:0:
123,183,25159,1,8,0:0:0:0:
52,112,25491,2,0,P|104:85|162:90,1,110,2|10,0:0|0:0,0:0:0:0:
194,116,25988,2,0,L|312:84,1,110,2|2,0:1|0:1,0:0:0:0:
347,71,26485,1,8,0:0:0:0:
431,122,26817,6,0,P|449:189|439:238,1,110,2|10,0:0|0:0,0:0:0:0:
398,250,27314,2,0,L|268:229,1,110,2|2,0:1|0:1,0:0:0:0:
240,225,27811,1,8,0:0:0:0:
161,164,28143,2,0,L|146:45,1,110,2|10,0:0|0:0,0:0:0:0:
241,25,28806,2,0,L|258:152,1,110,0|8,0:0|0:0,0:0:0:0:
266,182,29303,1,0,0:0:0:0:
266,182,29469,6,0,P|327:160|385:166,1,110,2|10,3:2|0:0,0:0:0:0:
417,181,29966,1,2,0:1:0:0:
417,181,30132,2,0,L|405:303,1,110,2|8,0:1|0:0,0:0:0:0:
334,358,30795,2,0,P|274:352|236:318,1,110,2|10,0:0|0:0,0:0:0:0:
209,280,31292,2,0,L|80:277,1,110,2|2,0:1|0:1,0:0:0:0:
49,278,31789,1,8,0:0:0:0:
73,181,32121,6,0,L|70:56,1,110,2|10,0:0|0:0,0:0:0:0:
165,44,32784,2,0,L|170:171,1,110,2|8,0:1|0:0,0:0:0:0:
199,248,33447,2,0,P|264:252|313:235,1,110,2|10,0:0|0:0,0:0:0:0:
338,201,33944,2,0,L|333:76,1,110,2|2,0:1|0:1,0:0:0:0:
292,62,34441,1,8,0:0:0:0:
192,62,34773,6,0,L|186:8,2,55,10|8|2,0:0|0:0|3:2,0:0:0:0:
151,90,35270,2,0,P|134:150|133:212,1,110,12|0,0:0|3:0,0:0:0:0:
148,295,35933,2,0,L|264:268,1,110,12|0,0:0|3:0,0:0:0:0:
346,307,36596,2,0,L|466:278,1,110,2|8,0:0|0:3,0:0:0:0:
500,268,37093,1,10,0:0:0:0:
487,171,37425,6,0,B|456:128|390:128|390:128|345:165|274:155,1,220,4|8,0:0|0:0,0:0:0:0:
195,119,38419,1,2,0:0:0:0:
117,56,38751,2,0,P|166:24|235:24,1,110,2|2,3:2|3:2,0:0:0:0:
311,49,39414,2,0,L|284:164,1,110,8|2,0:0|0:0,0:0:0:0:
236,242,40077,6,0,B|294:266|342:238|342:238|412:244|441:298,1,220,2|8,3:2|0:0,0:0:0:0:
352,343,41071,1,2,0:0:0:0:
253,349,41402,2,0,P|192:332|152:305,1,110,2|2,3:2|0:0,0:0:0:0:
81,238,42065,2,0,P|91:185|80:123,1,110,8|2,0:0|0:0,0:0:0:0:
30,45,42728,6,0,P|88:33|154:58,1,110,2|2,3:2|3:2,0:0:0:0:
182,65,43226,2,0,L|309:57,1,110,8|0,0:0|0:0,0:0:0:0:
341,57,43723,1,2,0:0:0:0:
319,153,44054,2,0,P|301:223|307:288,1,110,2|2,3:2|3:2,0:0:0:0:
314,308,44552,2,0,L|431:301,1,110,8|0,0:0|0:0,0:0:0:0:
473,297,45049,1,2,0:0:0:0:
482,198,45380,6,0,P|485:135|468:73,1,110,4|8,0:0|0:0,0:0:0:0:
384,48,46043,2,0,L|273:47,1,110,8|8,0:0|0:0,0:0:0:0:
174,50,46706,6,0,B|179:111|233:139|233:139|215:218,1,165,4|4,0:0|0:0,0:0:0:0:
222,339,47701,2,0,B|331:318|331:318|396:333,1,165,4|4,0:0|0:0,0:0:0:0:
329,191,48695,2,0,L|205:216,1,110,8|4,0:0|0:0,0:0:0:0:
125,184,49358,6,0,P|106:132|115:74,1,110,4|10,0:1|0:0,0:0:0:0:
141,37,49856,1,0,0:0:0:0:
141,37,50021,2,0,L|271:39,1,110,2|8,0:1|0:0,0:0:0:0:
288,71,50518,2,0,L|365:72,1,55,0|2,0:0|0:0,0:0:0:0:
424,128,51016,2,0,L|501:131,2,55,10|0|2,0:0|3:0|3:1,0:0:0:0:
334,170,51679,2,0,L|340:235,1,55,8|0,0:0|0:0,0:0:0:0:
343,274,52010,6,0,P|288:266|224:277,1,110,2|10,0:0|0:0,0:0:0:0:
188,293,52507,1,0,0:0:0:0:
188,293,52673,2,0,L|179:171,1,110,2|8,0:1|0:0,0:0:0:0:
175,133,53170,2,0,L|234:124,1,55,0|2,0:0|0:0,0:0:0:0:
287,44,53668,2,0,L|354:32,2,55,10|0|2,0:0|3:0|3:1,0:0:0:0:
191,18,54331,2,0,L|138:29,1,55,8|0,0:0|0:0,0:0:0:0:
89,43,54662,6,0,P|54:104|52:149,1,110,4|10,0:0|0:0,0:0:0:0:
78,183,55159,1,0,0:0:0:0:
78,183,55325,2,0,L|76:302,1,110,2|8,0:1|0:0,0:0:0:0:
105,332,55822,1,0,0:0:0:0:
105,332,55988,2,0,P|159:309|237:312,1,110,2|10,0:0|0:0,0:0:0:0:
255,325,56485,2,0,L|322:317,1,55,0|2,0:0|0:1,0:0:0:0:
385,254,56983,1,8,0:0:0:0:
329,171,57314,6,0,L|322:95,2,55,4|4|12,0:0|0:3|0:0,0:0:0:0:
385,254,57977,2,0,L|461:247,2,55,4|4|12,0:0|0:3|0:0,0:0:0:0:
309,318,58640,2,0,L|197:329,1,110,4|8,0:0|0:0,0:0:0:0:
152,314,59137,2,0,P|101:280|88:205,1,110,4|0,0:0|0:0,0:0:0:0:
92,186,59635,1,2,3:2:0:0:
116,90,59966,6,0,P|181:89|231:66,1,110,4|10,0:1|0:0,0:0:0:0:
265,48,60463,1,0,0:0:0:0:
265,48,60629,2,0,P|330:36|393:50,1,110,2|8,0:1|0:0,0:0:0:0:
419,59,61126,2,0,L|420:128,1,55,0|2,0:0|0:0,0:0:0:0:
422,213,61623,2,0,L|478:209,2,55,10|0|2,0:0|3:0|3:1,0:0:0:0:
333,168,62286,2,0,L|269:170,1,55,8|0,0:0|0:0,0:0:0:0:
228,172,62618,6,0,P|207:223|202:286,1,110,2|10,0:0|0:0,0:0:0:0:
208,326,63115,1,0,0:0:0:0:
208,326,63281,2,0,L|84:315,1,110,2|8,0:1|0:0,0:0:0:0:
49,309,63778,2,0,L|44:254,1,55,0|2,0:0|0:0,0:0:0:0:
79,161,64275,2,0,L|73:93,2,55,10|0|2,0:0|3:0|3:1,0:0:0:0:
166,206,64938,2,0,L|223:199,1,55,8|0,0:0|0:0,0:0:0:0:
269,191,65270,6,0,P|282:138|269:68,1,110,4|10,0:0|0:0,0:0:0:0:
251,40,65767,1,0,0:0:0:0:
251,40,65933,2,0,L|374:26,1,110,2|8,0:1|0:0,0:0:0:0:
454,57,66596,2,0,L|457:118,1,55,8|0,0:3|3:0,0:0:0:0:
424,149,66927,2,0,L|427:209,1,55,8|0,0:0|3:0,0:0:0:0:
463,237,67259,2,0,L|469:358,1,110,0|8,3:0|0:0,0:0:0:0:
370,359,67922,6,0,P|309:356|243:337,1,110,4|10,0:0|3:2,0:0:0:0:
220,316,68419,2,0,L|224:251,2,55,0|0|0,3:0|3:0|3:0,0:0:0:0:
120,317,69082,2,0,L|127:199,1,110,2|10,0:0|3:2,0:0:0:0:
130,157,69579,1,0,3:0:0:0:
224,126,69911,2,0,P|281:138|342:129,1,110,2|10,0:0|0:0,0:0:0:0:
336,33,70574,6,0,P|278:20|218:30,1,110,4|2,0:0|0:0,0:0:0:0:
141,75,71237,2,0,B|112:123|138:181|138:181|101:232|121:298,1,220,2|12,0:0|0:0,0:0:0:0:
315,273,72563,1,12,0:0:0:0:
211,103,73226,6,0,L|207:44,1,55,8|8,0:0|0:0,0:0:0:0:
306,39,73723,2,0,L|311:93,1,55,8|8,0:0|0:0,0:0:0:0:
323,192,74220,2,0,L|397:191,1,55,8|8,0:0|0:0,0:0:0:0:
380,290,74717,2,0,L|295:292,1,55,8|8,0:0|0:0,0:0:0:0:
237,243,75215,2,0,L|117:247,1,110,12|12,0:0|0:0,0:0:0:0:
63,170,75878,6,0,L|57:108,1,55,8|8,0:0|0:0,0:0:0:0:
154,92,76375,2,0,L|144:20,1,55,8|8,0:0|0:0,0:0:0:0:
245,28,76872,2,0,L|308:23,1,55,8|8,0:0|0:0,0:0:0:0:
331,117,77369,2,0,L|401:111,1,55,8|8,0:0|0:0,0:0:0:0:
484,105,77867,2,0,B|485:138|485:138|453:217,1,110,12|2,0:0|3:2,0:0:0:0:
440,256,78364,1,2,3:2:0:0:
440,256,78530,6,0,P|373:250|327:259,1,110,4|10,0:1|0:0,0:0:0:0:
245,307,79193,1,2,0:1:0:0:
170,242,79524,1,8,0:0:0:0:
256,194,79856,2,0,L|269:70,1,110,2|10,0:0|0:0,0:0:0:0:
236,46,80353,1,0,0:0:0:0:
236,46,80518,2,0,P|182:33|117:45,1,110,2|8,3:1|0:0,0:0:0:0:
40,86,81181,6,0,L|50:212,1,110,2|10,0:0|0:0,0:0:0:0:
60,294,81844,1,2,0:1:0:0:
141,238,82176,1,10,0:0:0:0:
152,336,82507,2,0,L|269:333,1,110,2|10,0:0|0:0,0:0:0:0:
299,300,83005,1,0,0:0:0:0:
299,300,83170,2,0,L|410:299,1,110,2|10,3:1|0:0,0:0:0:0:
487,238,83833,6,0,P|497:185|473:108,1,110,4|10,0:0|0:0,0:0:0:0:
410,65,84496,2,0,L|291:62,1,110,4|10,0:0|0:0,0:0:0:0:
250,66,84994,1,4,0:3:0:0:
250,66,85159,2,0,B|231:123|231:123|243:173|243:173|221:230|258:287,1,220,4|4,0:0|0:0,0:0:0:0:
344,315,86154,1,0,3:0:0:0:
346,216,86485,5,4,0:1:0:0:
256,192,86651,12,0,88474,0:0:0:0:
