osu file format v14

[General]
AudioFilename: audio.mp3
AudioLeadIn: 0
PreviewTime: 48944
Countdown: 0
SampleSet: Soft
StackLeniency: 0.5
Mode: 0
LetterboxInBreaks: 0
WidescreenStoryboard: 0

[Editor]
Bookmarks: 78861,82507
DistanceSpacing: 1.3
BeatDivisor: 4
GridSize: 8
TimelineZoom: 1.2

[Metadata]
Title:Ring Ring Rainbow!! (TV size)
TitleUnicode:Ring Ring Rainbow!! (TV size)
Artist:YUIKAORI
ArtistUnicode:ゆいかおり
Creator:Garden
Version:Left's Insane
Source:城下町のダンデライオン
Tags:Left toara_fict Joukamachi no Dandelion castle town opening tvsize 小倉 唯 ogura yui 石原 夏織 ishihara kaori
BeatmapID:1111224
BeatmapSetID:463905

[Difficulty]
HPDrainRate:6
CircleSize:4
OverallDifficulty:8
ApproachRate:9
SliderMultiplier:1.8
SliderTickRate:1

[Events]
//Background and Video events
0,0,"hikari.jpg",0,0
//Break Periods
//Storyboard Layer 0 (Background)
//Storyboard Layer 1 (Fail)
//Storyboard Layer 2 (Pass)
//Storyboard Layer 3 (Foreground)
//Storyboard Sound Samples

[TimingPoints]
298,331.491712707182,4,2,1,70,1,0
298,-90.9090909090909,4,2,1,70,0,0
960,-111.111111111111,4,2,1,55,0,0
2949,-111.111111111111,4,2,1,70,0,0
3612,-111.111111111111,4,2,1,55,0,0
4275,-100,4,2,1,70,0,0
13060,-90.9090909090909,4,2,1,70,0,0
13557,-125,4,2,1,70,0,0
14220,-125,4,2,1,45,0,0
14883,-125,4,2,1,70,0,0
15546,-125,4,2,1,45,0,0
15878,-125,4,2,2,45,0,0
16126,-125,4,2,1,70,0,0
16872,-125,4,2,1,45,0,0
17535,-125,4,2,1,70,0,0
18198,-125,4,2,1,45,0,0
18530,-125,4,2,2,45,0,0
18778,-125,4,2,1,70,0,0
19524,-125,4,2,1,45,0,0
20187,-125,4,2,1,70,0,0
20850,-125,4,2,1,45,0,0
21181,-125,4,2,2,45,0,0
21513,-100,4,2,1,65,0,0
35270,-100,4,2,1,72,0,0
35933,-100,4,2,1,79,0,0
36596,-100,4,2,1,85,0,0
37425,-142.857142857143,4,2,1,55,0,0
42728,-100,4,2,1,65,0,0
44054,-90.9090909090909,4,2,1,65,0,0
46043,-90.9090909090909,4,2,1,70,0,0
46375,-90.9090909090909,4,2,1,75,0,0
46706,-76.9230769230769,4,2,1,80,0,0
48530,-76.9230769230769,4,2,1,65,0,0
49027,-62.5,4,2,1,80,0,0
49358,-83.3333333333333,4,2,1,80,0,1
59635,-83.3333333333333,4,2,1,80,0,0
59966,-83.3333333333333,4,2,1,80,0,1
67922,-142.857142857143,4,2,1,65,0,0
69911,-100,4,2,1,75,0,1
70574,-142.857142857143,4,2,1,65,0,0
75215,-83.3333333333333,4,2,1,65,0,0
78530,-100,4,2,1,65,0,0
85159,-133.333333333333,4,2,1,65,0,0
88474,-133.333333333333,4,2,1,5,0,0

[Colours]
Combo1 : 255,255,132
Combo2 : 255,49,152
Combo3 : 142,193,255
Combo4 : 255,134,255

[HitObjects]
150,17,298,6,0,P|162:169|162:169,1,148.500004531861,12|0,0:0|0:0,0:0:0:0:
182,182,629,2,0,L|175:65,1,99.0000030212403,12|0,0:0|0:0,0:0:0:0:
75,154,960,1,8,0:1:0:0:
107,239,1126,2,0,P|118:288|118:332,1,80.9999975280763,8|2,0:1|0:1,0:0:0:0:
47,381,1458,6,0,B|84:349|84:349|218:366,1,161.999995056153,8|8,0:1|0:1,0:0:0:0:
243,192,1955,1,2,0:1:0:0:
262,280,2121,2,0,P|205:274|170:242,1,80.9999975280763,8|2,0:1|0:1,0:0:0:0:
250,175,2452,1,8,0:1:0:0:
250,175,2618,1,8,0:1:0:0:
404,37,2949,5,12,0:0:0:0:
418,142,3115,1,8,0:0:0:0:
433,245,3281,1,12,0:0:0:0:
404,37,3612,1,8,0:1:0:0:
332,99,3778,2,0,P|274:85|247:69,1,80.9999975280763,8|2,0:1|0:1,0:0:0:0:
125,76,4110,1,8,0:1:0:0:
226,253,4275,5,2,0:1:0:0:
241,157,4441,1,8,0:1:0:0:
125,76,4607,1,2,0:1:0:0:
144,188,4773,1,2,0:1:0:0:
255,74,4938,5,8,0:0:0:0:
368,188,5104,2,0,L|359:264,2,45,2|0|8,0:1|0:0|0:0,0:0:0:0:
480,260,5436,5,8,0:0:0:0:
476,237,5518,1,0,0:0:0:0:
474,216,5601,1,12,0:0:0:0:
377,106,5767,1,0,0:0:0:0:
275,211,5933,2,0,P|333:229|386:232,1,90,12|0,0:0|0:0,0:0:0:0:
454,42,6264,1,2,0:1:0:0:
377,106,6430,2,0,P|319:124|266:127,1,90,0|8,0:0|0:0,0:0:0:0:
96,37,6762,6,0,B|75:87|75:87|97:218,1,180,0|0,0:0|0:0,0:0:0:0:
159,286,7259,1,8,0:0:0:0:
49,351,7425,2,0,L|-28:360,2,45,0|0|0,3:0|3:0|3:0,0:0:0:0:
95,211,7756,1,0,0:0:0:0:
225,359,7922,2,0,P|278:351|318:334,1,90,8|0,0:0|0:0,0:0:0:0:
453,206,8253,6,0,L|468:308,1,90,12|0,0:0|0:0,0:0:0:0:
349,133,8585,2,0,L|334:235,1,90,12|0,0:0|0:0,0:0:0:0:
256,74,8916,1,2,0:1:0:0:
163,133,9082,2,0,L|178:235,1,90,0|8,0:0|0:0,0:0:0:0:
327,337,9414,6,0,B|243:295|243:295|150:317,1,180,0|0,0:0|0:0,0:0:0:0:
71,363,9911,1,8,0:0:0:0:
57,168,10077,1,0,3:0:0:0:
57,168,10159,1,0,3:0:0:0:
57,168,10242,1,0,3:0:0:0:
61,264,10408,1,0,0:0:0:0:
152,184,10574,2,0,P|141:124|115:80,1,90,8|0,0:0|0:0,0:0:0:0:
159,277,10905,6,0,L|286:253,1,90,12|0,0:0|0:0,0:0:0:0:
405,110,11237,2,0,L|278:86,1,90,12|0,0:0|0:0,0:0:0:0:
377,277,11568,1,2,0:1:0:0:
486,262,11734,1,0,0:0:0:0:
391,193,11900,1,8,0:0:0:0:
365,363,12065,1,0,0:0:0:0:
152,247,12231,5,2,0:1:0:0:
326,268,12397,1,8,0:0:0:0:
264,131,12563,1,8,0:0:0:0:
270,334,12728,2,0,P|285:266|291:160,1,135,8|0,0:0|0:0,0:0:0:0:
264,131,13060,6,0,L|268:181,1,49.5000015106202,0|0,0:0|0:0,0:0:0:0:
350,147,13226,2,0,L|346:97,1,49.5000015106202,2|0,0:0|0:0,0:0:0:0:
425,67,13391,2,0,L|429:117,1,49.5000015106202,2|0,0:0|0:0,0:0:0:0:
444,257,13557,5,8,0:0:0:0:
356,238,13723,1,8,0:0:0:0:
270,220,13889,1,8,0:0:0:0:
54,270,14220,6,0,L|65:347,1,72,2|0,0:1|0:0,0:0:0:0:
150,319,14552,2,0,L|139:242,1,72,2|0,0:1|0:0,0:0:0:0:
70,93,14883,5,8,0:0:0:0:
156,111,15049,1,8,0:0:0:0:
244,130,15215,1,8,0:0:0:0:
362,267,15546,6,0,B|350:303|350:303|356:349,1,72,2|0,0:1|0:0,0:0:0:0:
289,240,15878,2,0,B|269:291|269:291|277:356,1,108,12|0,0:0|0:0,0:0:0:0:
285,370,16209,5,8,0:0:0:0:
196,352,16375,1,8,0:0:0:0:
108,335,16541,1,8,0:0:0:0:
84,131,16872,6,0,L|93:218,1,72,2|0,0:1|0:0,0:0:0:0:
178,188,17204,2,0,L|169:275,1,72,2|0,0:1|0:0,0:0:0:0:
350,136,17535,5,8,0:0:0:0:
259,116,17701,1,8,0:0:0:0:
171,95,17867,1,8,0:0:0:0:
170,259,18198,6,0,P|216:243|254:244,1,72,2|0,0:1|0:0,0:0:0:0:
370,251,18530,2,0,B|359:198|359:198|310:240,1,108,2|0,0:0|0:0,0:0:0:0:
288,305,18861,5,8,0:0:0:0:
442,221,19027,1,8,0:0:0:0:
274,164,19193,2,0,P|263:126|258:93,1,72,8|0,0:0|0:0,0:0:0:0:
326,31,19524,1,2,0:1:0:0:
326,31,19690,1,0,0:0:0:0:
258,93,19856,2,0,L|180:102,1,72,2|0,0:1|0:0,0:0:0:0:
36,247,20187,5,8,0:0:0:0:
195,202,20353,1,8,0:0:0:0:
88,77,20518,2,0,L|95:156,1,72,8|0,0:0|0:0,0:0:0:0:
195,202,20850,2,0,L|184:299,1,72,0|0,0:0|0:0,0:0:0:0:
91,330,21181,1,12,0:0:0:0:
334,337,21513,6,0,B|419:344|419:344|530:305,2,180,12|8|2,0:0|0:0|0:1,0:0:0:0:
257,277,22342,1,2,0:1:0:0:
332,208,22507,2,0,P|346:150|348:112,1,90,8|0,0:0|0:0,0:0:0:0:
163,119,22839,6,0,P|168:164|180:208,1,90,2|0,0:0|0:0,0:0:0:0:
207,36,23170,1,10,0:0:0:0:
332,209,23336,2,0,L|513:186,1,180,2|0,0:0|0:0,0:0:0:0:
510,186,23751,1,2,0:0:0:0:
510,186,23833,1,2,0:0:0:0:
372,323,23999,1,2,0:0:0:0:
372,323,24082,1,0,0:0:0:0:
372,323,24165,6,0,L|254:310,1,90,2|0,0:0|0:0,0:0:0:0:
120,187,24496,1,10,0:0:0:0:
70,281,24662,2,0,P|162:286|227:202,1,180,2|2,0:1|0:1,0:0:0:0:
128,101,25159,2,0,B|110:144|110:144|124:207,1,90,8|0,0:0|0:0,0:0:0:0:
270,61,25491,5,2,0:0:0:0:
308,161,25657,1,0,0:0:0:0:
410,130,25822,1,10,0:0:0:0:
328,267,25988,2,0,P|276:260|231:231,1,90,2|0,0:1|0:0,0:0:0:0:
144,361,26320,1,2,0:1:0:0:
144,361,26402,1,0,0:0:0:0:
144,361,26485,2,0,L|251:341,1,90,8|0,0:0|0:0,0:0:0:0:
404,206,26817,6,0,P|422:254|421:298,2,90,2|0|10,0:0|0:0|0:0,0:0:0:0:
254,93,27314,1,2,0:1:0:0:
209,182,27480,1,0,0:0:0:0:
338,264,27646,1,2,0:1:0:0:
302,175,27811,1,8,0:0:0:0:
165,269,27977,1,0,0:0:0:0:
77,121,28143,6,0,P|156:100|270:93,1,180,2|10,0:0|0:0,0:0:0:0:
420,146,28640,1,2,0:1:0:0:
420,146,28806,1,0,0:0:0:0:
325,206,28972,1,2,0:1:0:0:
359,50,29137,1,8,0:0:0:0:
394,278,29303,1,0,0:0:0:0:
394,278,29386,1,0,3:0:0:0:
394,278,29469,6,0,B|341:304|341:304|185:274,1,180,2|10,3:2|0:0,0:0:0:0:
46,234,29966,1,2,0:1:0:0:
117,300,30132,2,0,P|143:250|142:200,1,90,0|2,0:0|0:1,0:0:0:0:
172,99,30463,1,8,0:0:0:0:
44,60,30629,1,0,0:0:0:0:
172,99,30795,6,0,L|370:74,1,180,2|10,0:0|0:0,0:0:0:0:
281,208,31292,2,0,P|262:162|271:103,2,90,2|0|2,0:1|0:0|0:1,0:0:0:0:
460,306,31789,2,0,P|384:266|330:281,1,135,8|0,0:0|0:0,0:0:0:0:
286,343,32121,6,0,L|168:324,1,90,2|0,0:0|0:0,0:0:0:0:
76,206,32452,2,0,L|194:187,1,90,10|0,0:0|0:0,0:0:0:0:
261,129,32784,2,0,B|279:170|279:170|271:225,1,90,2|2,0:1|0:1,0:0:0:0:
137,288,33115,1,8,0:0:0:0:
105,109,33281,1,0,0:0:0:0:
272,214,33447,6,0,P|357:213|470:179,1,180,2|10,0:0|0:0,0:0:0:0:
357,347,33944,2,0,B|325:309|325:309|191:300,1,180,2|2,0:1|0:1,0:0:0:0:
125,131,34441,2,0,P|148:177|147:217,1,90,8|0,0:0|0:0,0:0:0:0:
32,100,34773,6,0,B|84:94|120:108|120:108|152:80|223:71,1,180,10|2,0:0|3:2,0:0:0:0:
299,181,35270,6,0,P|252:174|204:185,1,90,12|0,0:0|0:0,0:0:0:0:
256,275,35601,1,0,3:0:0:0:
256,275,35767,1,8,0:0:0:0:
480,100,35933,6,0,B|428:94|392:108|392:108|360:80|289:71,1,180,12|0,0:0|3:0,0:0:0:0:
193,111,36430,1,8,0:0:0:0:
347,332,36596,6,0,B|375:198|375:198|321:228,1,180,2|8,0:0|0:3,0:0:0:0:
337,218,37010,1,0,0:0:0:0:
337,218,37093,1,10,0:0:0:0:
132,307,37425,6,0,P|92:244|116:190,1,125.999996154785,4|2,0:0|0:0,0:0:0:0:
178,147,37922,1,2,0:1:0:0:
178,147,38088,2,0,L|166:67,2,62.9999980773926,8|2|2,0:0|0:1|0:0,0:0:0:0:
255,183,38585,1,0,3:0:0:0:
334,147,38751,6,0,L|346:67,1,62.9999980773926,2|2,3:2|0:1,0:0:0:0:
388,216,39082,2,0,P|348:229|312:228,1,62.9999980773926,2|2,3:2|0:1,0:0:0:0:
202,294,39414,2,0,L|215:373,2,62.9999980773926,8|2|2,0:0|0:1|0:0,0:0:0:0:
185,208,39911,1,0,3:0:0:0:
47,115,40077,6,0,B|79:136|79:136|187:117,1,125.999996154785,2|2,3:2|3:2,0:0:0:0:
228,58,40574,1,2,0:1:0:0:
228,58,40739,2,0,P|270:66|311:61,1,62.9999980773926,8|2,0:0|0:1,0:0:0:0:
400,37,41071,1,2,0:0:0:0:
368,120,41237,1,0,3:0:0:0:
448,276,41402,6,0,L|529:265,2,62.9999980773926,2|0|2,3:2|3:0|0:0,0:0:0:0:
380,212,41900,1,2,0:1:0:0:
315,373,42065,1,8,0:0:0:0:
293,249,42231,1,2,0:1:0:0:
158,309,42397,1,2,0:0:0:0:
210,222,42563,1,0,0:0:0:0:
126,80,42728,6,0,L|23:94,2,90,2|0|0,3:2|0:0|0:0,0:0:0:0:
275,182,43226,2,0,P|254:247|245:180,1,180,8|0,0:0|0:0,0:0:0:0:
386,80,43723,1,2,0:0:0:0:
386,276,44054,6,0,P|415:209|416:143,2,99.0000030212403,2|0|2,3:2|3:0|3:2,0:0:0:0:
233,136,44552,2,0,P|251:206|264:128,1,198.000006042481,8|0,0:0|0:0,0:0:0:0:
94,183,45049,2,0,P|102:228|127:278,1,99.0000030212403,2|2,0:0|0:0,0:0:0:0:
125,48,45380,1,4,0:0:0:0:
125,48,45712,5,8,0:0:0:0:
152,171,45878,1,4,0:3:0:0:
257,79,46043,5,8,0:0:0:0:
67,129,46209,1,4,0:3:0:0:
227,284,46375,5,8,0:0:0:0:
250,102,46541,1,8,0:0:0:0:
53,308,46706,6,0,L|262:279,1,175.499991966248,4|0,0:0|0:0,0:0:0:0:
259,297,47038,1,0,3:0:0:0:
59,216,47204,1,4,0:0:0:0:
446,78,47701,6,0,L|241:105,1,175.499991966248,4|0,0:0|0:0,0:0:0:0:
242,83,48033,1,0,3:0:0:0:
432,172,48199,1,4,0:0:0:0:
107,306,48530,6,0,L|100:377,2,58.4999973220826,8|4|8,0:3|0:3|0:0,0:0:0:0:
117,127,48861,1,0,0:0:0:0:
147,229,49027,6,0,B|117:127|117:127|46:224,1,216,4|0,0:0|0:0,0:0:0:0:
107,306,49358,6,0,B|172:326|207:290|207:290|255:247|323:274,1,215.999993408203,4|10,0:1|0:0,0:0:0:0:
467,352,49856,1,0,0:0:0:0:
467,352,50021,2,0,L|484:215,1,107.999996704102,2|0,0:1|0:0,0:0:0:0:
346,63,50353,1,8,0:0:0:0:
387,215,50518,1,0,0:0:0:0:
477,108,50684,6,0,B|430:77|430:77|257:112,1,215.999993408203,2|10,0:0|0:0,0:0:0:0:
115,164,51181,1,0,3:0:0:0:
115,164,51264,1,0,3:0:0:0:
115,164,51347,1,2,3:1:0:0:
130,66,51513,1,0,0:0:0:0:
188,235,51679,1,8,0:0:0:0:
33,214,51844,1,0,0:0:0:0:
163,341,52010,6,0,B|258:292|258:292|379:358,1,215.999993408203,2|10,0:0|0:0,0:0:0:0:
188,235,52507,1,0,0:0:0:0:
188,235,52673,2,0,P|173:187|166:122,1,107.999996704102,2|0,0:1|0:0,0:0:0:0:
345,129,53005,2,0,P|339:183|323:235,1,107.999996704102,8|0,0:0|0:0,0:0:0:0:
467,326,53336,6,0,L|453:187,1,107.999996704102,2|0,0:0|0:0,0:0:0:0:
286,328,53668,1,10,0:0:0:0:
222,248,53833,1,0,3:0:0:0:
222,248,53916,1,0,3:0:0:0:
222,248,53999,2,0,P|275:226|331:239,1,107.999996704102,2|0,3:1|0:0,0:0:0:0:
512,145,54331,2,0,P|459:123|403:136,1,107.999996704102,8|0,0:0|0:0,0:0:0:0:
247,47,54662,6,0,B|204:85|204:85|32:65,1,215.999993408203,4|10,0:0|0:0,0:0:0:0:
32,241,55159,1,0,0:0:0:0:
32,241,55325,2,0,P|94:228|134:194,1,107.999996704102,2|0,0:1|0:0,0:0:0:0:
36,36,55657,2,0,L|46:156,1,107.999996704102,8|0,0:0|0:0,0:0:0:0:
219,153,55988,6,0,L|191:396,1,215.999993408203,2|10,0:0|0:0,0:0:0:0:
320,98,56485,1,0,0:0:0:0:
341,218,56651,1,2,0:1:0:0:
219,153,56817,1,0,0:0:0:0:
425,127,56983,1,8,0:0:0:0:
356,305,57148,1,0,0:0:0:0:
338,199,57314,5,4,0:0:0:0:
338,199,57480,1,4,0:3:0:0:
93,239,57646,1,12,0:0:0:0:
308,302,57977,5,4,0:0:0:0:
308,302,58143,1,4,0:3:0:0:
142,136,58309,1,12,0:0:0:0:
175,330,58640,5,4,0:0:0:0:
256,117,58806,1,0,0:0:0:0:
175,330,58972,1,8,0:0:0:0:
256,117,59137,2,0,L|255:239,1,107.999996704102,4|0,0:0|0:0,0:0:0:0:
170,122,59469,5,0,0:0:0:0:
170,122,59552,1,2,3:2:0:0:
170,122,59635,2,0,L|180:48,1,53.9999983520508,2|0,3:2|0:0,0:0:0:0:
334,68,59800,2,0,L|342:122,1,53.9999983520508,2|0,3:2|0:0,0:0:0:0:
208,197,59966,6,0,B|157:219|107:181|107:181|54:129|-17:173,1,215.999993408203,4|10,0:1|0:0,0:0:0:0:
134,303,60463,1,0,0:0:0:0:
134,303,60629,2,0,P|203:303|279:274,1,107.999996704102,2|0,0:1|0:0,0:0:0:0:
466,239,60960,1,8,0:0:0:0:
299,192,61126,1,0,0:0:0:0:
418,324,61292,6,0,L|440:92,1,215.999993408203,2|10,0:0|0:0,0:0:0:0:
262,48,61789,1,0,3:0:0:0:
262,48,61872,1,0,3:0:0:0:
262,48,61955,1,2,3:1:0:0:
288,150,62121,1,0,0:0:0:0:
158,227,62286,2,0,P|173:147|184:112,1,107.999996704102,8|0,0:0|0:0,0:0:0:0:
243,315,62618,6,0,B|153:255|153:255|41:290,1,215.999993408203,2|10,0:0|0:0,0:0:0:0:
294,221,63115,1,0,0:0:0:0:
378,283,63281,2,0,P|437:300|503:306,1,107.999996704102,2|0,0:1|0:0,0:0:0:0:
333,377,63612,1,8,0:0:0:0:
294,221,63778,1,0,0:0:0:0:
419,110,63944,6,0,L|291:86,1,107.999996704102,2|0,0:0|0:0,0:0:0:0:
128,179,64275,1,10,0:0:0:0:
238,150,64441,1,0,3:0:0:0:
238,150,64524,1,0,3:0:0:0:
238,150,64607,1,2,3:1:0:0:
51,118,64773,1,0,0:0:0:0:
87,272,64938,1,8,0:0:0:0:
51,118,65104,1,0,0:0:0:0:
233,326,65270,6,0,B|286:349|286:349|455:312,1,215.999993408203,4|10,0:0|0:0,0:0:0:0:
320,126,65767,1,0,0:0:0:0:
320,126,65933,2,0,P|333:182|337:259,1,107.999996704102,2|0,0:1|0:0,0:0:0:0:
174,232,66264,2,0,P|179:178|192:126,1,107.999996704102,8|0,0:0|0:0,0:0:0:0:
255,307,66596,5,8,0:3:0:0:
80,285,66762,1,0,3:0:0:0:
276,223,66927,5,8,0:0:0:0:
84,176,67093,1,0,3:0:0:0:
310,144,67259,5,0,3:0:0:0:
114,73,67425,1,0,3:0:0:0:
101,106,67507,1,0,3:0:0:0:
91,141,67590,1,8,0:0:0:0:
84,176,67673,1,0,3:0:0:0:
79,212,67756,1,0,3:0:0:0:
78,248,67839,1,0,3:0:0:0:
79,284,67922,6,0,L|224:269,1,125.999996154785,4|10,0:0|3:2,0:0:0:0:
332,318,68419,2,0,L|324:390,2,62.9999980773926,0|0|0,3:0|3:0|3:0,0:0:0:0:
303,88,69082,6,0,P|355:110|450:104,1,125.999996154785,2|10,0:0|3:2,0:0:0:0:
229,137,69579,2,0,P|250:194|266:215,1,62.9999980773926,0|0,3:0|3:0,0:0:0:0:
96,191,69911,6,0,P|123:129|158:98,1,90,2|0,0:0|0:0,0:0:0:0:
239,283,70242,2,0,P|239:236|256:184,1,90,10|0,0:0|0:0,0:0:0:0:
202,364,70574,6,0,P|296:216|164:331,1,503.999984619141,4|12,0:0|0:0,0:0:0:0:
101,71,72563,1,12,0:0:0:0:
304,322,73226,5,8,0:0:0:0:
418,294,73391,1,8,0:0:0:0:
273,190,73723,5,8,0:0:0:0:
410,200,73889,1,8,0:0:0:0:
292,46,74220,5,8,0:0:0:0:
441,114,74386,1,8,0:0:0:0:
240,188,74717,5,8,0:0:0:0:
410,200,74882,1,8,0:0:0:0:
94,294,75215,6,0,L|112:173,1,107.999996704102,12|0,0:0|0:0,0:0:0:0:
250,283,75546,2,0,B|209:308|186:339|186:339|156:314|95:298,1,161.999995056153,12|0,0:0|0:0,0:0:0:0:
94,294,75878,5,8,0:0:0:0:
118,155,76043,1,8,0:0:0:0:
258,336,76375,5,8,0:0:0:0:
258,173,76541,1,8,0:0:0:0:
440,329,76872,5,8,0:0:0:0:
394,155,77037,1,8,0:0:0:0:
257,370,77369,5,8,0:0:0:0:
258,173,77534,1,8,0:0:0:0:
49,346,77867,5,12,0:0:0:0:
118,155,78032,2,0,L|144:80,2,53.9999983520508,0|2|2,0:0|3:2|3:2,0:0:0:0:
246,291,78364,1,2,3:2:0:0:
246,291,78447,1,0,0:0:0:0:
246,291,78530,6,0,L|351:281,1,90,4|0,0:1|0:0,0:0:0:0:
414,354,78861,2,0,P|361:384|300:374,1,90,10|0,0:0|0:0,0:0:0:0:
329,182,79193,2,0,P|373:187|409:212,1,90,2|0,0:1|0:0,0:0:0:0:
369,55,79524,1,8,0:0:0:0:
270,96,79690,1,0,0:0:0:0:
126,33,79856,6,0,L|151:221,1,180,2|10,0:0|0:0,0:0:0:0:
29,309,80353,1,0,0:0:0:0:
29,309,80436,1,0,3:0:0:0:
29,309,80518,1,2,3:1:0:0:
48,193,80684,1,0,0:0:0:0:
137,328,80850,2,0,P|197:319|259:286,1,90,8|0,0:0|0:0,0:0:0:0:
360,193,81181,6,0,L|378:300,1,90,2|0,0:0|0:0,0:0:0:0:
208,220,81513,2,0,L|291:150,1,90,10|0,0:0|0:0,0:0:0:0:
308,339,81844,2,0,L|206:301,1,90,2|0,0:1|0:0,0:0:0:0:
55,194,82176,1,10,0:0:0:0:
150,148,82342,1,0,0:0:0:0:
299,239,82507,6,0,B|324:197|324:197|311:50,1,180,2|10,0:0|0:0,0:0:0:0:
403,125,83005,1,0,0:0:0:0:
403,125,83088,1,0,3:0:0:0:
403,125,83170,1,2,3:1:0:0:
236,173,83336,1,0,0:0:0:0:
387,254,83502,2,0,P|341:243|286:238,1,90,10|0,0:0|0:0,0:0:0:0:
183,384,83833,6,0,P|183:315|169:234,1,135,4|0,0:0|0:0,0:0:0:0:
161,227,84165,1,10,0:0:0:0:
298,238,84331,1,4,0:3:0:0:
89,300,84496,5,4,0:0:0:0:
80,147,84662,1,4,0:3:0:0:
275,247,84828,1,10,0:0:0:0:
204,113,84994,1,4,0:3:0:0:
89,300,85159,6,0,P|174:363|260:313,1,202.500007724762,4|0,0:0|3:0,0:0:0:0:
409,263,85822,2,0,L|270:246,1,135.000005149842,4|0,0:0|3:0,0:0:0:0:
274,246,86485,5,4,0:1:0:0:
256,192,86568,12,0,88474,0:0:0:0:
