osu file format v14

[General]
AudioFilename: Ring Ring Rainbow -(TV SIZE)-.mp3
AudioLeadIn: 0
PreviewTime: 48936
Countdown: 0
SampleSet: Soft
StackLeniency: 0.4
Mode: 0
LetterboxInBreaks: 0
WidescreenStoryboard: 1

[Editor]
DistanceSpacing: 3
BeatDivisor: 4
GridSize: 4
TimelineZoom: 2.4

[Metadata]
Title:Ring Ring Rainbow!! (TV size)
TitleUnicode:Ring Ring Rainbow!! (TV size)
Artist:YUIKAORI
ArtistUnicode:ゆいかおり
Creator:-NekoNya
Version:Double Rainbow
Source:城下町のダンデライオン
Tags:Joukamachi no Dandelion castle town opening tvsize 小倉 唯 ogura yui 石原 夏織 ishihara kaori
BeatmapID:1600389
BeatmapSetID:611593

[Difficulty]
HPDrainRate:6.4
CircleSize:4
OverallDifficulty:7.4
ApproachRate:9.4
SliderMultiplier:1.72
SliderTickRate:1

[Events]
//Background and Video events
0,0,"BG.jpg",0,0
//Break Periods
//Storyboard Layer 0 (Background)
//Storyboard Layer 1 (Fail)
//Storyboard Layer 2 (Pass)
//Storyboard Layer 3 (Foreground)
//Storyboard Sound Samples

[TimingPoints]
290,331.491712707182,4,2,2,80,1,0
290,-125,4,2,3,80,0,0
704,-125,4,2,3,5,0,0
952,-166.666666666667,4,2,3,80,0,0
2361,-166.666666666667,4,2,3,5,0,0
2444,-166.666666666667,4,2,3,80,0,0
2941,-125,4,2,3,80,0,0
3604,-166.666666666667,4,2,3,80,0,0
5096,-100,4,2,3,80,0,0
5593,-87.719298245614,4,2,2,80,0,0
11560,-96.1538461538461,4,2,2,80,0,0
12720,-106.382978723404,4,2,2,80,0,0
13549,-125,4,1,3,80,0,0
14627,-125,4,2,2,5,0,0
14709,-125,4,2,2,80,0,0
15870,-90.9090909090909,4,2,2,80,0,0
16201,-125,4,2,2,80,0,0
21173,-100,4,2,2,80,0,0
21505,-90.9090909090909,4,2,2,80,0,0
23660,-125,4,2,2,80,0,0
24157,-100,4,2,2,80,0,0
37417,-125,4,2,2,80,0,0
39654,-125,4,2,2,5,0,0
39737,-125,4,2,2,80,0,0
42720,-100,4,2,2,80,0,0
46698,-166.666666666667,4,2,2,80,0,0
48522,-125,4,2,2,80,0,0
49019,-100,4,2,2,80,0,0
49350,-83.3333333333334,4,2,3,80,0,1
50925,-83.3333333333334,4,2,3,5,0,1
51008,-83.3333333333334,4,2,3,80,0,1
53577,-83.3333333333334,4,2,3,5,0,1
53660,-83.3333333333334,4,2,3,80,0,1
70566,-125,4,2,3,80,0,1
70897,-111.111111111111,4,2,3,80,0,1
71229,-166.666666666667,4,2,3,80,0,1
71892,-125,4,2,3,80,0,1
73218,-100,4,2,3,80,0,1
75207,-71.4285714285714,4,2,3,80,0,1
75538,-50,4,2,3,80,0,1
75870,-100,4,2,3,80,0,1
78522,-111.111111111111,4,2,3,80,0,1
79848,-71.4285714285714,4,2,3,80,0,1
80179,-100,4,2,3,80,0,1
81173,-111.111111111111,4,2,3,80,0,1
86477,-111.111111111111,4,2,3,80,0,0

[Colours]
Combo1 : 255,128,0
Combo2 : 255,255,0
Combo3 : 255,128,255
Combo4 : 244,0,0
Combo5 : 83,83,255
Combo6 : 193,0,193
Combo7 : 226,226,226

[HitObjects]
85,115,290,6,0,P|143:78|196:79,1,103.2,6|0,0:0|0:0,0:0:0:0:
273,108,621,2,0,L|273:167,1,34.4,6|0,0:0|0:0,0:0:0:0:
271,320,952,5,2,0:0:0:0:
140,288,1118,2,0,L|118:238,1,51.599998425293,0|2,0:0|0:0,0:0:0:0:
95,373,1450,2,0,P|150:381|205:362,1,103.199996850586
273,228,1947,1,2,0:0:0:0:
332,143,2113,6,0,P|378:125|422:132,1,77.3999976379395
452,147,2444,1,0,0:0:0:0:
345,34,2610,1,2,0:0:0:0:
345,34,2941,5,4,0:0:0:0:
201,92,3107,1,4,0:0:0:0:
406,116,3273,1,4,0:0:0:0:
406,116,3604,6,0,L|417:180,1,51.599998425293,2|0,0:0|0:0,0:0:0:0:
439,320,3936,1,2,0:0:0:0:
349,268,4102,1,0,0:0:0:0:
476,226,4267,5,2,0:0:0:0:
291,204,4433,1,2,0:0:0:0:
463,133,4599,5,2,0:0:0:0:
310,301,4765,1,2,0:0:0:0:
372,51,4930,5,8,0:0:0:0:
408,306,5096,1,2,0:0:0:0:
414,339,5179,1,2,0:0:0:0:
421,372,5262,1,8,0:0:0:0:
387,352,5345,1,0,0:0:0:0:
348,347,5428,1,2,0:0:0:0:
309,344,5510,1,0,0:0:0:0:
261,356,5593,6,0,P|198:361|140:349,1,98.0399988032227,6|0,0:0|0:0,0:0:0:0:
33,308,5925,1,8,0:0:0:0:
181,256,6091,1,0,0:0:0:0:
19,146,6256,5,2,0:0:0:0:
144,89,6422,2,0,P|195:79|253:86,1,98.0399988032227,0|8,0:0|0:0,0:0:0:0:
400,161,6754,1,0,0:0:0:0:
263,163,6919,5,2,0:0:0:0:
374,82,7085,1,0,0:0:0:0:
321,250,7251,1,8,0:0:0:0:
306,34,7417,1,0,0:0:0:0:
306,34,7499,1,0,0:0:0:0:
306,34,7582,5,2,0:0:0:0:
405,247,7748,1,0,0:0:0:0:
220,100,7914,1,8,0:0:0:0:
455,97,8080,1,0,0:0:0:0:
289,262,8245,6,0,L|279:359,1,98.0399988032227,6|0,0:0|0:0,0:0:0:0:
105,198,8577,2,0,L|115:295,1,98.0399988032227,8|0,0:0|0:0,0:0:0:0:
209,195,8908,5,2,0:0:0:0:
38,150,9074,1,0,0:0:0:0:
247,98,9240,1,8,0:0:0:0:
125,252,9406,6,0,P|59:262|12:251,1,98.0399988032227,0|2,0:0|0:0,0:0:0:0:
145,123,9737,1,0,0:0:0:0:
182,315,9903,1,8,0:0:0:0:
42,149,10069,1,0,0:0:0:0:
42,149,10151,1,0,0:0:0:0:
42,149,10234,5,2,0:0:0:0:
232,205,10400,2,0,L|281:201,1,49.0199994016113
346,276,10566,2,0,P|312:225|319:109,1,147.059998204834,8|0,0:0|0:0,0:0:0:0:
340,48,10897,5,6,0:0:0:0:
429,177,11063,1,0,0:0:0:0:
223,111,11229,1,8,0:0:0:0:
214,265,11394,1,0,0:0:0:0:
125,101,11560,5,2,0:0:0:0:
280,190,11726,1,0,0:0:0:0:
125,252,11892,1,8,0:0:0:0:
232,54,12057,6,0,L|310:51,1,44.7199997270508
349,49,12223,5,6,0:0:0:0:
436,162,12389,2,0,L|446:220,1,44.7199997270508
356,232,12555,2,0,L|351:287,1,44.7199997270508
257,249,12720,6,0,P|190:271|81:254,1,161.679997532959,6|0,0:0|0:0,0:0:0:0:
35,168,13218,2,0,L|23:96,3,40.4199993832398
119,41,13549,5,2,0:0:0:0:
238,110,13715,1,2,0:0:0:0:
119,179,13881,1,2,0:0:0:0:
119,179,14212,1,2,0:0:0:0:
119,179,14378,6,0,P|132:238|126:311,1,103.2
113,354,14709,1,0,0:0:0:0:
37,222,14875,5,2,0:0:0:0:
214,248,15041,1,2,0:0:0:0:
18,314,15207,1,2,0:0:0:0:
151,157,15538,6,0,L|159:42,1,103.2,2|0,0:0|0:0,0:0:0:0:
68,153,15870,2,0,P|129:101|135:164,1,141.900004330444,2|0,0:0|0:0,0:0:0:0:
146,231,16201,5,2,0:0:0:0:
26,299,16367,1,2,0:0:0:0:
232,307,16533,1,2,0:0:0:0:
266,195,16698,5,0,0:0:0:0:
351,240,16864,2,0,P|392:243|429:240,1,68.8,2|0,0:0|0:0,0:0:0:0:
500,187,17196,1,2,0:0:0:0:
407,160,17361,1,0,0:0:0:0:
495,265,17527,5,2,0:0:0:0:
434,81,17693,1,2,0:0:0:0:
401,319,17859,2,0,P|337:340|254:311,2,137.6,2|2|2,0:0|0:0|0:0,0:0:0:0:
332,250,18687,1,0,0:0:0:0:
332,250,18770,1,0,0:0:0:0:
332,250,18853,5,2,0:0:0:0:
191,337,19019,1,2,0:0:0:0:
222,132,19185,1,2,0:0:0:0:
222,132,19350,5,0,0:0:0:0:
222,132,19516,2,0,L|317:117,1,68.8,2|0,0:0|0:0,0:0:0:0:
427,102,19848,1,2,0:0:0:0:
304,40,20013,1,0,0:0:0:0:
374,189,20179,5,2,0:0:0:0:
218,50,20345,1,2,0:0:0:0:
166,302,20510,1,2,0:0:0:0:
166,302,20676,6,0,P|192:268|292:259,1,137.6
366,306,21173,2,0,L|351:171,1,129,12|0,0:0|0:0,0:0:0:0:
343,101,21505,5,6,0:0:0:0:
441,189,21671,1,0,0:0:0:0:
234,173,21836,1,8,0:0:0:0:
433,112,22002,5,0,0:0:0:0:
277,277,22168,5,2,0:0:0:0:
285,68,22334,1,0,0:0:0:0:
365,299,22499,1,8,0:0:0:0:
205,111,22665,5,0,0:0:0:0:
432,105,22831,5,2,0:0:0:0:
231,211,22997,1,0,0:0:0:0:
456,227,23162,1,8,0:0:0:0:
285,62,23328,6,0,P|212:51|124:73,1,141.900004330444,6|0,0:0|0:0,0:0:0:0:
63,150,23660,1,2,0:0:0:0:
73,175,23743,1,2,0:0:0:0:
79,201,23825,1,8,0:0:0:0:
106,185,23908,1,0,0:0:0:0:
135,174,23991,1,0,0:0:0:0:
165,171,24074,1,0,0:0:0:0:
207,179,24157,6,0,P|268:183|327:168,1,86,6|0,0:0|0:0,0:0:0:0:
375,157,24488,1,8,0:0:0:0:
255,89,24654,1,0,0:0:0:0:
335,260,24820,1,2,0:0:0:0:
332,53,24986,1,0,0:0:0:0:
230,269,25151,1,8,0:0:0:0:
406,131,25317,1,0,0:0:0:0:
406,131,25483,6,0,L|430:238,1,86,2|0,0:0|0:0,0:0:0:0:
208,155,25814,2,0,L|232:48,1,86,8|0,0:0|0:0,0:0:0:0:
100,236,26146,2,0,P|143:202|265:251,1,172,2|8,0:0|0:0,0:0:0:0:
279,307,26643,1,0,0:0:0:0:
312,173,26809,5,2,0:0:0:0:
178,282,26975,2,0,P|170:328|179:375,1,86,0|8,0:0|0:0,0:0:0:0:
219,199,27306,1,0,0:0:0:0:
75,294,27472,1,2,0:0:0:0:
280,276,27638,1,0,0:0:0:0:
66,212,27803,1,8,0:0:0:0:
261,353,27969,1,0,0:0:0:0:
150,138,28135,6,0,P|107:128|60:125,1,86,2|0,0:0|0:0,0:0:0:0:
144,297,28466,1,8,0:0:0:0:
239,153,28632,1,0,0:0:0:0:
62,221,28798,1,2,0:0:0:0:
265,254,28964,1,0,0:0:0:0:
60,342,29129,1,8,0:0:0:0:
127,110,29295,1,0,0:0:0:0:
127,110,29378,1,0,0:0:0:0:
127,110,29461,6,0,P|186:72|303:83,1,172,6|8,0:0|0:0,0:0:0:0:
381,147,29958,1,0,0:0:0:0:
230,183,30124,1,2,0:0:0:0:
374,236,30289,1,0,0:0:0:0:
206,274,30455,1,8,0:0:0:0:
381,147,30621,1,0,0:0:0:0:
454,263,30787,6,0,P|460:307|456:351,1,86,2|0,0:0|0:0,0:0:0:0:
302,329,31118,1,8,0:0:0:0:
228,192,31284,2,0,P|214:141|224:82,1,86,0|2,0:0|0:0,0:0:0:0:
255,7,31615,1,0,0:0:0:0:
331,134,31781,5,12,0:0:0:0:
331,134,32113,5,6,0:0:0:0:
149,184,32278,1,0,0:0:0:0:
363,247,32444,5,8,0:0:0:0:
171,100,32610,1,0,0:0:0:0:
265,322,32776,5,2,0:0:0:0:
257,65,32941,1,0,0:0:0:0:
162,305,33107,5,8,0:0:0:0:
342,120,33273,1,0,0:0:0:0:
342,120,33356,1,0,0:0:0:0:
342,120,33439,6,0,L|436:126,1,86,2|0,0:0|0:0,0:0:0:0:
267,189,33770,1,8,0:0:0:0:
267,189,33936,2,0,P|211:183|155:195,1,86,0|2,0:0|0:0,0:0:0:0:
105,226,34267,1,0,0:0:0:0:
145,76,34433,1,8,0:0:0:0:
224,265,34599,1,0,0:0:0:0:
224,265,34682,1,0,0:0:0:0:
224,265,34765,6,0,L|217:371,2,86,6|0|8,0:0|0:0|0:0,0:0:0:0:
273,118,35262,2,0,P|314:143|443:113,1,172,2|0,0:0|0:0,0:0:0:0:
354,44,35759,1,8,0:0:0:0:
225,190,35925,2,0,P|181:204|127:201,1,86,2|0,0:0|0:0,0:0:0:0:
57,184,36256,1,2,0:0:0:0:
172,122,36422,1,8,0:0:0:0:
264,266,36588,1,2,0:0:0:0:
264,266,36671,1,2,0:0:0:0:
264,266,36754,6,0,L|259:320,3,43,8|0|0|0,0:0|0:0|0:0|0:0,0:0:0:0:
346,303,37085,1,8,0:0:0:0:
367,275,37168,1,0,0:0:0:0:
399,262,37251,1,0,0:0:0:0:
433,262,37334,1,0,0:0:0:0:
458,271,37417,6,0,P|474:198|432:133,1,137.6,6|0,0:0|0:0,0:0:0:0:
364,93,37914,1,2,0:0:0:0:
274,216,38080,2,0,B|203:228|203:228|122:212,1,137.6,8|0,0:0|0:0,0:0:0:0:
47,183,38577,1,0,0:0:0:0:
47,183,38660,1,0,0:0:0:0:
47,183,38743,6,0,P|38:134|46:88,1,68.8,2|0,0:0|0:0,0:0:0:0:
119,60,39074,2,0,P|128:109|120:155,1,68.8,2|0,0:0|0:0,0:0:0:0:
92,262,39406,2,0,P|159:249|214:267,1,103.2,8|0,0:0|0:0,0:0:0:0:
253,295,39737,2,0,P|232:264|226:226,1,68.8
352,306,40069,2,0,P|303:311|237:281,1,103.2,2|0,0:0|0:0,0:0:0:0:
249,155,40400,5,0,0:0:0:0:
315,233,40566,1,0,0:0:0:0:
169,195,40731,5,8,0:0:0:0:
355,145,40897,1,0,0:0:0:0:
167,285,41063,5,0,0:0:0:0:
216,55,41229,1,0,0:0:0:0:
216,55,41312,1,0,0:0:0:0:
216,55,41394,6,0,P|258:36|359:57,1,137.6,6|0,0:0|0:0,0:0:0:0:
297,291,41892,2,0,P|230:306|166:284,1,137.6,2|0,0:0|0:0,0:0:0:0:
107,227,42389,1,8,0:0:0:0:
107,227,42720,5,8,0:0:0:0:
166,83,42886,1,8,0:0:0:0:
204,286,43052,1,8,0:0:0:0:
75,124,43218,1,6,0:0:0:0:
312,156,43383,5,0,0:0:0:0:
170,218,43549,1,2,0:0:0:0:
369,273,43715,1,8,0:0:0:0:
188,113,43881,1,0,0:0:0:0:
283,332,44046,5,8,0:0:0:0:
237,183,44212,1,8,0:0:0:0:
157,373,44378,1,8,0:0:0:0:
314,239,44544,1,6,0:0:0:0:
75,263,44709,5,0,0:0:0:0:
140,122,44875,1,2,0:0:0:0:
266,285,45041,1,8,0:0:0:0:
50,175,45207,1,0,0:0:0:0:
224,100,45372,5,8,0:0:0:0:
347,160,45538,1,8,0:0:0:0:
287,283,45704,1,8,0:0:0:0:
164,223,45870,1,8,0:0:0:0:
191,54,46035,5,8,0:0:0:0:
392,130,46201,1,8,0:0:0:0:
312,330,46367,1,8,0:0:0:0:
111,251,46533,1,8,0:0:0:0:
335,73,46698,6,0,P|402:49|470:106,1,154.799995275879,6|0,0:0|0:0,0:0:0:0:
177,73,47693,6,0,P|110:49|42:106,1,154.799995275879,6|0,0:0|0:0,0:0:0:0:
101,279,48521,5,2,0:0:0:0:
101,279,48604,1,2,0:0:0:0:
101,279,48687,2,0,L|116:336,3,34.4,8|0|0|0,0:0|0:0|0:0|0:0,0:0:0:0:
218,307,49019,2,0,P|258:267|342:294,1,129,4|0,0:0|0:0,0:0:0:0:
378,339,49350,6,0,P|355:218|346:134,1,206.399993701172,6|8,0:0|0:0,0:0:0:0:
352,31,49848,1,0,0:0:0:0:
439,145,50013,1,2,0:0:0:0:
260,92,50179,1,0,0:0:0:0:
458,35,50345,1,8,0:0:0:0:
263,186,50510,1,0,0:0:0:0:
432,303,50676,6,0,P|401:276|276:324,1,154.799995275879,2|0,0:0|0:0,0:0:0:0:
361,359,51008,1,8,0:0:0:0:
454,199,51173,1,0,0:0:0:0:
454,199,51256,1,0,0:0:0:0:
454,199,51339,2,0,L|459:93,1,103.199996850586,2|0,0:0|0:0,0:0:0:0:
280,39,51671,1,8,0:0:0:0:
234,302,51836,1,0,0:0:0:0:
234,302,51919,1,0,0:0:0:0:
234,302,52002,6,0,P|144:333|39:271,1,206.399993701172,2|8,0:0|0:0,0:0:0:0:
195,170,52499,1,0,0:0:0:0:
321,333,52665,1,2,0:0:0:0:
146,241,52831,1,0,0:0:0:0:
346,241,52997,1,8,0:0:0:0:
66,315,53162,1,0,0:0:0:0:
66,315,53245,1,0,0:0:0:0:
66,315,53328,6,0,P|47:255|50:134,1,154.799995275879,2|0,0:0|0:0,0:0:0:0:
65,93,53660,1,8,0:0:0:0:
239,30,53825,1,0,0:0:0:0:
239,30,53908,1,0,0:0:0:0:
239,30,53991,1,2,0:0:0:0:
193,252,54157,1,0,0:0:0:0:
162,89,54323,1,8,0:0:0:0:
331,162,54488,1,0,0:0:0:0:
331,162,54654,6,0,P|346:219|329:338,1,154.799995275879,6|0,0:0|0:0,0:0:0:0:
300,376,54986,1,8,0:0:0:0:
268,235,55151,1,0,0:0:0:0:
408,358,55317,2,0,P|454:367|514:352,1,103.199996850586,2|0,0:0|0:0,0:0:0:0:
456,218,55649,1,8,0:0:0:0:
229,315,55814,1,0,0:0:0:0:
229,315,55897,1,0,0:0:0:0:
229,315,55980,6,0,P|149:324|54:296,1,154.799995275879,2|0,0:0|0:0,0:0:0:0:
18,264,56312,1,8,0:0:0:0:
93,118,56477,1,0,0:0:0:0:
93,118,56643,2,0,P|151:98|206:100,1,103.199996850586,2|0,0:0|0:0,0:0:0:0:
333,134,56975,1,8,0:0:0:0:
186,183,57140,1,0,0:0:0:0:
290,54,57306,5,6,0:0:0:0:
284,239,57472,1,0,0:0:0:0:
183,35,57638,1,8,0:0:0:0:
345,161,57803,5,0,0:0:0:0:
166,264,57969,5,6,0:0:0:0:
281,92,58135,1,0,0:0:0:0:
66,166,58301,1,8,0:0:0:0:
330,201,58466,5,0,0:0:0:0:
94,70,58632,5,6,0:0:0:0:
179,346,58798,1,0,0:0:0:0:
276,51,58964,1,8,0:0:0:0:
62,273,59129,1,6,0:0:0:0:
62,273,59461,5,2,0:0:0:0:
74,233,59544,1,2,0:0:0:0:
103,204,59627,1,8,0:0:0:0:
136,235,59709,1,0,0:0:0:0:
182,241,59792,1,0,0:0:0:0:
226,227,59875,1,0,0:0:0:0:
259,194,59958,6,0,P|328:166|410:208,1,154.799995275879,6|0,0:0|0:0,0:0:0:0:
331,253,60289,1,8,0:0:0:0:
277,96,60455,1,0,0:0:0:0:
240,289,60621,1,2,0:0:0:0:
365,87,60787,1,0,0:0:0:0:
388,322,60952,1,8,0:0:0:0:
188,193,61118,1,0,0:0:0:0:
188,193,61201,1,0,0:0:0:0:
188,193,61284,6,0,P|123:178|39:224,1,154.799995275879,2|0,0:0|0:0,0:0:0:0:
13,285,61615,1,8,0:0:0:0:
21,109,61781,1,0,0:0:0:0:
21,109,61864,1,0,0:0:0:0:
21,109,61947,1,2,0:0:0:0:
131,273,62113,1,0,0:0:0:0:
151,68,62278,1,8,0:0:0:0:
233,301,62444,1,0,0:0:0:0:
280,120,62610,6,0,P|318:83|448:109,1,154.799995275879,2|0,0:0|0:0,0:0:0:0:
368,162,62941,1,8,0:0:0:0:
238,28,63107,1,0,0:0:0:0:
184,270,63273,1,2,0:0:0:0:
280,120,63439,1,0,0:0:0:0:
95,183,63604,1,8,0:0:0:0:
306,312,63770,1,0,0:0:0:0:
306,312,63853,1,0,0:0:0:0:
306,312,63936,6,0,P|409:301|454:206,1,206.399993701172,2|8,0:0|0:0,0:0:0:0:
409,38,64433,1,0,0:0:0:0:
409,38,64516,1,0,0:0:0:0:
409,38,64599,1,2,0:0:0:0:
347,213,64765,1,0,0:0:0:0:
473,107,64930,1,8,0:0:0:0:
299,41,65096,1,0,0:0:0:0:
299,41,65262,6,0,L|126:38,1,154.799995275879,6|0,0:0|0:0,0:0:0:0:
61,37,65593,1,8,0:0:0:0:
183,147,65759,1,8,0:0:0:0:
299,41,65925,1,8,0:0:0:0:
67,129,66091,1,8,0:0:0:0:
299,210,66256,1,8,0:0:0:0:
153,63,66422,1,8,0:0:0:0:
118,266,66588,6,0,P|172:286|235:269,1,103.199996850586,6|0,0:0|0:0,0:0:0:0:
299,210,66919,1,2,0:0:0:0:
175,205,67085,1,2,0:0:0:0:
308,302,67251,1,8,0:0:0:0:
207,118,67417,1,2,0:0:0:0:
180,86,67499,1,2,0:0:0:0:
138,86,67582,1,8,0:0:0:0:
112,118,67665,1,0,0:0:0:0:
116,159,67748,1,0,0:0:0:0:
149,183,67831,1,0,0:0:0:0:
190,185,67914,6,0,P|245:172|316:185,1,103.199996850586,6|0,0:0|0:0,0:0:0:0:
366,210,68245,1,2,0:0:0:0:
251,258,68411,1,0,0:0:0:0:
318,84,68577,1,8,0:0:0:0:
328,311,68743,1,0,0:0:0:0:
219,136,68908,1,2,0:0:0:0:
394,73,69074,6,0,P|428:68|504:96,1,103.199996850586,2|0,0:0|0:0,0:0:0:0:
422,261,69406,1,2,0:0:0:0:
305,117,69571,1,8,0:0:0:0:
482,174,69737,1,0,0:0:0:0:
282,226,69903,2,0,P|192:194|100:248,1,206.399993701172,6|0,0:0|0:0,0:0:0:0:
94,265,70566,6,0,P|95:188|76:141,1,103.2,6|0,0:0|0:0,0:0:0:0:
23,305,70897,2,0,P|69:340|135:331,1,116.099996456909
171,272,71229,2,0,P|239:255|347:302,1,180.599994488526,8|0,0:0|0:0,0:0:0:0:
391,349,71892,6,0,P|366:280|390:137,1,206.4,6|0,0:0|0:0,0:0:0:0:
458,303,72555,2,0,P|483:234|459:91,1,206.4,6|0,0:0|0:0,0:0:0:0:
285,45,73218,5,8,0:0:0:0:
145,171,73383,2,0,L|150:261,1,86,8|0,0:0|0:0,0:0:0:0:
259,42,73715,5,8,0:0:0:0:
143,190,73880,2,0,L|163:278,1,86,8|0,0:0|0:0,0:0:0:0:
232,43,74212,5,8,0:0:0:0:
144,210,74377,2,0,L|179:293,1,86,8|0,0:0|0:0,0:0:0:0:
207,50,74709,5,8,0:0:0:0:
149,229,74874,2,0,L|198:304,1,86,8|0,0:0|0:0,0:0:0:0:
393,204,75207,6,0,P|305:166|235:245,1,180.599994488526,6|0,0:0|0:0,0:0:0:0:
219,352,75538,2,0,P|208:239|321:252,1,258,6|0,0:0|0:0,0:0:0:0:
260,292,75870,5,6,0:0:0:0:
108,321,76035,2,0,L|19:282,1,86,8|0,0:0|0:0,0:0:0:0:
242,291,76367,5,8,0:0:0:0:
87,293,76532,2,0,L|6:239,1,86,8|0,0:0|0:0,0:0:0:0:
225,287,76864,5,8,0:0:0:0:
72,262,77029,2,0,L|2:195,1,86,8|0,0:0|0:0,0:0:0:0:
209,280,77361,5,8,0:0:0:0:
63,229,77526,2,0,L|5:151,1,86,8|0,0:0|0:0,0:0:0:0:
221,163,77859,6,0,L|221:221,1,43,6|0,0:0|0:0,0:0:0:0:
350,203,78024,2,0,L|350:249,1,43
294,84,78190,2,0,L|294:133,1,43,6|0,0:0|0:0,0:0:0:0:
437,132,78356,2,0,L|437:188,1,43
289,322,78522,5,6,0:0:0:0:
322,179,78687,1,0,0:0:0:0:
196,270,78853,5,8,0:0:0:0:
179,115,79019,1,0,0:0:0:0:
270,240,79185,5,2,0:0:0:0:
311,91,79350,1,0,0:0:0:0:
188,186,79516,5,8,0:0:0:0:
147,37,79681,1,0,0:0:0:0:
277,142,79848,6,0,P|350:96|308:2,1,180.599994488526,2|0,0:0|0:0,0:0:0:0:
281,70,80179,1,8,0:0:0:0:
414,178,80345,1,0,0:0:0:0:
414,178,80428,1,0,0:0:0:0:
414,178,80510,2,0,L|430:269,1,86,2|0,0:0|0:0,0:0:0:0:
443,348,80842,1,8,0:0:0:0:
255,337,81008,1,0,0:0:0:0:
342,283,81173,5,6,0:0:0:0:
157,303,81339,1,0,0:0:0:0:
334,207,81505,5,8,0:0:0:0:
133,224,81671,1,0,0:0:0:0:
335,129,81836,5,2,0:0:0:0:
111,157,82002,1,0,0:0:0:0:
349,225,82168,1,8,0:0:0:0:
154,70,82334,1,0,0:0:0:0:
83,306,82499,6,0,P|127:348|222:326,1,154.799995275879,6|8,0:0|0:0,0:0:0:0:
249,264,82997,1,0,0:0:0:0:
249,264,83080,1,0,0:0:0:0:
249,264,83162,1,2,0:0:0:0:
249,264,83245,1,0,0:0:0:0:
249,264,83328,5,0,0:0:0:0:
376,352,83494,1,8,0:0:0:0:
317,175,83660,6,0,P|281:142|175:140,1,154.799995275879,2|0,0:0|0:0,0:0:0:0:
119,187,84074,1,0,0:0:0:0:
119,187,84157,1,8,0:0:0:0:
254,262,84323,1,2,0:0:0:0:
161,101,84488,1,2,0:0:0:0:
176,286,84654,1,2,0:0:0:0:
243,79,84820,1,8,0:0:0:0:
69,236,84986,1,2,0:0:0:0:
288,163,85151,6,4,P|323:239|248:226,1,193.499994094849,6|0,0:0|0:0,0:0:0:0:
247,33,85649,2,0,P|283:61|276:177,1,154.799995275879,6|0,0:0|0:0,0:0:0:0:
214,116,86146,1,8,0:0:0:0:
174,270,86477,5,6,0:0:0:0:
256,192,86560,12,0,87803,0:0:0:0:
