osu file format v14

[General]
AudioFilename: audio.mp3
AudioLeadIn: 0
PreviewTime: 48944
Countdown: 0
SampleSet: Soft
StackLeniency: 0.7
Mode: 0
LetterboxInBreaks: 0
WidescreenStoryboard: 0

[Editor]
DistanceSpacing: 0.7
BeatDivisor: 4
GridSize: 4
TimelineZoom: 1

[Metadata]
Title:Ring Ring Rainbow!! (TV Size)
TitleUnicode:Ring Ring Rainbow!! (TV Size)
Artist:YUIKAORI
ArtistUnicode:ゆいかおり
Creator:Sotarks
Version:Expert
Source:城下町のダンデライオン
Tags:anime Joukamachi no Dandelion castle town opening tvsize 小倉 唯 ogura yui 石原 夏織 ishihara kaori japanese vocalist female kowari sytho pepekcz
BeatmapID:3310535
BeatmapSetID:1621479

[Difficulty]
HPDrainRate:5.2
CircleSize:4
OverallDifficulty:8.8
ApproachRate:9.1
SliderMultiplier:1.82
SliderTickRate:1

[Events]
//Background and Video events
0,0,"bg.jpg",0,0
//Break Periods
//Storyboard Layer 0 (Background)
//Storyboard Layer 1 (Fail)
//Storyboard Layer 2 (Pass)
//Storyboard Layer 3 (Foreground)
//Storyboard Layer 4 (Overlay)
//Storyboard Sound Samples

[TimingPoints]
298,331.491712707182,4,2,1,62,1,0
298,-108.695652173913,4,2,1,62,0,0
5601,-98.0392156862745,4,2,1,72,0,0
13557,-121.951219512195,4,2,1,62,0,0
21513,-108.695652173913,4,2,1,72,0,0
37425,-138.888888888889,4,2,1,62,0,0
42728,-121.951219512195,4,2,1,72,0,0
46706,-108.695652173913,4,2,1,72,0,0
49358,-98.0392156862744,4,2,1,82,0,0
70574,-121.951219512195,4,2,1,52,0,0
71237,-192.307692307692,4,2,1,52,0,0
71900,-138.888888888889,4,2,1,52,0,0
73226,-121.951219512195,4,2,1,72,0,0
78530,-98.0392156862744,4,2,1,72,0,0
85159,-161.290322580645,4,2,1,72,0,0
86485,-238.095238095238,4,2,1,72,0,0
88474,-238.095238095238,4,2,1,72,0,0

[Colours]
Combo1 : 210,240,198
Combo2 : 255,247,185
Combo3 : 239,186,211

[HitObjects]
53,261,298,6,0,P|102:271|160:286,1,83.7199971895753,4|0,1:3|0:0,0:0:0:0:
274,119,629,2,0,P|225:129|167:144,1,83.7199971895753,4|0,1:3|0:0,0:0:0:0:
342,264,960,1,8,1:0:0:0:
234,347,1126,2,0,P|242:308|251:259,1,83.7199971895753,8|0,2:1|1:0,0:0:0:0:
446,157,1458,6,0,P|387:169|355:176,1,83.7199971895753,8|0,2:1|1:0,0:0:0:0:
262,22,1789,2,0,P|303:30|344:39,1,83.7199971895753,8|0,2:1|1:0,0:0:0:0:
174,178,2121,2,0,P|162:137|148:92,1,83.7199971895753,8|0,2:1|1:0,0:0:0:0:
37,275,2452,1,8,2:1:0:0:
121,356,2618,2,0,P|132:315|145:275,1,83.7199971895753,4|0,1:2|0:0,0:0:0:0:
316,140,2949,5,4,1:3:0:0:
84,173,3115,1,4,1:3:0:0:
355,288,3281,2,0,P|297:305|254:318,1,83.7199971895753,4|0,1:3|0:0,0:0:0:0:
408,156,3612,1,8,1:0:0:0:
291,59,3778,2,0,P|303:98|315:139,1,83.7199971895753,8|0,2:1|1:0,0:0:0:0:
181,265,4110,2,0,P|192:224|205:184,1,83.7199971895753,8|8,2:1|2:3,0:0:0:0:
59,33,4441,5,8,2:3:0:0:
210,84,4607,1,4,2:3:0:0:
78,228,4773,1,4,2:3:0:0:
3,126,4938,1,8,2:0:0:0:
187,311,5104,1,8,2:0:0:0:
187,311,5186,1,8,2:0:0:0:
187,311,5270,2,0,L|232:295,1,41.8599985947876,8|8,1:2|2:0,0:0:0:0:
314,244,5436,2,0,L|353:258,1,41.8599985947876,8|8,2:0|2:0,0:0:0:0:
471,334,5601,6,0,P|463:291|451:238,1,92.8200005665283,6|0,1:2|0:0,0:0:0:0:
364,65,5933,2,0,P|353:110|345:155,1,92.8200005665283,10|0,2:0|0:0,0:0:0:0:
211,256,6264,1,2,1:0:0:0:
348,351,6430,2,0,P|298:360|251:368,1,92.8200005665283,2|8,2:0|2:0,0:0:0:0:
89,240,6762,6,0,P|72:299|62:336,1,92.8200005665283,2|0,2:0|1:0,0:0:0:0:
248,171,7093,2,0,P|235:126|222:81,1,92.8200005665283,2|8,1:0|2:0,0:0:0:0:
43,113,7425,1,2,3:0:0:0:
65,120,7507,1,0,3:0:0:0:
87,127,7590,1,0,1:0:0:0:
224,3,7756,1,2,2:0:0:0:
221,201,7922,2,0,P|208:156|195:111,1,92.8200005665283,10|4,2:0|2:3,0:0:0:0:
427,98,8253,6,0,P|359:116|324:126,1,92.8200005665283,6|0,1:2|2:0,0:0:0:0:
193,296,8585,2,0,P|261:314|296:324,1,92.8200005665283,10|0,2:0|0:0,0:0:0:0:
479,216,8916,1,2,1:0:0:0:
421,378,9082,2,0,P|409:332|392:267,1,92.8200005665283,2|8,2:0|2:0,0:0:0:0:
294,105,9414,6,0,P|338:92|383:80,1,92.8200005665283,2|0,2:0|1:0,0:0:0:0:
226,206,9745,1,2,2:0:0:0:
112,70,9911,1,8,2:0:0:0:
243,0,10077,1,2,3:0:0:0:
238,22,10159,1,0,3:0:0:0:
234,45,10242,1,0,1:0:0:0:
103,172,10408,1,2,2:0:0:0:
249,295,10574,2,0,P|237:250|225:205,1,92.8200005665283,10|0,2:0|2:0,0:0:0:0:
122,365,10905,6,0,P|48:380|20:387,1,92.8200005665283,6|0,1:2|2:0,0:0:0:0:
343,289,11237,2,0,P|388:297|433:308,1,92.8200005665283,10|0,2:0|2:0,0:0:0:0:
281,135,11568,1,2,1:0:0:0:
399,75,11734,2,0,P|387:119|375:164,1,92.8200005665283,2|8,2:0|2:0,0:0:0:0:
180,29,12065,5,4,2:3:0:0:
305,227,12231,1,4,1:2:0:0:
65,190,12397,1,4,2:3:0:0:
199,129,12563,1,8,2:0:0:0:
25,332,12728,2,0,P|13:287|1:242,1,92.8200005665283,4|0,1:2|0:0,0:0:0:0:
219,331,13060,1,0,1:0:0:0:
136,249,13226,2,0,L|121:297,1,46.4100002832642,8|0,2:0|3:0,0:0:0:0:
290,208,13391,2,0,L|276:163,1,46.4100002832642,0|0,3:0|3:0,0:0:0:0:
116,83,13557,5,4,1:3:0:0:
382,133,13723,1,4,1:3:0:0:
136,249,13889,2,0,P|196:294|282:272,1,149.240002277222,4|0,1:3|1:0,0:0:0:0:
436,222,14386,2,0,P|427:270|421:302,1,74.6200011386109,2|0,2:0|1:0,0:0:0:0:
316,205,14717,1,2,2:0:0:0:
451,94,14883,5,4,1:3:0:0:
177,172,15049,1,4,1:3:0:0:
342,24,15215,2,0,P|300:16|255:8,1,74.6200011386109,4|0,1:3|0:0,0:0:0:0:
63,74,15546,2,0,P|55:39|43:-11,1,74.6200011386109,2|0,1:0|0:0,0:0:0:0:
193,99,15878,2,0,P|184:135|176:171,1,74.6200011386109,2|0,1:0|0:0,0:0:0:0:
16,315,16209,5,4,1:3:0:0:
323,244,16375,1,4,1:3:0:0:
110,371,16541,2,0,P|146:377|183:384,1,74.6200011386109,4|0,1:3|0:0,0:0:0:0:
393,313,16872,2,0,P|379:356|369:391,1,74.6200011386109,2|2,1:0|2:0,0:0:0:0:
214,282,17204,2,0,P|203:246|191:210,1,74.6200011386109,2|2,1:0|2:0,0:0:0:0:
341,62,17535,5,4,1:3:0:0:
77,154,17701,1,4,1:3:0:0:
371,166,17867,2,0,P|284:175|231:114,1,149.240002277222,4|2,1:3|1:0,0:0:0:0:
312,261,18364,1,0,0:0:0:0:
201,355,18530,2,0,P|208:315|215:276,1,74.6200011386109,14|0,1:2|0:0,0:0:0:0:
37,64,18861,5,4,1:3:0:0:
104,279,19027,1,4,1:3:0:0:
198,34,19193,2,0,P|269:43|359:54,1,149.240002277222,4|2,1:3|1:0,0:0:0:0:
226,153,19690,1,2,2:0:0:0:
343,239,19856,2,0,P|336:199|329:160,1,74.6200011386109,2|2,1:0|2:0,0:0:0:0:
238,380,20187,5,4,1:3:0:0:
457,211,20353,1,4,1:3:0:0:
190,231,20518,2,0,P|248:280|346:258,1,149.240002277222,4|0,1:3|1:0,0:0:0:0:
201,102,21016,1,0,3:0:0:0:
315,42,21181,2,0,P|308:78|302:115,1,74.6200011386109,14|0,2:0|0:0,0:0:0:0:
63,228,21513,6,0,P|53:151|37:46,2,167.439994379151,6|10|2,1:2|2:0|1:0,0:0:0:0:
214,379,22342,1,0,1:0:0:0:
13,341,22507,2,0,P|65:328|120:315,1,83.7199971895753,10|0,2:0|0:0,0:0:0:0:
394,245,22839,5,6,1:2:0:0:
182,165,23005,1,4,2:3:0:0:
345,20,23170,1,8,2:0:0:0:
291,218,23336,2,0,P|239:260|128:245,1,167.439994379151,6|0,1:2|1:0,0:0:0:0:
324,374,23833,1,8,2:0:0:0:
417,227,23999,5,8,2:0:0:0:
417,227,24082,1,8,2:0:0:0:
417,227,24165,2,0,P|409:189|397:139,1,83.7199971895753,6|2,1:2|1:0,0:0:0:0:
206,73,24496,1,10,2:0:0:0:
318,15,24662,2,0,P|306:108|295:200,1,167.439994379151,0|2,1:0|2:0,0:0:0:0:
205,353,25159,2,0,P|248:342|305:328,1,83.7199971895753,8|2,2:0|2:0,0:0:0:0:
164,160,25491,5,2,1:0:0:0:
71,352,25657,1,2,2:0:0:0:
243,242,25822,1,10,2:0:0:0:
401,370,25988,2,0,P|392:333|378:276,1,83.7199971895753,0|2,1:0|2:0,0:0:0:0:
486,88,26320,1,0,1:0:0:0:
340,173,26485,2,0,P|385:182|435:192,1,83.7199971895753,10|0,2:0|0:0,0:0:0:0:
262,43,26817,6,0,P|188:18|114:83,1,167.439994379151,2|8,1:0|2:0,0:0:0:0:
93,277,27314,1,2,1:0:0:0:
211,209,27480,1,2,2:0:0:0:
82,157,27646,1,2,1:0:0:0:
221,349,27811,1,10,2:0:0:0:
344,147,27977,1,2,2:0:0:0:
192,127,28143,6,0,P|204:179|217:236,1,83.7199971895753,2|0,1:0|2:0,0:0:0:0:
367,24,28474,1,10,2:0:0:0:
426,162,28640,2,0,P|378:153|336:145,1,83.7199971895753,0|2,1:0|2:0,0:0:0:0:
176,43,28972,1,0,1:0:0:0:
312,228,29137,1,10,2:0:0:0:
191,336,29303,1,0,3:0:0:0:
191,336,29386,1,8,2:0:0:0:
191,336,29469,6,0,P|250:378|342:356,1,167.439994379151,2|10,1:0|2:0,0:0:0:0:
160,175,29966,1,2,1:0:0:0:
74,318,30132,1,2,2:0:0:0:
273,232,30297,1,2,1:0:0:0:
93,94,30463,1,10,2:0:0:0:
191,336,30629,1,2,2:0:0:0:
360,142,30795,6,0,P|314:133|267:124,1,83.7199971895753,6|0,1:2|0:0,0:0:0:0:
398,284,31126,1,8,2:0:0:0:
277,384,31292,2,0,P|290:310|306:212,1,167.439994379151,2|4,1:2|2:3,0:0:0:0:
153,81,31789,2,0,P|164:134|172:172,1,83.7199971895753,10|0,2:0|2:0,0:0:0:0:
119,333,32121,6,0,P|76:324|35:314,1,83.7199971895753,6|0,1:2|2:0,0:0:0:0:
223,237,32452,2,0,P|263:228|304:218,1,83.7199971895753,10|0,2:0|1:0,0:0:0:0:
487,268,32784,1,2,2:0:0:0:
332,129,32949,1,0,1:0:0:0:
465,40,33115,2,0,P|455:84|446:125,1,83.7199971895753,10|0,2:0|0:0,0:0:0:0:
130,64,33447,6,0,P|188:13|283:29,1,167.439994379151,2|10,1:0|2:0,0:0:0:0:
157,189,33944,2,0,P|112:181|66:173,1,83.7199971895753,6|0,1:2|0:0,0:0:0:0:
211,301,34275,1,2,1:0:0:0:
105,384,34441,2,0,P|97:337|88:294,1,83.7199971895753,8|2,2:0|2:0,0:0:0:0:
328,112,34773,5,4,1:2:0:0:
211,301,34938,1,2,1:0:0:0:
409,205,35104,1,10,2:0:0:0:
309,384,35270,2,0,P|295:308|278:219,1,167.439994379151,4|0,1:2|1:0,0:0:0:0:
144,130,35767,1,8,2:0:0:0:
302,0,35933,6,0,P|250:46|132:15,1,167.439994379151,4|0,1:2|1:0,0:0:0:0:
357,225,36430,1,8,2:0:0:0:
424,118,36596,2,0,P|382:112|338:105,1,83.7199971895753,4|0,1:2|0:0,0:0:0:0:
195,239,36927,1,8,2:0:0:0:
215,234,37009,1,0,0:0:0:0:
235,230,37092,1,8,3:0:0:0:
58,149,37259,1,4,3:0:0:0:
142,300,37425,6,0,P|151:240|162:162,1,131.040003199219,6|2,1:2|2:0,0:0:0:0:
220,35,37922,2,0,P|179:43|129:53,1,65.5200015996094,2|8,2:0|2:0,0:0:0:0:
317,172,38253,1,2,1:0:0:0:
228,132,38419,1,2,2:0:0:0:
316,79,38585,1,2,2:0:0:0:
316,79,38668,1,0,0:0:0:0:
316,79,38751,5,4,1:2:0:0:
192,221,38916,1,8,2:0:0:0:
317,321,39082,2,0,P|310:289|302:249,1,65.5200015996094,2|0,2:0|1:0,0:0:0:0:
486,191,39414,1,10,2:0:0:0:
391,267,39579,2,0,P|400:203|410:111,1,131.040003199219,0|0,1:0|3:0,0:0:0:0:
403,102,39994,1,0,3:0:0:0:
403,102,40077,6,0,P|366:109|325:116,1,65.5200015996094,2|0,1:0|0:0,0:0:0:0:
262,181,40408,2,0,P|229:175|197:169,1,65.5200015996094,2|0,2:0|2:0,0:0:0:0:
72,75,40739,1,10,2:0:0:0:
170,26,40905,2,0,P|161:65|153:97,1,65.5200015996094,0|2,1:0|2:0,0:0:0:0:
61,240,41237,5,0,3:0:0:0:
64,256,41319,1,0,0:0:0:0:
67,272,41402,1,2,1:0:0:0:
203,184,41568,1,10,2:0:0:0:
46,106,41734,1,2,2:0:0:0:
210,271,41900,1,2,1:0:0:0:
91,336,42065,2,0,P|98:304|109:262,1,65.5200015996094,8|0,2:0|2:0,0:0:0:0:
187,120,42397,2,0,P|195:151|202:183,1,65.5200015996094,14|0,2:0|0:0,0:0:0:0:
462,276,42728,5,6,1:2:0:0:
298,155,42894,1,2,1:0:0:0:
512,63,43060,1,10,2:0:0:0:
375,0,43226,2,0,P|391:77|409:163,1,149.240002277222,4|2,1:2|2:0,0:0:0:0:
242,276,43723,1,10,3:2:0:0:
358,348,43889,1,0,3:0:0:0:
358,348,43972,1,0,3:0:0:0:
358,348,44054,6,0,L|339:253,1,74.6200011386109,2|2,3:0|1:0,0:0:0:0:
159,132,44386,1,10,2:0:0:0:
309,177,44552,2,0,P|257:227|160:211,1,149.240002277222,4|2,1:2|1:0,0:0:0:0:
15,104,45049,2,0,P|7:150|-1:188,1,74.6200011386109,10|0,3:2|3:0,0:0:0:0:
210,344,45380,5,6,1:2:0:0:
70,302,45546,1,0,2:0:0:0:
264,188,45712,1,2,1:0:0:0:
119,80,45878,1,0,1:0:0:0:
269,295,46043,1,6,1:3:0:0:
413,126,46209,1,4,1:3:0:0:
264,48,46375,1,10,1:2:0:0:
454,226,46541,1,8,1:2:0:0:
454,226,46623,1,0,0:0:0:0:
454,226,46706,6,0,P|409:235|364:244,1,83.7199971895753,6|0,1:2|0:0,0:0:0:0:
178,153,47038,1,8,2:0:0:0:
63,311,47204,2,0,P|115:370|205:352,1,167.439994379151,6|0,1:2|0:0,0:0:0:0:
278,191,47701,2,0,P|270:154|258:100,1,83.7199971895753,6|0,1:2|0:0,0:0:0:0:
141,249,48032,5,8,2:0:0:0:
299,339,48198,2,0,P|381:322|475:304,1,167.439994379151,6|8,1:2|2:3,0:0:0:0:
503,232,48612,1,4,2:3:0:0:
503,232,48695,2,0,L|491:182,1,41.8599985947876,8|0,2:0|0:0,0:0:0:0:
395,105,48861,2,0,L|385:145,1,41.8599985947876,4|0,2:3|0:0,0:0:0:0:
262,255,49027,2,0,L|252:214,1,41.8599985947876,10|0,3:2|3:0,0:0:0:0:
154,32,49193,2,0,L|144:72,1,41.8599985947876,0|0,3:0|3:0,0:0:0:0:
7,195,49358,6,0,P|75:224|176:146,1,185.640001133057,6|8,1:2|2:0,0:0:0:0:
33,314,49856,1,2,2:0:0:0:
158,384,50021,2,0,P|164:341|171:288,1,92.8200005665283,2|0,1:0|0:0,0:0:0:0:
342,133,50353,1,8,2:0:0:0:
168,59,50518,1,2,2:0:0:0:
168,59,50601,1,0,0:0:0:0:
168,59,50684,6,0,P|216:51|268:41,1,92.8200005665283,2|0,1:0|2:0,0:0:0:0:
456,171,51016,1,8,2:0:0:0:
349,87,51181,1,2,1:0:0:0:
345,110,51264,1,8,2:0:0:0:
342,133,51346,1,2,1:0:0:0:
475,40,51513,1,0,1:0:0:0:
241,124,51679,2,0,P|253:176|263:220,1,92.8200005665283,8|6,2:0|2:3,0:0:0:0:
428,373,52010,6,0,P|363:333|257:354,1,185.640001133057,6|8,1:2|2:0,0:0:0:0:
38,272,52507,1,2,2:0:0:0:
157,221,52673,2,0,P|150:266|144:312,1,92.8200005665283,2|0,1:2|0:0,0:0:0:0:
0,165,53005,1,8,2:0:0:0:
211,69,53170,1,2,2:0:0:0:
68,0,53336,6,0,P|74:45|80:91,1,92.8200005665283,2|0,1:0|2:0,0:0:0:0:
299,187,53668,1,8,2:0:0:0:
157,221,53833,1,2,1:0:0:0:
160,198,53915,1,8,2:0:0:0:
164,175,53998,1,2,1:0:0:0:
270,331,54165,1,0,2:0:0:0:
60,237,54331,1,8,2:0:0:0:
242,108,54496,1,6,2:3:0:0:
188,312,54662,6,0,P|176:224|162:114,1,185.640001133057,6|8,1:2|2:0,0:0:0:0:
352,235,55159,1,2,2:0:0:0:
271,146,55325,2,0,P|319:137|365:128,1,92.8200005665283,2|0,1:0|1:0,0:0:0:0:
512,215,55657,1,8,2:0:0:0:
364,39,55822,1,2,1:0:0:0:
274,276,55988,6,0,P|329:324|436:304,1,185.640001133057,2|8,1:0|2:0,0:0:0:0:
166,205,56485,1,2,2:0:0:0:
102,309,56651,2,0,P|48:321|-5:331,1,92.8200005665283,2|0,1:0|1:0,0:0:0:0:
144,113,56983,2,0,P|198:125|251:135,1,92.8200005665283,12|0,2:0|2:0,0:0:0:0:
381,362,57314,5,4,1:3:0:0:
197,232,57480,1,4,1:3:0:0:
353,103,57646,2,0,P|339:203|324:306,1,185.640001133057,12|4,2:0|1:3,0:0:0:0:
136,158,58143,1,4,1:3:0:0:
52,343,58309,2,0,P|105:329|149:316,1,92.8200005665283,12|0,2:0|0:0,0:0:0:0:
141,319,58557,1,0,0:0:0:0:
141,319,58640,5,6,1:2:0:0:
256,161,58806,1,0,1:0:0:0:
57,71,58972,1,10,2:0:0:0:
142,210,59137,2,0,P|149:167|158:110,1,92.8200005665283,6|0,1:2|0:0,0:0:0:0:
301,17,59469,1,8,2:0:0:0:
301,17,59552,1,0,3:0:0:0:
301,17,59635,2,0,L|313:75,1,46.4100002832642,10|8,2:0|2:0,0:0:0:0:
406,135,59800,2,0,L|394:193,1,46.4100002832642,8|8,2:0|2:0,0:0:0:0:
308,296,59966,6,0,P|394:321|466:268,1,185.640001133057,6|8,1:2|2:0,0:0:0:0:
296,164,60463,1,2,2:0:0:0:
196,247,60629,2,0,P|185:200|173:152,1,92.8200005665283,2|0,1:0|0:0,0:0:0:0:
17,203,60960,1,8,2:0:0:0:
171,57,61126,1,2,2:0:0:0:
171,57,61209,1,0,0:0:0:0:
171,57,61292,6,0,P|123:50|76:43,1,92.8200005665283,2|0,1:0|2:0,0:0:0:0:
174,156,61623,1,8,2:0:0:0:
49,240,61789,1,2,1:0:0:0:
52,217,61871,1,8,2:0:0:0:
56,194,61954,1,2,1:0:0:0:
234,290,62121,1,0,2:0:0:0:
58,384,62286,1,8,2:0:0:0:
126,283,62452,1,2,1:0:0:0:
301,384,62618,6,0,P|346:331|297:198,1,185.640001133057,6|8,1:2|2:0,0:0:0:0:
175,69,63115,1,2,2:0:0:0:
358,95,63281,2,0,P|309:109|259:122,1,92.8200005665283,2|0,1:0|2:0,0:0:0:0:
69,211,63612,1,8,2:0:0:0:
226,302,63778,1,2,2:0:0:0:
114,378,63944,6,0,P|122:325|129:275,1,92.8200005665283,2|0,1:0|0:0,0:0:0:0:
0,116,64275,2,0,L|92:88,1,92.8200005665283,8|2,2:0|1:0,0:0:0:0:
88,88,64524,1,8,2:0:0:0:
88,88,64607,1,2,1:0:0:0:
279,195,64773,1,0,2:0:0:0:
174,0,64938,1,8,2:0:0:0:
313,92,65104,1,6,2:3:0:0:
154,266,65270,6,0,P|205:315|317:302,1,185.640001133057,6|8,1:2|2:0,0:0:0:0:
477,199,65767,1,2,2:0:0:0:
351,110,65933,2,0,P|362:163|373:214,1,92.8200005665283,2|0,1:0|0:0,0:0:0:0:
180,125,66264,2,0,P|189:79|199:34,1,92.8200005665283,8|2,2:0|2:0,0:0:0:0:
263,218,66596,5,10,2:0:0:0:
46,71,66762,1,4,2:3:0:0:
147,222,66927,1,2,1:0:0:0:
0,318,67093,1,8,2:0:0:0:
180,125,67259,1,6,2:3:0:0:
291,362,67425,1,8,2:0:0:0:
291,362,67507,1,8,2:0:0:0:
291,362,67590,2,0,L|307:304,1,46.4100002832642,10|8,1:2|2:0,0:0:0:0:
402,228,67756,2,0,L|386:170,1,46.4100002832642,8|8,2:0|2:0,0:0:0:0:
300,66,67922,5,6,1:2:0:0:
300,66,68088,2,0,P|345:73|399:81,1,92.8200005665283,2|2,2:0|2:0,0:0:0:0:
226,189,68419,1,10,2:0:0:0:
443,288,68585,1,8,2:0:0:0:
342,384,68751,2,0,P|334:338|324:279,1,92.8200005665283,0|0,1:0|2:0,0:0:0:0:
137,132,69082,6,0,P|129:177|121:223,1,92.8200005665283,4|0,1:2|0:0,0:0:0:0:
205,384,69414,1,0,2:0:0:0:
42,268,69579,1,8,2:0:0:0:
226,189,69745,1,0,1:0:0:0:
99,39,69911,2,0,P|46:51|-1:62,1,92.8200005665283,10|0,2:0|2:0,0:0:0:0:
226,189,70242,2,0,P|233:143|241:97,1,92.8200005665283,10|0,3:2|3:2,0:0:0:0:
399,0,70574,5,0,1:0:0:0:
418,96,70739,1,0,0:0:0:0:
437,192,70905,2,0,P|384:202|346:208,1,74.6200011386109
269,323,71237,2,0,P|340:335|414:348,1,141.959999133545,2|0,2:0|0:0,0:0:0:0:
248,206,71900,6,0,P|145:194|59:267,1,196.560004798828,4|0,1:2|0:0,0:0:0:0:
0,100,72563,2,0,B|37:50|110:43|110:43|136:74|180:79,1,196.560004798828,4|0,1:2|0:0,0:0:0:0:
397,16,73226,5,8,1:2:0:0:
258,112,73391,2,0,P|267:75|278:25,1,74.6200011386109,8|0,1:2|0:0,0:0:0:0:
405,205,73723,1,8,1:2:0:0:
266,293,73889,2,0,P|308:305|354:318,1,74.6200011386109,8|0,1:2|0:0,0:0:0:0:
65,202,74220,5,8,1:2:0:0:
172,119,74386,2,0,P|180:155|188:191,1,74.6200011386109,8|0,1:2|0:0,0:0:0:0:
49,315,74717,1,8,1:2:0:0:
216,364,74883,2,0,P|180:374|144:384,1,74.6200011386109,8|0,1:2|0:0,0:0:0:0:
342,188,75215,1,4,1:2:0:0:
0,111,75546,1,4,1:2:0:0:
388,0,75878,5,8,1:2:0:0:
237,94,76043,2,0,P|280:102|338:113,1,74.6200011386109,8|0,1:2|0:0,0:0:0:0:
505,202,76375,1,8,1:2:0:0:
350,296,76541,2,0,P|358:260|366:224,1,74.6200011386109,8|0,1:2|0:0,0:0:0:0:
142,73,76872,5,8,1:2:0:0:
253,222,77038,2,0,P|210:230|152:241,1,74.6200011386109,8|0,1:2|0:0,0:0:0:0:
20,349,77369,1,8,1:2:0:0:
67,212,77535,2,0,P|59:176|51:140,1,74.6200011386109,8|0,1:2|0:0,0:0:0:0:
240,317,77867,1,8,2:0:0:0:
332,175,78032,1,8,2:0:0:0:
332,175,78115,1,8,2:0:0:0:
332,175,78198,2,0,L|268:190,1,37.3100005693054,8|0,2:0|3:0,0:0:0:0:
168,84,78364,2,0,L|204:92,1,37.3100005693054,8|8,2:0|2:0,0:0:0:0:
398,0,78530,6,0,P|350:12|282:27,1,92.8200005665283,6|0,1:2|0:0,0:0:0:0:
429,233,78861,2,0,P|441:191|457:137,1,92.8200005665283,10|0,2:0|2:0,0:0:0:0:
228,239,79193,1,2,1:0:0:0:
351,384,79358,1,0,2:0:0:0:
130,249,79524,1,10,2:0:0:0:
245,147,79690,1,0,2:0:0:0:
245,147,79773,1,0,0:0:0:0:
245,147,79856,6,0,L|222:266,1,92.8200005665283,6|0,1:2|0:0,0:0:0:0:
66,108,80187,1,10,2:0:0:0:
218,36,80353,1,2,1:0:0:0:
195,30,80435,1,8,2:0:0:0:
172,25,80518,1,0,1:0:0:0:
312,236,80684,1,2,2:0:0:0:
154,165,80850,2,0,P|206:154|250:145,1,92.8200005665283,8|0,2:0|2:0,0:0:0:0:
473,62,81181,5,6,1:2:0:0:
426,191,81347,1,0,0:0:0:0:
318,108,81513,1,10,2:0:0:0:
457,295,81679,1,0,2:0:0:0:
312,236,81844,1,2,1:0:0:0:
512,153,82010,1,0,2:0:0:0:
343,6,82176,1,10,2:0:0:0:
244,146,82342,1,0,2:0:0:0:
426,191,82507,6,0,P|434:145|443:87,1,92.8200005665283,6|0,1:2|0:0,0:0:0:0:
312,236,82839,1,10,2:0:0:0:
457,295,83005,1,2,3:0:0:0:
457,295,83088,2,0,L|410:307,1,46.4100002832642,0|0,3:0|1:0,0:0:0:0:
308,359,83253,1,8,2:0:0:0:
308,359,83336,2,0,P|256:349|206:339,1,92.8200005665283,2|8,1:0|2:0,0:0:0:0:
103,195,83668,1,2,3:0:0:0:
216,132,83833,5,4,1:2:0:0:
96,282,83999,1,0,0:0:0:0:
118,287,84081,1,0,0:0:0:0:
141,292,84164,1,8,2:0:0:0:
66,103,84331,1,8,2:3:0:0:
252,229,84496,1,8,2:3:0:0:
273,30,84662,1,8,2:3:0:0:
103,195,84828,1,4,2:3:0:0:
293,333,84994,1,4,2:3:0:0:
369,135,85159,6,0,P|260:122|202:162,1,169.259993284973,4|0,1:2|0:0,0:0:0:0:
382,280,85822,2,0,P|415:273|448:266,1,56.4199977616578,4|0,1:2|0:0,0:0:0:0:
231,357,86154,2,0,P|238:331|248:293,1,56.4199977616578
74,206,86485,6,0,B|160:292|327:230|237:154|394:77|497:174,1,458.639986003418,4|0,1:2|2:0,0:0:0:0:
