osu file format v14

[General]
AudioFilename: audio.mp3
AudioLeadIn: 0
PreviewTime: 48239
Countdown: 0
SampleSet: Soft
StackLeniency: 0.5
Mode: 0
LetterboxInBreaks: 0
WidescreenStoryboard: 0

[Editor]
DistanceSpacing: 0.9
BeatDivisor: 4
GridSize: 16
TimelineZoom: 2.1

[Metadata]
Title:again
TitleUnicode:again
Artist:YUI
ArtistUnicode:YUI
Creator:_83
Version:Normal
Source:鋼の錬金術師 FULLMETAL ALCHEMIST
Tags:fma tv size opening bor hagane no renkin jutsushi
BeatmapID:1322261
BeatmapSetID:625048

[Difficulty]
HPDrainRate:3
CircleSize:3.5
OverallDifficulty:3
ApproachRate:4
SliderMultiplier:1.2
SliderTickRate:2

[Events]
//Background and Video events
0,0,"Edward.Elric.full.2057027.jpg",0,0
//Break Periods
//Storyboard Layer 0 (Background)
//Storyboard Layer 1 (Fail)
//Storyboard Layer 2 (Pass)
//Storyboard Layer 3 (Foreground)
//Storyboard Sound Samples

[TimingPoints]
-1261,428.571428571429,4,2,1,40,1,0
24,-111.111111111111,4,2,1,40,0,0
10167,397.350993377483,4,2,1,40,1,0
10310,453.686200378072,4,2,1,40,1,0
10763,487.80487804878,4,2,1,40,1,0
11250,444.444444444444,4,2,1,40,1,0
12024,428.571428571429,4,2,1,40,1,0
12024,-100,4,2,1,40,0,0
12453,428.571428571429,4,2,1,40,1,0
21024,-111.111111111111,4,2,1,40,0,0
47167,-100,4,2,1,40,0,0
48453,-100,4,2,1,70,0,1
48881,-100,4,2,1,70,0,0
50167,-100,4,2,1,70,0,1
50595,-100,4,2,1,70,0,0
51453,-100,4,2,1,70,0,0
51881,-100,4,2,1,70,0,1
52310,-100,4,2,1,70,0,0
53595,-100,4,2,1,70,0,1
55203,-100,4,2,1,70,0,0
55310,-100,4,2,1,70,0,1
55738,-100,4,2,1,70,0,0
57024,-100,4,2,1,70,0,1
57453,-100,4,2,1,70,0,0
58738,-100,4,2,1,70,0,1
59167,-100,4,2,1,70,0,0
60453,-90.9090909090909,4,2,1,70,0,1
61310,-90.9090909090909,4,2,1,70,0,0
62167,-90.9090909090909,4,2,1,70,0,1
75238,-90.9090909090909,4,2,1,70,0,0
75881,-90.9090909090909,4,2,1,70,0,1
84453,-90.9090909090909,4,2,1,70,0,0
86167,-90.9090909090909,4,2,1,70,0,1
86381,-90.9090909090909,4,2,1,70,0,0
89167,-90.9090909090909,4,2,1,30,0,0
90881,-90.9090909090909,4,2,1,5,0,0

[Colours]
Combo1 : 128,128,255
Combo2 : 255,128,192
Combo3 : 128,128,192
Combo4 : 128,255,128

[HitObjects]
89,241,453,6,0,P|82:172|7:101,2,161.999995056153,2|2|0,0:0|0:0|0:0,0:0:0:0:
190,322,2167,2,0,P|194:348|209:391,2,53.9999983520508,2|0|0,0:0|0:0|0:0,0:0:0:0:
216,281,2810,2,0,L|347:304,1,107.999996704102,2|2,0:0|0:0,0:0:0:0:
413,207,3667,1,0,0:0:0:0:
449,175,3881,6,0,B|472:126|472:126|429:93|429:93|466:41,2,161.999995056153,2|2|0,0:0|0:0|0:0,0:0:0:0:
463,353,7096,1,0,0:0:0:0:
420,329,7310,2,0,P|347:353|256:356,2,161.999995056153,2|2|0,0:0|0:0|0:0,0:0:0:0:
482,215,9024,6,0,L|375:230,1,107.999996704102,2|0,0:0|0:0,0:0:0:0:
330,210,9667,2,0,L|197:194,1,125.999996154785,2|0,0:0|0:0,0:0:0:0:
118,95,10763,2,0,P|124:56|120:33,2,60
295,321,12024,5,8,0:0:0:0:
295,321,12453,2,0,L|163:335,1,120,4|8,0:0|0:0,0:0:0:0:
123,349,13095,1,4,2:3:0:0:
76,320,13310,2,0,B|116:275|116:275|72:232,1,120,8|8,0:0|0:0,0:0:0:0:
33,196,13953,1,2,0:0:0:0:
72,57,14381,5,0,3:0:0:0:
117,27,14595,2,0,L|143:145,1,120,8|8,0:0|0:0,0:0:0:0:
179,183,15238,1,8,0:0:0:0:
227,159,15453,1,8,0:0:0:0:
309,277,15881,6,0,P|301:221|321:136,1,120,2|8,0:0|0:0,0:0:0:0:
355,127,16524,1,8,0:0:0:0:
408,134,16738,2,0,B|452:94|452:94|498:138,1,120,8|8,0:0|0:0,0:0:0:0:
507,188,17381,1,4,0:0:0:0:
500,332,17810,6,0,B|444:310|444:310|388:333|388:333|333:308|333:308,1,180
283,289,18667,2,0,L|277:360,2,60
252,244,19310,5,8,0:0:0:0:
252,244,19524,2,0,P|272:202|274:183,1,60,8|8,0:0|0:0,0:0:0:0:
307,85,20167,1,8,0:0:0:0:
256,65,20381,1,8,0:0:0:0:
203,72,20595,2,0,L|135:58,1,60,8|4,0:0|0:3,0:0:0:0:
102,80,21024,5,2,3:3:0:0:
102,80,21667,1,0,3:0:0:0:
53,200,22095,2,0,P|17:202|-22:216,2,53.9999983520508,2|0|0,0:0|0:0|0:0,0:0:0:0:
97,220,22738,2,0,L|174:209,1,53.9999983520508,0|2,3:0|0:2,0:0:0:0:
117,337,23381,1,2,3:2:0:0:
375,320,24238,1,0,0:0:0:0:
337,288,24453,6,0,P|333:316|316:349,2,53.9999983520508,2|0|0,3:2|0:0|0:0,0:0:0:0:
362,246,25095,2,0,L|476:234,1,107.999996704102,2|2,3:2|0:2,0:0:0:0:
498,108,25953,2,0,P|446:79|392:77,1,107.999996704102
353,95,26595,2,0,P|315:82|281:62,2,53.9999983520508
349,224,27453,1,0,3:0:0:0:
480,209,27881,5,0,3:2:0:0:
480,209,28524,1,0,3:0:0:0:
364,269,28953,2,0,P|373:294|377:331,2,53.9999983520508,2|0|0,0:0|0:0|0:0,0:0:0:0:
326,237,29595,2,0,L|247:243,1,53.9999983520508,0|2,3:2|0:0,0:0:0:0:
305,366,30238,1,2,3:2:0:0:
58,291,31095,1,0,0:0:0:0:
96,261,31310,6,0,P|94:290|99:328,2,53.9999983520508,2|0|0,3:2|0:0|0:0,0:0:0:0:
124,220,31953,2,0,L|-3:203,1,107.999996704102,2|2,3:2|0:0,0:0:0:0:
2,76,32810,2,0,P|55:57|85:15,1,107.999996704102,2|0,0:0|0:0,0:0:0:0:
103,61,33453,2,0,L|175:75,1,53.9999983520508,0|0,0:0|3:0,0:0:0:0:
198,48,33881,2,0,P|268:68|289:113,1,107.999996704102,2|0,0:2|3:0,0:0:0:0:
394,25,34738,5,2,3:2:0:0:
436,49,34953,2,0,P|430:110|446:167,1,107.999996704102,0|0,0:0|3:2,0:0:0:0:
489,275,35810,1,0,0:0:0:0:
442,262,36024,2,0,L|365:268,1,53.9999983520508,0|0,0:0|3:0,0:0:0:0:
367,310,36453,6,0,P|367:340|359:381,2,53.9999983520508,2|2|2,3:2|0:0|0:0,0:0:0:0:
330,341,37095,2,0,L|259:347,1,53.9999983520508
231,326,37524,1,0,0:0:0:0:
204,366,37738,2,0,L|128:378,1,53.9999983520508,0|0,0:0|3:0,0:0:0:0:
114,343,38167,6,0,L|112:280,2,53.9999983520508,2|2|2,3:2|0:0|0:0,0:0:0:0:
72,368,38810,1,2,3:2:0:0:
4,257,39238,1,0,0:0:0:0:
1,208,39453,2,0,L|15:144,2,53.9999983520508,2|0|0,0:0|3:0|3:0,0:0:0:0:
128,186,40310,5,0,0:0:0:0:
158,147,40524,2,0,P|146:77|102:48,1,107.999996704102,2|2,3:2|0:0,0:0:0:0:
167,42,41167,2,0,L|292:55,1,107.999996704102,2|2,3:2|3:0,0:0:0:0:
278,101,41810,1,0,0:0:0:0:
260,146,42024,5,2,0:0:0:0:
274,274,42453,2,0,L|343:287,1,53.9999983520508
358,320,42881,2,0,L|427:307,1,53.9999983520508,2|2,0:0|3:2,0:0:0:0:
459,300,43310,6,0,B|422:260|422:260|450:208,1,107.999996704102,2|2,3:2|0:0,0:0:0:0:
478,175,43953,1,2,3:2:0:0:
453,47,44381,1,0,0:0:0:0:
415,77,44595,2,0,L|346:88,1,53.9999983520508,2|2,0:0|3:2,0:0:0:0:
319,62,45024,6,0,B|335:113|335:113|305:160,1,107.999996704102,2|2,3:2|0:0,0:0:0:0:
275,197,45667,1,2,3:2:0:0:
160,257,46095,2,0,P|168:282|170:318,2,53.9999983520508,0|2|2,0:0|0:0|3:2,0:0:0:0:
123,224,46738,5,0,0:0:0:0:
94,82,47167,1,2,0:0:0:0:
130,42,47381,2,0,P|193:68|217:137,1,120,2|4,3:1|3:0,0:0:0:0:
216,165,48024,1,8,1:2:0:0:
114,267,48453,5,12,1:3:0:0:
114,267,48667,1,12,1:3:0:0:
217,366,49095,2,0,P|210:291|234:249,2,120,2|2|2,0:0|0:0|0:0,0:0:0:0:
272,353,50167,5,12,1:3:0:0:
272,353,50381,1,12,1:3:0:0:
377,254,50810,2,0,P|430:272|502:283,2,120,0|0|2,0:0|0:0|2:1,0:0:0:0:
381,312,51881,5,12,1:3:0:0:
381,312,52095,1,12,1:3:0:0:
296,195,52524,2,0,P|311:137|346:83,2,120,2|2|2,0:0|0:0|0:0,0:0:0:0:
258,156,53595,6,0,L|128:176,1,120,4|8,0:0|0:0,0:0:0:0:
91,198,54238,2,0,P|101:222|97:263,1,60,4|0,1:0|0:0,0:0:0:0:
22,134,54881,2,0,P|12:110|16:69,1,60,8|4,0:3|0:3,0:0:0:0:
64,53,55310,5,12,1:3:0:0:
64,53,55524,1,12,1:3:0:0:
195,111,55953,2,0,P|213:52|257:0,2,120,0|0|2,0:0|0:0|0:0,0:0:0:0:
241,149,57024,5,12,1:2:0:0:
241,149,57238,1,12,1:3:0:0:
364,74,57667,2,0,P|416:46|495:26,2,120,0|2|2,0:0|0:0|0:1,0:0:0:0:
371,132,58738,5,12,1:3:0:0:
371,132,58953,1,12,1:3:0:0:
452,250,59381,2,0,P|423:301|410:362,2,120,0|2|2,0:0|0:0|0:0,0:0:0:0:
399,277,60453,6,0,L|244:292,1,132.00000402832,12|8,1:2|1:2,0:0:0:0:
222,329,61095,1,4,0:0:0:0:
66,360,61524,1,8,0:0:0:0:
66,360,61738,1,8,0:0:0:0:
66,360,61953,1,8,0:0:0:0:
97,309,62167,6,0,P|86:265|103:175,1,132.00000402832,4|8,1:0|0:0,0:0:0:0:
155,157,62810,2,0,P|159:75|100:65,1,132.00000402832,8|2,3:2|0:0,0:0:0:0:
68,82,63453,1,8,0:0:0:0:
212,17,63881,5,2,3:2:0:0:
260,51,64095,2,0,L|410:68,1,132.00000402832,2|8,0:0|0:0,0:0:0:0:
482,141,64953,2,0,P|464:169|461:208,1,66.0000020141602,8|8,0:3|0:0,0:0:0:0:
495,248,65381,1,2,0:0:0:0:
463,298,65595,6,0,P|486:335|499:369,2,66.0000020141602,2|2|2,2:1|2:1|1:1,0:0:0:0:
406,278,66238,1,2,2:1:0:0:
357,312,66453,2,0,L|264:320,1,66.0000020141602,4|2,2:3|3:1,0:0:0:0:
147,383,67095,1,8,0:0:0:0:
101,344,67310,6,0,P|73:360|38:402,1,66.0000020141602,4|2,0:0|2:0,0:0:0:0:
40,228,67953,2,0,L|203:241,1,132.00000402832,4|2,0:0|0:0,0:0:0:0:
231,220,68595,1,8,0:0:0:0:
231,220,68810,1,8,0:0:0:0:
283,250,69024,6,0,L|291:341,2,66.0000020141602,6|0|8,0:1|0:0|0:0,0:0:0:0:
339,274,69667,1,8,0:0:0:0:
473,189,70095,2,0,P|468:137|390:105,1,132.00000402832,12|0,0:3|0:0,0:0:0:0:
344,113,70738,6,0,L|321:44,2,66.0000020141602,2|2|2,0:1|0:1|1:0,0:0:0:0:
289,137,71381,1,12,0:3:0:0:
407,242,71810,1,2,0:1:0:0:
356,273,72024,6,0,L|208:284,1,132.00000402832,0|2,0:0|0:0,0:0:0:0:
177,319,72667,1,2,0:0:0:0:
196,375,72881,1,2,1:2:0:0:
46,321,73310,2,0,P|58:358|55:404,2,66.0000020141602,8|4|8,0:0|0:3|0:0,0:0:0:0:
9,274,73953,1,8,1:2:0:0:
24,216,74167,6,0,L|39:152,1,66.0000020141602,6|2,0:0|0:0,0:0:0:0:
87,116,74595,1,2,0:0:0:0:
89,56,74810,1,4,1:1:0:0:
193,186,75238,1,8,0:0:0:0:
193,186,75453,1,8,0:0:0:0:
193,186,75667,1,8,0:0:0:0:
251,172,75881,6,0,L|263:314,1,132.00000402832,4|8,0:0|0:0,0:0:0:0:
301,348,76524,2,0,P|319:293|395:277,1,132.00000402832,8|2,0:3|0:0,0:0:0:0:
434,307,77167,1,8,0:0:0:0:
504,164,77595,6,0,L|344:174,1,132.00000402832,2|8,0:1|0:0,0:0:0:0:
320,142,78238,2,0,P|305:85|368:32,1,132.00000402832,8|4,0:0|3:0,0:0:0:0:
397,71,78881,1,8,0:0:0:0:
245,23,79310,6,0,L|164:39,1,66.0000020141602,2|2,0:1|0:1,0:0:0:0:
125,58,79738,2,0,L|44:42,1,66.0000020141602,2|2,1:0|0:1,0:0:0:0:
14,27,80167,1,2,3:1:0:0:
14,27,80381,1,2,3:1:0:0:
14,27,80595,2,0,P|35:76|25:169,1,132.00000402832,8|4,0:0|0:0,0:0:0:0:
114,288,81453,5,0,0:0:0:0:
156,329,81667,1,4,0:1:0:0:
296,252,82095,1,0,0:0:0:0:
296,252,82310,1,8,0:0:0:0:
296,252,82524,1,8,0:0:0:0:
343,217,82738,6,0,L|495:211,1,132.00000402832,4|10,0:0|0:0,0:0:0:0:
512,165,83381,2,0,P|472:132|468:52,1,132.00000402832,8|2,3:0|0:0,0:0:0:0:
512,17,84024,1,0,0:0:0:0:
357,50,84453,6,0,P|339:150|244:366,1,330.000010070801,10|2,0:0|0:0,0:0:0:0:
305,340,85738,2,0,P|353:289|421:250,1,132.00000402832,2|4,2:1|1:0,0:0:0:0:
256,192,86381,12,0,91310,0:0:0:0:
