osu file format v14

[General]
AudioFilename: audio.mp3
AudioLeadIn: 0
PreviewTime: 48239
Countdown: 0
SampleSet: Soft
StackLeniency: 0.5
Mode: 0
LetterboxInBreaks: 0
WidescreenStoryboard: 1

[Editor]
DistanceSpacing: 1
BeatDivisor: 2
GridSize: 16
TimelineZoom: 1.1

[Metadata]
Title:again
TitleUnicode:again
Artist:YUI
ArtistUnicode:YUI
Creator:_83
Version:Easy
Source:鋼の錬金術師 FULLMETAL ALCHEMIST
Tags:fma tv size opening bor hagane no renkin jutsushi
BeatmapID:1323508
BeatmapSetID:625048

[Difficulty]
HPDrainRate:2
CircleSize:3
OverallDifficulty:2
ApproachRate:2
SliderMultiplier:1
SliderTickRate:1

[Events]
//Background and Video events
0,0,"Edward.Elric.full.2057027.jpg",0,0
//Break Periods
//Storyboard Layer 0 (Background)
//Storyboard Layer 1 (Fail)
//Storyboard Layer 2 (Pass)
//Storyboard Layer 3 (Foreground)
//Storyboard Sound Samples

[TimingPoints]
-1261,428.571428571429,4,2,1,40,1,0
24,-100,4,2,1,40,0,0
10167,397.350993377483,4,2,1,40,1,0
10310,453.686200378072,4,2,1,40,1,0
10763,487.80487804878,4,2,1,40,1,0
11250,444.444444444444,4,2,1,40,1,0
12024,428.571428571429,4,2,1,40,1,0
12024,-100,4,2,1,40,0,0
12453,428.571428571429,4,2,1,40,1,0
21024,-100,4,2,1,40,0,0
47167,-100,4,2,1,40,0,0
48453,-100,4,2,1,70,0,1
48881,-100,4,2,1,70,0,0
50167,-100,4,2,1,70,0,1
50595,-100,4,2,1,70,0,0
51453,-100,4,2,1,70,0,0
51881,-100,4,2,1,70,0,1
52310,-100,4,2,1,70,0,0
53595,-100,4,2,1,70,0,1
55203,-100,4,2,1,70,0,0
55310,-100,4,2,1,70,0,1
55738,-100,4,2,1,70,0,0
57024,-100,4,2,1,70,0,1
57453,-100,4,2,1,70,0,0
58738,-100,4,2,1,70,0,1
59167,-100,4,2,1,70,0,0
60453,-100,4,2,1,70,0,1
61310,-100,4,2,1,70,0,0
62167,-100,4,2,1,70,0,1
75238,-100,4,2,1,70,0,0
75881,-100,4,2,1,70,0,1
84453,-100,4,2,1,70,0,0
86167,-100,4,2,1,70,0,1
86381,-100,4,2,1,70,0,0
89167,-100,4,2,1,30,0,0
90881,-100,4,2,1,5,0,0

[Colours]
Combo1 : 128,128,255
Combo2 : 255,128,192
Combo3 : 128,128,192
Combo4 : 128,255,128

[HitObjects]
54,119,453,6,0,P|130:142|206:140,2,150,2|2|0,0:0|0:0|0:0,0:0:0:0:
1,204,2167,1,2,0:0:0:0:
59,342,2810,2,0,L|211:327,1,150,2|0,0:0|0:0,0:0:0:0:
260,241,3881,6,0,P|296:234|372:244,1,100,2|0,0:0|0:0,0:0:0:0:
306,326,4739,2,0,P|270:333|194:323,1,100,0|0,0:0|0:0,0:0:0:0:
461,15,7310,6,0,L|475:182,2,150,2|2|0,0:0|0:0|0:0,0:0:0:0:
366,47,9024,2,0,L|250:40,1,100,2|0,0:0|0:0,0:0:0:0:
183,97,9881,2,0,L|81:102,1,100.25
13,174,10763,5,0,0:0:0:0:
13,174,11250,1,0,0:0:0:0:
68,366,12024,1,8,0:0:0:0:
68,366,12452,6,0,P|112:291|260:306,1,250,4|0,0:0|3:0,0:0:0:0:
320,384,13953,2,0,P|319:205|439:93,1,350,2|8,0:0|0:0,0:0:0:0:
374,15,15881,6,0,L|253:27,1,100,2|8,0:0|0:0,0:0:0:0:
188,76,16738,1,8,0:0:0:0:
188,76,17167,2,0,L|126:73,1,50,8|4,0:0|0:0,0:0:0:0:
133,174,17810,6,0,B|177:152|177:152|222:173|222:173|270:153|270:153|314:174|314:174|360:153|360:153|407:175|407:175|447:149|447:149|531:185|523:275|475:361|357:364,1,650,8|8,0:0|0:0,0:0:0:0:
280,354,21024,6,0,L|124:348,1,150,2|0,3:3|3:0,0:0:0:0:
0,134,22738,2,0,L|156:128,1,150,0|2,3:0|3:2,0:0:0:0:
380,31,24453,6,0,P|428:80|421:177,1,150,2|2,3:2|3:2,0:0:0:0:
190,229,26167,2,0,P|142:180|149:83,1,150,0|0,0:0|3:0,0:0:0:0:
255,6,27453,1,0,3:0:0:0:
308,90,27881,6,0,L|288:251,1,150,0|0,3:2|3:0,0:0:0:0:
67,353,29595,2,0,L|47:192,1,150,0|2,3:2|3:2,0:0:0:0:
281,113,31310,6,0,P|340:67|366:-22,1,150,2|2,3:2|3:2,0:0:0:0:
500,209,33024,2,0,P|440:254|414:344,1,150,0|0,0:0|3:0,0:0:0:0:
270,366,34310,1,0,3:0:0:0:
187,308,34738,6,0,P|101:297|26:322,1,150,2|0,3:2|3:2,0:0:0:0:
0,168,36024,1,0,0:0:0:0:
82,111,36453,2,0,L|194:126,1,100,2|2,3:2|0:0,0:0:0:0:
270,168,37310,2,0,L|382:153,1,100,2|0,0:0|0:0,0:0:0:0:
468,163,38167,6,0,P|394:200|425:262,1,150,2|2,3:2|3:2,0:0:0:0:
498,371,39453,1,2,0:0:0:0:
398,366,39881,2,0,L|248:384,1,150,0|2,3:0|3:2,0:0:0:0:
110,325,41167,1,2,3:2:0:0:
157,236,41595,6,0,P|165:190|95:96,1,150,2|0,3:0|3:0,0:0:0:0:
40,235,42881,1,2,0:0:0:0:
66,331,43310,2,0,L|178:326,1,100,2|2,3:2|0:0,0:0:0:0:
256,284,44167,2,0,L|368:289,1,100,0|2,0:0|0:0,0:0:0:0:
429,356,45024,6,0,P|409:294|402:195,1,150,2|2,3:2|3:2,0:0:0:0:
466,74,46310,1,2,0:0:0:0:
466,74,46738,1,0,0:0:0:0:
383,17,47167,2,0,L|263:31,1,100,2|0,0:0|0:0,0:0:0:0:
184,13,48024,1,8,1:2:0:0:
102,71,48453,6,0,L|39:64,1,50,12|12,1:3|1:3,0:0:0:0:
17,159,49095,2,0,B|111:126|111:126|151:183,1,150,2|2,0:0|0:0,0:0:0:0:
192,252,50167,2,0,L|190:303,1,50,12|12,1:3|1:3,0:0:0:0:
271,359,50810,2,0,B|323:273|323:273|378:287,1,150,0|2,0:0|0:1,0:0:0:0:
468,305,51881,6,0,L|458:238,1,50,12|12,1:3|1:3,0:0:0:0:
485,158,52524,2,0,B|385:154|385:154|356:197,1,150,2|2,0:0|0:0,0:0:0:0:
274,252,53595,6,0,B|177:226|177:226|166:281,1,150,4|4,0:0|1:0,0:0:0:0:
62,381,54881,1,8,0:3:0:0:
62,381,55310,6,0,L|72:315,1,50,12|12,1:3|1:3,0:0:0:0:
135,256,55953,2,0,B|108:160|108:160|64:184,1,150,0|2,0:0|0:0,0:0:0:0:
19,94,57024,6,0,L|30:38,1,50,12|12,1:2|1:3,0:0:0:0:
125,21,57667,2,0,B|223:35|223:35|186:84,1,150,0|2,0:0|0:1,0:0:0:0:
178,175,58738,6,0,L|194:229,1,50,12|12,1:3|1:3,0:0:0:0:
254,301,59381,2,0,B|350:273|350:273|346:331,1,150,0|2,0:0|0:0,0:0:0:0:
444,344,60453,2,0,P|440:275|459:193,2,150,12|4|8,1:2|0:0|0:0,0:0:0:0:
344,356,62167,6,0,P|272:324|141:309,1,200,4|4,1:0|0:3,0:0:0:0:
55,332,63453,1,8,0:0:0:0:
12,241,63881,2,0,B|3:193|3:193|97:222|173:213,1,200,2|4,3:2|1:3,0:0:0:0:
251,202,65167,1,8,0:0:0:0:
284,109,65595,6,0,B|238:88|238:88|192:109|192:109|148:88|148:88|101:108|101:108|52:87,1,250,2|2,2:1|3:1,0:0:0:0:
40,240,67310,2,0,B|12:280|12:280|76:280|130:300,1,150,4|4,0:0|0:0,0:0:0:0:
251,350,68595,1,8,0:0:0:0:
346,380,69024,6,0,P|351:299|427:189,1,200,6|8,0:1|0:0,0:0:0:0:
499,150,70310,1,8,0:0:0:0:
414,96,70738,2,0,B|370:73|370:73|326:97|326:97|230:71|230:71|186:97|186:97|136:68,1,300,2|0,0:1|0:0,0:0:0:0:
46,46,72453,6,0,P|59:94|62:157,1,100,2|2,0:0|1:2,0:0:0:0:
16,232,73310,2,0,P|3:280|0:343,1,100,8|8,0:0|0:0,0:0:0:0:
90,371,74167,1,6,0:0:0:0:
90,371,74595,2,0,L|125:310,1,50,2|4,0:0|1:1,0:0:0:0:
188,196,75453,1,8,0:0:0:0:
244,278,75881,6,0,P|305:278|449:207,1,200,4|4,0:0|0:3,0:0:0:0:
485,140,77167,1,8,0:0:0:0:
406,78,77595,2,0,P|345:78|201:149,1,200,2|8,0:1|1:2,0:0:0:0:
168,218,78881,1,8,0:0:0:0:
125,308,79310,6,0,B|171:329|171:329|217:308|217:308|261:329|261:329|308:309|308:309|356:329|356:329|400:309,1,300,2|8,0:1|0:0,0:0:0:0:
486,261,81024,2,0,P|478:200|390:149,1,150,4|4,0:0|0:1,0:0:0:0:
264,185,82310,1,8,0:0:0:0:
198,109,82738,6,0,P|210:55|253:16,1,100,4|10,0:0|0:0,0:0:0:0:
337,45,83595,2,0,L|455:61,1,100,4|0,3:0|0:0,0:0:0:0:
485,146,84453,6,0,P|395:151|187:213,1,300,10|2,0:0|2:1,0:0:0:0:
137,292,86167,5,4,1:0:0:0:
256,192,86595,12,0,91310,0:0:0:0:
