osu file format v14

[General]
AudioFilename: audio.mp3
AudioLeadIn: 0
PreviewTime: 48239
Countdown: 0
SampleSet: Soft
StackLeniency: 0.8
Mode: 0
LetterboxInBreaks: 0
WidescreenStoryboard: 0

[Editor]
Bookmarks: 453,12453,21024,34739,48453
DistanceSpacing: 0.9
BeatDivisor: 4
GridSize: 16
TimelineZoom: 1

[Metadata]
Title:again
TitleUnicode:again
Artist:YUI
ArtistUnicode:YUI
Creator:_83
Version:Insane
Source:鋼の錬金術師 FULLMETAL ALCHEMIST
Tags:fma tv size opening bor hagane no renkin jutsushi
BeatmapID:1317542
BeatmapSetID:625048

[Difficulty]
HPDrainRate:5
CircleSize:4
OverallDifficulty:8
ApproachRate:9
SliderMultiplier:1.5
SliderTickRate:1

[Events]
//Background and Video events
0,0,"Edward.Elric.full.2057027.jpg",0,0
//Break Periods
//Storyboard Layer 0 (Background)
//Storyboard Layer 1 (Fail)
//Storyboard Layer 2 (Pass)
//Storyboard Layer 3 (Foreground)
//Storyboard Sound Samples

[TimingPoints]
-1261,428.571428571429,4,2,1,40,1,0
239,-133.333333333333,4,2,1,40,0,0
10167,397.350993377483,4,2,1,40,1,0
10167,-133.333333333333,4,2,1,40,0,0
10310,453.686200378072,4,2,1,40,1,0
10763,487.80487804878,4,2,1,40,1,0
11250,444.444444444444,4,2,1,40,1,0
12024,428.571428571429,4,2,1,40,1,0
12024,-100,4,2,1,40,0,0
12453,428.571428571429,4,2,1,40,1,0
21024,-133.333333333333,4,2,1,40,0,0
47167,-100,4,2,1,40,0,0
48453,-83.3333333333333,4,2,1,70,0,1
48881,-83.3333333333333,4,2,1,70,0,0
50167,-83.3333333333333,4,2,1,70,0,1
50595,-83.3333333333333,4,2,1,70,0,0
51453,-83.3333333333333,4,2,1,70,0,0
51881,-83.3333333333333,4,2,1,70,0,1
52310,-83.3333333333333,4,2,1,70,0,0
53595,-83.3333333333333,4,2,1,70,0,1
55203,-83.3333333333333,4,2,1,70,0,0
55310,-83.3333333333333,4,2,1,70,0,1
55738,-83.3333333333333,4,2,1,70,0,0
57024,-83.3333333333333,4,2,1,70,0,1
57453,-83.3333333333333,4,2,1,70,0,0
58738,-83.3333333333333,4,2,1,70,0,1
59167,-83.3333333333333,4,2,1,70,0,0
60453,-74.0740740740741,4,2,1,70,0,1
61310,-74.0740740740741,4,2,1,70,0,0
62167,-66.6666666666667,4,2,1,70,0,1
75238,-57.1428571428571,4,2,1,70,0,0
75881,-57.1428571428571,4,2,1,70,0,1
84453,-57.1428571428571,4,2,1,70,0,0
86167,-57.1428571428571,4,2,1,70,0,1
86381,-100,4,2,1,70,0,0
89167,-100,4,2,1,30,0,0
90881,-100,4,2,1,5,0,0

[Colours]
Combo1 : 128,128,255
Combo2 : 255,128,192
Combo3 : 128,128,192
Combo4 : 128,255,128

[HitObjects]
67,109,239,5,0,0:0:0:0:
137,150,453,2,0,P|176:143|254:142,1,112.500004291535,2|0,0:0|0:0,0:0:0:0:
323,159,1096,2,0,P|295:142|280:107,1,56.2500021457673,2|0,0:0|0:0,0:0:0:0:
348,70,1524,2,0,P|340:38|354:2,1,56.2500021457673,2|0,0:0|0:0,0:0:0:0:
483,73,1953,1,0,0:0:0:0:
483,73,2167,6,0,P|479:102|469:141,1,56.2500021457673,2|0,0:0|0:0,0:0:0:0:
420,198,2596,1,0,0:0:0:0:
420,198,2810,2,0,L|348:208,1,56.2500021457673,2|0,0:0|0:0,0:0:0:0:
457,307,3239,2,0,L|520:315,1,56.2500021457673,2|0,0:0|0:0,0:0:0:0:
343,372,3667,2,0,L|306:376,1,28.1250010728836,0|0,0:0|0:0,0:0:0:0:
343,356,3881,5,2,0:0:0:0:
272,373,4096,1,0,0:0:0:0:
285,296,4310,1,0,0:0:0:0:
356,313,4524,1,2,0:0:0:0:
343,236,4739,1,0,0:0:0:0:
272,253,4953,1,0,0:0:0:0:
285,176,5167,1,0,0:0:0:0:
15,297,7096,2,0,L|55:308,1,28.1250010728836,0|0,0:0|0:0,0:0:0:0:
5,306,7310,6,0,L|68:325,1,56.2500021457673,2|0,0:0|0:0,0:0:0:0:
125,352,7739,2,0,L|191:340,1,56.2500021457673,0|2,0:0|0:0,0:0:0:0:
203,351,8060,2,0,P|235:321|279:324,1,84.3750032186509,0|2,0:0|0:0,0:0:0:0:
186,254,8596,2,0,L|185:175,1,56.2500021457673,0|0,0:0|0:0,0:0:0:0:
141,117,9024,6,0,L|148:183,2,56.2500021457673,2|0|0,0:0|0:0|0:0,0:0:0:0:
81,48,9667,1,2,0:0:0:0:
62,50,9774,2,0,P|33:78|17:109,1,56.2500021457673,0|0,0:0|0:0,0:0:0:0:
70,162,10167,6,0,L|50:330,1,168.750006437302,2|0,0:2|0:0,0:0:0:0:
50,329,11006,1,0,0:0:0:0:
50,329,11250,1,0,0:0:0:0:
483,325,12024,6,0,B|458:351|458:351|371:365,1,112.5,8|2,0:0|3:0,0:0:0:0:
368,381,12452,2,0,P|338:334|234:322,1,150,4|8,0:0|0:0,0:0:0:0:
166,381,13095,1,4,2:3:0:0:
166,381,13203,1,4,2:3:0:0:
166,381,13310,1,8,0:0:0:0:
85,306,13524,2,0,L|90:219,1,75,0|8,3:0|0:0,0:0:0:0:
89,231,13953,6,0,L|245:251,1,150,2|0,0:0|3:0,0:0:0:0:
339,201,14595,1,8,0:0:0:0:
274,27,14917,1,0,3:0:0:0:
285,38,15024,2,0,L|288:93,2,37.5,8|0|8,0:0|3:0|0:0,0:0:0:0:
390,0,15453,2,0,L|383:133,1,112.5,8|0,0:0|3:0,0:0:0:0:
365,124,15881,6,0,P|418:136|422:246,1,150,2|8,0:0|0:0,0:0:0:0:
394,302,16524,1,8,0:0:0:0:
394,302,16631,1,0,3:0:0:0:
394,302,16738,1,8,0:0:0:0:
301,262,16953,2,0,L|208:273,1,75,0|8,0:0|0:0,0:0:0:0:
113,362,17381,6,0,P|176:331|182:232,1,150,4|8,0:0|0:0,0:0:0:0:
120,198,18024,1,8,0:0:0:0:
120,198,18238,1,8,0:0:0:0:
198,111,18453,1,8,2:3:0:0:
78,118,18667,1,8,2:3:0:0:
198,111,18881,1,4,0:3:0:0:
78,118,19095,1,4,0:3:0:0:
214,8,19310,6,0,L|273:24,1,37.5,8|8,0:0|0:0,0:0:0:0:
218,25,19524,1,8,0:0:0:0:
286,105,19738,1,8,0:0:0:0:
382,77,19953,2,0,L|425:68,2,37.5,0|8|8,3:0|0:0|0:0,0:0:0:0:
289,108,20381,1,8,0:0:0:0:
308,210,20595,1,8,0:0:0:0:
321,223,20703,1,8,0:3:0:0:
334,236,20810,1,4,0:3:0:0:
337,239,21024,6,0,P|285:241|222:258,1,112.500004291535,2|0,3:3|0:0,0:0:0:0:
159,300,21667,1,0,3:0:0:0:
43,209,22095,2,0,P|13:201|-14:198,2,56.2500021457673,2|0|0,0:0|0:0|0:0,0:0:0:0:
50,216,22738,5,0,3:0:0:0:
50,216,22953,2,0,P|53:168|37:100,1,112.500004291535,2|2,0:2|3:2,0:0:0:0:
299,3,24238,2,0,L|309:33,1,28.1250010728836,0|0,0:0|0:0,0:0:0:0:
287,0,24453,6,0,P|298:27|305:60,1,56.2500021457673,2|0,3:2|0:0,0:0:0:0:
266,120,24881,1,0,0:0:0:0:
266,120,25095,2,0,L|194:125,1,56.2500021457673,2|0,3:2|0:0,0:0:0:0:
149,194,25524,2,0,L|221:199,1,56.2500021457673,2|0,0:2|0:0,0:0:0:0:
273,237,25953,6,0,P|316:210|390:203,1,112.500004291535,2|0,0:0|0:0,0:0:0:0:
447,243,26595,2,0,P|473:258|497:267,1,56.2500021457673,0|0,0:0|3:0,0:0:0:0:
496,278,27024,2,0,P|463:323|441:395,1,112.500004291535,2|0,0:0|3:0,0:0:0:0:
340,384,27667,1,0,0:0:0:0:
340,384,27774,1,0,0:0:0:0:
340,384,27881,6,0,P|359:334|364:260,1,112.500004291535,0|0,3:2|0:0,0:0:0:0:
327,203,28524,1,0,3:0:0:0:
210,331,28953,2,0,P|200:355|192:388,2,56.2500021457673,2|0|0,0:0|0:0|0:0,0:0:0:0:
217,338,29595,5,0,3:2:0:0:
217,338,29810,2,0,L|93:350,1,112.500004291535,2|2,0:0|3:2,0:0:0:0:
21,138,31095,2,0,L|65:145,1,28.1250010728836,0|0,0:0|0:0,0:0:0:0:
11,127,31310,6,0,P|40:134|85:141,1,56.2500021457673,2|0,3:2|0:0,0:0:0:0:
150,164,31738,1,0,0:0:0:0:
150,164,31953,2,0,L|160:108,1,56.2500021457673,2|0,3:2|0:0,0:0:0:0:
228,56,32381,2,0,L|238:112,1,56.2500021457673,2|0,0:0|0:0,0:0:0:0:
276,186,32810,6,0,P|283:134|321:72,1,112.500004291535,2|0,0:0|0:0,0:0:0:0:
381,32,33453,2,0,L|441:39,1,56.2500021457673,0|0,0:0|3:0,0:0:0:0:
508,154,33881,2,0,P|460:155|376:170,1,112.500004291535,2|0,0:2|3:0,0:0:0:0:
337,230,34524,1,2,0:0:0:0:
337,230,34631,1,2,0:0:0:0:
337,230,34738,6,0,L|334:305,1,56.2500021457673,2|0,3:2|0:0,0:0:0:0:
268,327,35167,2,0,L|197:334,1,56.2500021457673,2|0,0:0|3:2,0:0:0:0:
178,348,35488,2,0,L|107:341,1,56.2500021457673,2|0,0:0|0:0,0:0:0:0:
90,324,35810,2,0,L|48:328,2,28.1250010728836,0|0|0,0:0|0:0|0:0,0:0:0:0:
142,249,36238,1,0,3:0:0:0:
27,184,36453,6,0,P|63:186|97:181,2,56.2500021457673,2|2|2,3:2|0:0|0:0,0:0:0:0:
0,104,37095,1,2,3:2:0:0:
91,58,37310,2,0,L|155:78,1,56.2500021457673,2|0,0:0|0:0,0:0:0:0:
158,72,37631,1,0,0:0:0:0:
172,69,37738,1,0,0:0:0:0:
216,0,37953,1,0,3:0:0:0:
279,54,38167,6,0,L|265:124,2,56.2500021457673,2|2|2,3:2|0:0|0:0,0:0:0:0:
279,54,38810,1,2,3:2:0:0:
456,16,39238,2,0,L|494:3,1,28.1250010728836,0|0,0:0|0:0,0:0:0:0:
488,18,39453,2,0,P|456:29|422:49,1,56.2500021457673,2|0,0:0|3:0,0:0:0:0:
403,109,39881,5,0,3:0:0:0:
492,320,40310,1,0,0:0:0:0:
420,279,40524,2,0,P|365:294|297:294,1,112.500004291535,2|2,3:2|0:0,0:0:0:0:
312,298,41167,2,0,L|305:361,1,56.2500021457673,2|0,3:2|0:0,0:0:0:0:
305,353,41595,5,2,3:0:0:0:
213,357,41810,1,0,0:0:0:0:
213,357,42024,2,0,P|209:304|193:255,1,84.3750032186509,2|0,0:0|0:0,0:0:0:0:
176,267,42453,1,0,0:0:0:0:
176,267,42560,1,0,0:0:0:0:
176,267,42667,2,0,L|126:274,1,28.1250010728836,0|0,0:0|0:0,0:0:0:0:
117,251,42881,2,0,P|110:220|108:190,1,56.2500021457673,2|2,0:0|3:2,0:0:0:0:
168,131,43310,5,2,3:2:0:0:
143,56,43524,1,2,0:0:0:0:
68,29,43738,1,2,0:0:0:0:
148,35,43953,2,0,L|228:27,1,56.2500021457673,2|0,3:2|0:0,0:0:0:0:
233,50,44274,2,0,L|313:58,1,56.2500021457673,0|0,0:0|0:0,0:0:0:0:
323,34,44595,1,2,0:0:0:0:
323,34,44810,1,2,3:2:0:0:
416,0,45024,5,2,3:2:0:0:
452,102,45238,1,2,0:0:0:0:
416,0,45453,1,2,0:0:0:0:
452,102,45667,2,0,L|446:219,1,112.500004291535,2|0,3:2|0:0,0:0:0:0:
372,273,46310,2,0,L|374:333,1,56.2500021457673,2|2,0:0|3:2,0:0:0:0:
374,329,46738,5,0,0:0:0:0:
100,384,47167,1,2,0:0:0:0:
168,332,47381,2,0,P|154:260|75:251,1,150,2|4,3:1|3:0,0:0:0:0:
90,248,48024,2,0,B|112:257|112:257|230:235,1,112.5,8|0,1:2|0:0,0:0:0:0:
214,227,48453,6,0,L|150:225,1,44.999998626709,12|0,1:3|0:0,0:0:0:0:
83,154,48667,1,12,1:3:0:0:
83,154,48774,1,0,0:0:0:0:
83,154,48881,2,0,L|74:99,1,44.999998626709,2|0,0:0|0:0,0:0:0:0:
162,104,49095,2,0,L|176:50,1,44.999998626709,2|0,0:0|0:0,0:0:0:0:
255,86,49310,5,2,0:0:0:0:
277,88,49417,1,2,0:0:0:0:
299,90,49524,1,2,0:0:0:0:
321,92,49631,1,2,0:0:0:0:
343,94,49738,2,0,L|323:151,1,44.999998626709,2|0,0:0|0:0,0:0:0:0:
412,172,49953,1,2,0:0:0:0:
412,172,50167,6,0,L|432:229,1,44.999998626709,12|0,1:3|0:0,0:0:0:0:
457,311,50381,1,12,1:3:0:0:
436,319,50488,1,0,0:0:0:0:
415,327,50595,1,0,0:0:0:0:
394,335,50703,2,0,L|329:324,1,44.999998626709,2|0,0:0|0:0,0:0:0:0:
219,254,50917,1,2,0:0:0:0:
239,245,51024,5,0,0:0:0:0:
260,237,51131,2,0,L|308:216,1,44.999998626709,2|0,0:0|0:0,0:0:0:0:
390,113,51345,1,0,0:0:0:0:
407,127,51453,2,0,L|414:197,1,44.999998626709,2|0,0:1|0:0,0:0:0:0:
308,56,51667,1,2,2:1:0:0:
308,56,51881,6,0,L|235:69,1,44.999998626709,12|0,1:3|0:0,0:0:0:0:
164,22,52095,1,12,1:3:0:0:
155,42,52203,1,0,0:0:0:0:
146,62,52310,2,0,L|140:17,1,44.999998626709,2|0,0:0|0:0,0:0:0:0:
60,103,52524,2,0,L|63:57,1,44.999998626709,2|0,0:0|0:0,0:0:0:0:
0,159,52738,6,0,P|24:171|45:189,1,44.999998626709,2|0,0:0|0:0,0:0:0:0:
90,245,52953,2,0,P|98:270|100:298,1,44.999998626709,2|0,0:0|0:0,0:0:0:0:
38,338,53167,1,2,0:0:0:0:
60,334,53274,1,2,0:0:0:0:
82,330,53381,1,2,0:0:0:0:
104,326,53488,1,2,0:0:0:0:
126,322,53595,6,0,B|216:307|216:307|283:368,1,179.999994506836,4|8,0:0|0:0,0:0:0:0:
414,384,54238,2,0,P|434:340|430:289,1,89.9999972534181,4|0,1:0|0:0,0:0:0:0:
412,289,54560,1,8,0:0:0:0:
412,289,54667,1,8,0:0:0:0:
341,193,54881,1,8,0:3:0:0:
374,178,54988,1,8,0:3:0:0:
409,179,55095,1,4,0:3:0:0:
512,121,55310,6,0,L|446:129,1,44.999998626709,12|0,1:3|0:0,0:0:0:0:
361,165,55524,1,12,1:3:0:0:
334,159,55631,1,0,0:0:0:0:
307,154,55738,2,0,P|305:178|295:204,1,44.999998626709,2|0,0:0|0:0,0:0:0:0:
245,280,55953,1,0,0:0:0:0:
245,280,56060,1,2,0:0:0:0:
245,280,56167,6,0,P|243:306|246:342,2,44.999998626709,2|0|0,0:0|0:0|0:0,0:0:0:0:
177,216,56488,1,2,0:0:0:0:
177,216,56595,2,0,L|126:249,1,44.999998626709,2|0,0:0|0:0,0:0:0:0:
63,296,56810,1,2,0:0:0:0:
5,151,57024,6,0,L|81:160,1,44.999998626709,12|0,1:2|0:0,0:0:0:0:
171,118,57238,1,12,1:3:0:0:
197,115,57345,1,0,0:0:0:0:
223,112,57453,1,0,0:0:0:0:
249,108,57560,2,0,L|241:164,1,44.999998626709,0|0,0:0|0:0,0:0:0:0:
339,191,57774,1,0,0:0:0:0:
351,167,57881,5,2,0:0:0:0:
364,143,57988,1,2,0:0:0:0:
376,119,58095,1,2,0:0:0:0:
389,95,58203,1,0,0:0:0:0:
402,71,58310,2,0,P|401:96|406:116,1,44.999998626709,2|0,0:1|0:0,0:0:0:0:
489,160,58524,1,2,0:1:0:0:
474,288,58738,6,0,L|403:297,1,44.999998626709,12|0,1:3|0:0,0:0:0:0:
322,350,58953,1,12,1:3:0:0:
295,347,59060,1,0,0:0:0:0:
268,344,59167,1,0,0:0:0:0:
241,342,59274,2,0,L|223:290,1,44.999998626709,2|0,0:0|0:0,0:0:0:0:
27,245,59595,5,2,0:0:0:0:
54,248,59703,1,2,0:0:0:0:
81,251,59810,1,2,0:0:0:0:
108,254,59917,1,2,0:0:0:0:
136,258,60024,2,0,L|129:191,1,44.999998626709,2|0,0:0|0:0,0:0:0:0:
67,149,60238,2,0,L|74:82,1,44.999998626709,2|0,0:0|0:0,0:0:0:0:
134,14,60453,6,0,P|152:77|226:120,1,151.875000579357,12|0,1:2|0:0,0:0:0:0:
255,108,60881,2,0,P|286:109|332:125,1,50.6250001931191,8|0,1:2|0:0,0:0:0:0:
425,43,61095,2,0,L|407:167,1,101.250000386238,4|8,0:0|0:0,0:0:0:0:
385,175,61417,5,8,0:0:0:0:
401,212,61524,1,8,0:0:0:0:
418,248,61631,1,8,0:0:0:0:
435,284,61738,2,0,L|448:217,1,50.6250001931191,8|8,0:0|0:0,0:0:0:0:
315,265,61953,2,0,L|299:198,1,50.6250001931191,8|8,0:0|0:0,0:0:0:0:
197,296,62167,6,0,P|132:233|32:258,1,168.750006437302,4|0,1:0|0:0,0:0:0:0:
25,257,62595,1,8,0:0:0:0:
90,92,62810,1,8,3:2:0:0:
84,47,62917,1,8,0:0:0:0:
59,10,63024,6,0,P|58:52|74:104,1,56.2500021457673,4|0,0:3|0:0,0:0:0:0:
128,180,63238,2,0,P|199:178|255:124,1,112.500004291535,2|8,0:0|0:0,0:0:0:0:
406,55,63667,1,2,0:0:0:0:
446,74,63774,1,2,0:0:0:0:
480,102,63881,6,0,P|501:140|503:181,1,56.2500021457673,2|0,3:2|0:0,0:0:0:0:
477,273,64095,2,0,P|426:322|330:308,1,168.750006437302,2|0,0:0|0:0,0:0:0:0:
224,235,64524,1,8,0:0:0:0:
179,229,64631,1,8,0:0:0:0:
138,250,64738,6,0,P|118:273|105:335,1,56.2500021457673,4|0,1:3|0:0,0:0:0:0:
166,384,64953,1,8,0:3:0:0:
0,321,65167,1,8,0:0:0:0:
63,155,65381,1,2,0:0:0:0:
54,110,65488,1,2,0:0:0:0:
29,72,65595,6,0,P|34:103|53:142,1,56.2500021457673,2|0,2:1|0:0,0:0:0:0:
97,191,65810,2,0,P|126:202|169:205,1,56.2500021457673,2|0,2:1|0:0,0:0:0:0:
54,110,66024,2,0,P|71:136|104:164,1,56.2500021457673,2|0,1:1|0:0,0:0:0:0:
164,191,66238,2,0,P|195:189|236:174,1,56.2500021457673,2|0,2:1|0:0,0:0:0:0:
92,134,66453,6,0,P|118:150|159:162,1,56.2500021457673,4|0,2:3|0:0,0:0:0:0:
225,163,66667,2,0,P|276:129|305:72,1,112.500004291535,2|8,3:1|0:0,0:0:0:0:
507,29,67095,1,8,0:0:0:0:
470,54,67203,1,8,0:0:0:0:
454,96,67310,6,0,P|449:135|459:179,1,56.2500021457673,4|0,0:0|0:0,0:0:0:0:
512,265,67524,2,0,P|470:191|405:173,1,112.500004291535,2|8,2:0|0:0,0:0:0:0:
272,333,67953,6,0,P|354:335|411:276,1,168.750006437302,4|0,0:0|0:0,0:0:0:0:
333,91,68381,2,0,P|306:119|290:184,1,56.2500021457673,2|0,0:0|0:0,0:0:0:0:
379,288,68595,1,8,0:0:0:0:
323,297,68703,1,8,0:0:0:0:
267,306,68810,1,8,0:0:0:0:
211,315,68917,1,8,0:0:0:0:
155,325,69024,6,0,P|123:306|143:184,1,168.750006437302,6|0,0:1|0:0,0:0:0:0:
225,189,69453,2,0,P|203:200|148:207,1,56.2500021457673,8|0,0:0|0:0,0:0:0:0:
52,143,69667,1,8,0:0:0:0:
42,87,69774,1,8,0:0:0:0:
64,35,69881,5,8,0:0:0:0:
98,221,70095,1,12,0:3:0:0:
236,152,70310,2,0,L|385:181,1,112.500004291535,8|0,0:0|0:0,0:0:0:0:
492,77,70738,6,0,P|484:106|479:154,1,56.2500021457673,2|0,0:1|0:0,0:0:0:0:
360,95,70953,2,0,P|367:124|373:172,1,56.2500021457673,2|0,0:1|0:0,0:0:0:0:
503,152,71167,2,0,P|495:181|490:229,1,56.2500021457673,2|0,1:0|0:0,0:0:0:0:
495,340,71381,1,12,0:3:0:0:
447,308,71488,6,0,P|408:289|356:286,1,56.2500021457673,8|0,0:0|0:0,0:0:0:0:
263,353,71703,1,2,0:0:0:0:
287,302,71810,2,0,P|283:222|134:218,1,225.000008583069,2|0,0:1|3:0,0:0:0:0:
26,384,72453,6,0,P|36:355|40:305,1,56.2500021457673,2|0,0:0|0:0,0:0:0:0:
142,349,72667,2,0,P|136:318|114:273,1,56.2500021457673,2|0,0:0|0:0,0:0:0:0:
224,260,72881,1,2,1:2:0:0:
273,384,73095,1,4,3:0:0:0:
273,384,73203,1,8,3:0:0:0:
273,384,73310,5,8,0:0:0:0:
376,341,73524,1,4,0:3:0:0:
224,260,73738,1,8,0:0:0:0:
168,71,73953,1,8,1:2:0:0:
197,23,74060,1,8,1:2:0:0:
250,5,74167,6,0,P|288:7|321:16,1,56.2500021457673,6|0,0:0|0:0,0:0:0:0:
380,52,74381,2,0,P|405:80|422:109,1,56.2500021457673,2|0,0:0|0:0,0:0:0:0:
438,177,74595,1,2,0:0:0:0:
387,311,74810,6,0,L|190:328,1,168.750006437302,4|0,1:1|0:0,0:0:0:0:
72,384,75238,2,0,P|102:353|118:307,1,65.6250006258488,8|0,0:0|0:0,0:0:0:0:
169,199,75453,1,8,0:0:0:0:
163,140,75560,1,8,0:0:0:0:
119,99,75667,1,8,0:0:0:0:
60,103,75774,1,8,0:0:0:0:
18,145,75881,6,0,P|82:153|197:77,1,196.875001877546,4|0,0:0|0:0,0:0:0:0:
234,45,76310,2,0,P|254:25|313:7,1,65.6250006258488,8|0,0:0|0:0,0:0:0:0:
422,0,76524,1,8,0:3:0:0:
457,46,76631,1,8,0:3:0:0:
471,103,76738,2,0,P|464:140|434:195,1,65.6250006258488,4|0,0:3|0:0,0:0:0:0:
336,257,76953,2,0,P|261:244|209:177,1,131.250001251698,2|8,0:0|0:0,0:0:0:0:
0,318,77381,1,2,0:0:0:0:
59,318,77488,1,2,0:0:0:0:
110,346,77595,6,0,P|198:361|246:238,1,196.875001877546,2|0,0:1|0:0,0:0:0:0:
241,224,78024,2,0,P|240:181|251:126,1,65.6250006258488,8|0,0:0|0:0,0:0:0:0:
341,30,78238,1,8,0:0:0:0:
399,19,78345,1,8,0:0:0:0:
456,30,78453,2,0,P|407:56|343:60,1,65.6250006258488,8|0,1:2|0:0,0:0:0:0:
240,20,78667,2,0,P|166:57|158:145,1,131.250001251698,4|8,3:0|0:0,0:0:0:0:
177,151,78988,1,2,0:0:0:0:
137,194,79095,1,2,0:0:0:0:
80,176,79203,1,2,0:0:0:0:
21,171,79310,6,0,P|66:182|102:209,1,65.6250006258488,2|0,0:1|0:0,0:0:0:0:
147,239,79524,2,0,P|180:271|198:312,1,65.6250006258488,2|0,0:1|0:0,0:0:0:0:
17,183,79738,2,0,P|62:194|98:221,1,65.6250006258488,2|0,0:1|0:0,0:0:0:0:
143,251,79953,2,0,P|176:283|194:324,1,65.6250006258488,2|0,0:1|0:0,0:0:0:0:
13,195,80167,6,0,P|58:206|94:233,1,65.6250006258488,2|0,0:1|0:0,0:0:0:0:
139,263,80381,2,0,P|172:295|190:336,1,65.6250006258488,2|0,0:1|0:0,0:0:0:0:
66,332,80595,2,0,P|90:286|133:251,1,65.6250006258488,8|0,0:0|0:0,0:0:0:0:
208,182,80810,1,8,0:0:0:0:
239,132,80917,1,8,0:0:0:0:
231,73,81024,6,0,P|213:35|183:1,1,65.6250006258488,4|0,0:0|0:0,0:0:0:0:
55,77,81238,2,0,P|105:146|210:149,1,196.875001877546,2|0,0:0|0:0,0:0:0:0:
318,68,81667,6,0,L|514:108,1,196.875001877546,4|0,0:1|0:0,0:0:0:0:
512,201,82095,2,0,P|485:222|461:273,1,65.6250006258488,2|0,0:0|0:0,0:0:0:0:
482,384,82310,1,8,0:0:0:0:
465,327,82417,1,8,0:0:0:0:
437,274,82524,1,8,0:0:0:0:
385,245,82631,1,8,0:0:0:0:
326,235,82738,6,0,P|270:155|290:54,1,196.875001877546,4|0,0:0|0:0,0:0:0:0:
365,0,83167,2,0,P|347:34|306:64,1,65.6250006258488,10|0,0:0|0:0,0:0:0:0:
177,97,83381,1,8,3:0:0:0:
137,141,83488,1,8,3:0:0:0:
122,198,83595,6,0,P|134:241|166:284,1,65.6250006258488,4|0,3:0|0:0,0:0:0:0:
312,339,83810,2,0,P|287:260|162:251,1,196.875001877546,2|0,0:0|0:0,0:0:0:0:
144,259,84238,1,0,0:0:0:0:
0,138,84453,6,0,L|145:155,1,131.250001251698,10|0,0:0|0:0,0:0:0:0:
188,146,84774,1,2,0:0:0:0:
245,133,84881,1,2,0:0:0:0:
279,85,84988,1,2,0:0:0:0:
245,37,85095,1,2,0:0:0:0:
189,55,85203,1,2,0:0:0:0:
189,114,85310,5,2,0:0:0:0:
189,114,85524,1,2,0:0:0:0:
189,114,85738,1,2,2:1:0:0:
411,0,86167,1,4,1:0:0:0:
256,192,86274,12,0,91310,0:0:0:0:
