osu file format v14

[General]
AudioFilename: audio.mp3
AudioLeadIn: 0
PreviewTime: 48239
Countdown: 0
SampleSet: Soft
StackLeniency: 0.8
Mode: 0
LetterboxInBreaks: 0
WidescreenStoryboard: 1

[Editor]
Bookmarks: 453,12453,21024,34739,48453
DistanceSpacing: 0.15
BeatDivisor: 4
GridSize: 4
TimelineZoom: 1

[Metadata]
Title:again
TitleUnicode:again
Artist:YUI
ArtistUnicode:YUI
Creator:_83
Version:Hard
Source:鋼の錬金術師 FULLMETAL ALCHEMIST
Tags:fma tv size opening bor hagane no renkin jutsushi
BeatmapID:1323359
BeatmapSetID:625048

[Difficulty]
HPDrainRate:5
CircleSize:3.8
OverallDifficulty:5.5
ApproachRate:7.5
SliderMultiplier:1.4
SliderTickRate:1

[Events]
//Background and Video events
0,0,"Edward.Elric.full.2057027.jpg",0,0
//Break Periods
//Storyboard Layer 0 (Background)
//Storyboard Layer 1 (Fail)
//Storyboard Layer 2 (Pass)
//Storyboard Layer 3 (Foreground)
//Storyboard Sound Samples

[TimingPoints]
-1261,428.571428571429,4,2,1,40,1,0
239,-133.333333333333,4,2,1,40,0,0
10167,397.350993377483,4,2,1,40,1,0
10167,-133.333333333333,4,2,1,40,0,0
10310,453.686200378072,4,2,1,40,1,0
10763,487.80487804878,4,2,1,40,1,0
11250,444.444444444444,4,2,1,40,1,0
12024,428.571428571429,4,2,1,40,1,0
12024,-100,4,2,1,40,0,0
12453,428.571428571429,4,2,1,40,1,0
21024,-133.333333333333,4,2,1,40,0,0
47167,-100,4,2,1,40,0,0
48453,-100,4,2,1,70,0,1
48881,-100,4,2,1,70,0,0
50167,-100,4,2,1,70,0,1
50595,-100,4,2,1,70,0,0
51453,-100,4,2,1,70,0,0
51881,-100,4,2,1,70,0,1
52310,-100,4,2,1,70,0,0
53595,-100,4,2,1,70,0,1
55203,-100,4,2,1,70,0,0
55310,-100,4,2,1,70,0,1
55738,-100,4,2,1,70,0,0
57024,-100,4,2,1,70,0,1
57453,-100,4,2,1,70,0,0
58738,-100,4,2,1,70,0,1
59167,-100,4,2,1,70,0,0
60453,-100,4,2,1,70,0,1
61310,-100,4,2,1,70,0,0
62167,-80,4,2,1,70,0,1
75238,-80,4,2,1,70,0,0
75881,-80,4,2,1,70,0,1
84453,-80,4,2,1,70,0,0
86167,-80,4,2,1,70,0,1
86381,-80,4,2,1,70,0,0
89167,-80,4,2,1,30,0,0
90881,-80,4,2,1,5,0,0

[Colours]
Combo1 : 128,128,255
Combo2 : 255,128,192
Combo3 : 128,128,192
Combo4 : 128,255,128

[HitObjects]
72,120,239,5,0,0:0:0:0:
72,120,453,2,0,P|133:116|194:99,1,105.000004005432,2|0,0:0|0:0,0:0:0:0:
259,54,1096,2,0,P|320:58|381:75,1,105.000004005432,2|2,0:0|0:0,0:0:0:0:
487,214,1953,1,0,0:0:0:0:
414,160,2167,2,0,P|401:216|371:269,1,105.000004005432,2|0,0:0|0:0,0:0:0:0:
306,311,2810,2,0,P|293:253|262:199,1,105.000004005432,2|2,0:0|0:0,0:0:0:0:
100,131,3667,1,0,0:0:0:0:
184,111,3881,6,0,P|178:136|175:181,1,52.5000020027161,2|0,0:0|0:0,0:0:0:0:
184,245,4310,2,0,P|192:272|214:316,1,52.5000020027161,0|2,0:0|0:0,0:0:0:0:
276,351,4739,1,0,0:0:0:0:
276,351,4953,1,0,0:0:0:0:
276,351,5167,1,0,0:0:0:0:
498,80,7096,1,0,0:0:0:0:
418,58,7310,6,0,L|353:64,1,52.5000020027161,2|0,0:0|0:0,0:0:0:0:
310,135,7739,2,0,P|363:153|395:182,2,78.7500030040742,0|0|2,0:0|0:0|0:0,0:0:0:0:
229,154,8596,2,0,P|185:144|164:131,1,52.5000020027161,0|0,0:0|0:0,0:0:0:0:
120,80,9024,2,0,L|139:24,1,52.5000020027161,2|0,0:0|0:0,0:0:0:0:
136,30,9453,1,0,0:0:0:0:
30,39,9774,2,0,L|35:105,1,52.5000020027161,0|0,0:0|0:0,0:0:0:0:
12,107,10167,6,0,P|57:123|66:222,1,157.500006008148,2|0,0:2|0:0,0:0:0:0:
67,220,11006,1,0,0:0:0:0:
67,220,11250,1,0,0:0:0:0:
299,331,12024,6,0,B|330:344|330:344|430:342,1,105,8|2,0:0|3:0,0:0:0:0:
423,326,12452,2,0,P|426:260|352:222,1,140,4|8,0:0|0:0,0:0:0:0:
279,235,13095,2,0,L|230:251,2,35,4|4|8,2:3|2:3|0:0,0:0:0:0:
250,148,13524,2,0,P|252:110|266:72,1,70,0|8,3:0|0:0,0:0:0:0:
334,21,13953,6,0,L|480:38,1,140,2|0,0:0|3:0,0:0:0:0:
512,123,14595,1,8,0:0:0:0:
417,227,14917,1,0,3:0:0:0:
417,227,15024,2,0,L|460:224,2,35,8|0|8,0:0|3:0|0:0,0:0:0:0:
346,287,15453,1,8,0:0:0:0:
191,384,15881,6,0,P|181:317|112:294,1,140,2|8,0:0|0:0,0:0:0:0:
39,337,16524,2,0,L|45:377,2,35,8|0|8,0:0|3:0|0:0,0:0:0:0:
0,258,16953,1,0,0:0:0:0:
0,258,17167,1,8,0:0:0:0:
35,171,17381,6,0,L|181:196,1,140,4|8,0:0|0:0,0:0:0:0:
259,159,18024,2,0,P|266:114|259:88,1,70,8|8,0:0|0:0,0:0:0:0:
180,45,18453,2,0,P|173:90|180:116,1,70,8|8,2:3|2:3,0:0:0:0:
261,89,18881,1,4,0:3:0:0:
261,89,19095,1,4,0:3:0:0:
284,2,19310,5,8,0:0:0:0:
302,13,19417,1,8,0:0:0:0:
321,23,19524,2,0,L|401:41,1,70,8|8,0:0|0:0,0:0:0:0:
479,89,19953,2,0,L|526:82,2,35,0|8|8,3:0|0:0|0:0,0:0:0:0:
417,158,20381,1,8,0:0:0:0:
478,229,20595,2,0,L|525:222,2,35,8|8|4,0:0|0:3|0:3,0:0:0:0:
416,298,21024,5,2,3:3:0:0:
416,298,21667,1,0,3:0:0:0:
254,315,22095,2,0,L|245:388,2,52.5000020027161,2|0|0,0:0|0:0|0:0,0:0:0:0:
177,284,22738,1,0,3:0:0:0:
177,284,22953,2,0,P|154:344|115:369,1,105.000004005432,2|2,0:2|3:2,0:0:0:0:
0,152,24238,2,0,L|37:157,1,26.2500010013581,0|0,0:0|0:0,0:0:0:0:
21,166,24453,6,0,L|91:174,2,52.5000020027161,2|0|0,3:2|0:0|0:0,0:0:0:0:
59,87,25095,2,0,L|170:80,1,105.000004005432,2|2,3:2|0:2,0:0:0:0:
167,84,25953,2,0,P|217:93|254:156,1,105.000004005432,2|0,0:0|0:0,0:0:0:0:
217,214,26595,2,0,L|211:275,1,52.5000020027161,0|0,0:0|3:0,0:0:0:0:
211,266,27024,1,2,0:0:0:0:
329,384,27453,1,0,3:0:0:0:
463,294,27881,5,0,3:2:0:0:
463,294,28524,1,0,3:0:0:0:
455,133,28953,2,0,P|480:142|515:152,2,52.5000020027161,2|0|0,0:0|0:0|0:0,0:0:0:0:
423,53,29595,1,0,3:2:0:0:
423,53,29810,2,0,L|313:91,1,105.000004005432,2|2,0:0|3:2,0:0:0:0:
122,5,31095,2,0,L|113:48,1,26.2500010013581,0|0,0:0|0:0,0:0:0:0:
103,29,31310,6,0,L|94:86,2,52.5000020027161,2|0|0,3:2|0:0|0:0,0:0:0:0:
193,73,31953,2,0,P|167:120|165:179,1,105.000004005432,2|2,3:2|0:0,0:0:0:0:
303,262,32810,2,0,L|427:278,1,105.000004005432,2|0,0:0|0:0,0:0:0:0:
472,215,33453,2,0,P|477:173|484:156,1,52.5000020027161,0|0,0:0|3:0,0:0:0:0:
446,63,33881,2,0,P|413:104|352:106,1,105.000004005432,2|0,0:2|3:0,0:0:0:0:
230,4,34738,5,2,3:2:0:0:
230,4,34953,2,0,L|175:-4,1,52.5000020027161,0|2,0:0|0:0,0:0:0:0:
95,28,35381,2,0,L|64:22,1,26.2500010013581,0|2,3:2|0:0,0:0:0:0:
26,101,35703,1,0,0:0:0:0:
26,101,35810,2,0,L|-5:103,2,26.2500010013581,0|0|0,0:0|0:0|0:0,0:0:0:0:
77,175,36238,1,0,3:0:0:0:
26,250,36453,6,0,L|17:324,2,52.5000020027161,2|2|2,3:2|0:0|0:0,0:0:0:0:
77,175,37095,1,2,3:2:0:0:
152,233,37310,1,2,0:0:0:0:
152,233,37524,2,0,L|156:271,2,26.2500010013581,0|0|0,0:0|0:0|0:0,0:0:0:0:
211,163,37953,1,0,3:0:0:0:
281,224,38167,6,0,L|274:283,1,52.5000020027161,2|2,3:2|0:0,0:0:0:0:
326,352,38595,1,2,0:0:0:0:
326,352,38810,1,2,3:2:0:0:
466,280,39131,1,0,0:0:0:0:
475,268,39238,2,0,L|468:333,2,52.5000020027161,0|2|0,0:0|0:0|3:0,0:0:0:0:
475,268,39881,5,0,3:0:0:0:
483,107,40310,1,0,0:0:0:0:
396,129,40524,2,0,L|290:121,1,105.000004005432,2|2,3:2|0:0,0:0:0:0:
291,121,41167,1,2,3:2:0:0:
258,288,41595,5,2,3:0:0:0:
258,288,41810,1,0,0:0:0:0:
236,381,42024,2,0,P|182:373|111:371,1,105.000004005432,2|0,0:0|0:0,0:0:0:0:
111,376,42560,1,0,0:0:0:0:
92,383,42667,2,0,L|65:388,2,26.2500010013581,0|0|2,0:0|0:0|0:0,0:0:0:0:
90,292,43095,1,2,3:2:0:0:
0,283,43310,6,0,P|14:257|27:213,1,52.5000020027161,2|2,3:2|0:0,0:0:0:0:
10,151,43738,1,2,0:0:0:0:
10,151,43953,2,0,L|106:167,1,78.7500030040742,2|0,3:2|0:0,0:0:0:0:
178,140,44488,1,0,0:0:0:0:
168,124,44595,2,0,L|163:66,1,52.5000020027161,2|2,0:0|3:2,0:0:0:0:
249,18,45024,6,0,L|247:73,2,52.5000020027161,2|2|2,3:2|0:0|0:0,0:0:0:0:
249,18,45667,1,2,3:2:0:0:
375,163,46095,1,0,0:0:0:0:
459,182,46310,2,0,L|518:172,1,52.5000020027161,2|2,0:0|3:2,0:0:0:0:
390,348,47167,5,2,0:0:0:0:
340,270,47381,2,0,P|286:268|236:339,1,140,2|4,3:1|3:0,0:0:0:0:
155,382,48024,2,0,L|45:389,1,105,8|0,1:2|0:0,0:0:0:0:
30,363,48453,5,12,1:3:0:0:
86,278,48667,2,0,L|90:231,2,35,12|0|2,1:3|0:0|0:0,0:0:0:0:
86,278,49095,1,2,0:0:0:0:
5,195,49310,2,0,L|-2:152,4,35,2|2|2|2|2,0:0|0:0|0:0|0:0|0:0,0:0:0:0:
63,75,49953,1,2,0:0:0:0:
157,124,50167,5,12,1:3:0:0:
234,44,50381,2,0,L|234:2,3,35,12|0|0|2,1:3|0:0|0:0|0:0,0:0:0:0:
340,24,50917,1,2,0:0:0:0:
350,35,51024,2,0,L|426:45,1,70,0|0,0:0|0:0,0:0:0:0:
427,58,51345,1,0,0:0:0:0:
435,71,51453,2,0,L|435:151,1,70,2|2,0:1|2:1,0:0:0:0:
389,223,51881,5,12,1:3:0:0:
471,285,52095,2,0,L|511:280,2,35,12|0|2,1:3|0:0|0:0,0:0:0:0:
471,285,52524,1,2,0:0:0:0:
392,384,52738,2,0,P|385:326|371:289,1,70,2|2,0:0|0:0,0:0:0:0:
297,289,53167,2,0,L|293:323,3,35,2|2|2|2,0:0|0:0|0:0|0:0,0:0:0:0:
311,351,53595,6,0,B|273:368|273:368|151:350,1,140,4|8,0:0|0:0,0:0:0:0:
95,298,54238,2,0,P|122:229|188:226,1,140,4|8,1:0|0:0,0:0:0:0:
268,254,54881,2,0,L|350:242,1,70,8|4,0:3|0:3,0:0:0:0:
370,254,55203,1,0,0:0:0:0:
405,268,55310,5,12,1:3:0:0:
465,180,55524,2,0,L|509:184,2,35,12|0|2,1:3|0:0|0:0,0:0:0:0:
384,112,55953,2,0,L|340:116,2,35,0|2|2,0:0|0:0|0:0,0:0:0:0:
508,33,56488,1,2,0:0:0:0:
494,40,56595,2,0,L|398:32,1,70,2|2,0:0|0:0,0:0:0:0:
327,3,57024,5,12,1:2:0:0:
269,82,57238,2,0,L|259:125,3,35,12|0|0|0,1:3|0:0|0:0|0:0,0:0:0:0:
267,131,57667,1,0,0:0:0:0:
185,191,57881,2,0,L|197:232,2,35,2|2|2,0:0|0:0|0:0,0:0:0:0:
98,138,58310,2,0,L|21:161,1,70,2|2,0:1|0:1,0:0:0:0:
40,58,58738,5,12,1:3:0:0:
136,20,58953,2,0,L|174:13,3,35,12|0|0|2,1:3|0:0|0:0|0:0,0:0:0:0:
235,138,59595,2,0,L|197:131,3,35,2|2|2|2,0:0|0:0|0:0|0:0,0:0:0:0:
170,151,60024,2,0,L|92:163,1,70,2|2,0:0|0:0,0:0:0:0:
7,222,60453,6,0,L|163:259,1,140,12|8,1:2|1:2,0:0:0:0:
227,308,61095,2,0,P|283:262|261:182,1,140,4|8,0:0|0:0,0:0:0:0:
257,171,61631,1,8,0:0:0:0:
235,143,61738,2,0,L|235:102,3,35,8|8|8|8,0:0|0:0|0:0|0:0,0:0:0:0:
196,87,62167,6,0,P|239:35|345:36,1,175,4|8,1:0|0:0,0:0:0:0:
428,102,62810,2,0,L|478:92,2,43.75,8|8|4,3:2|0:0|0:3,0:0:0:0:
347,173,63238,1,2,0:0:0:0:
403,262,63453,2,0,L|414:354,1,87.5,8|2,0:0|0:0,0:0:0:0:
392,365,63774,1,2,0:0:0:0:
374,384,63881,5,2,3:2:0:0:
374,384,64095,2,0,P|348:316|234:304,1,175,2|8,0:0|0:0,0:0:0:0:
228,307,64631,1,8,0:0:0:0:
201,323,64738,2,0,L|129:329,2,43.75,4|0|8,1:3|0:0|0:3,0:0:0:0:
191,214,65167,1,8,0:0:0:0:
84,137,65381,2,0,L|30:150,1,43.75,2|2,0:0|0:0,0:0:0:0:
33,154,65595,6,0,L|144:161,1,87.5,2|2,2:1|2:1,0:0:0:0:
292,92,66024,2,0,L|181:99,1,87.5,2|2,1:1|2:1,0:0:0:0:
37,158,66453,1,4,2:3:0:0:
59,238,66667,2,0,L|236:264,1,175,2|8,3:1|0:0,0:0:0:0:
258,279,67203,1,8,0:0:0:0:
284,294,67310,5,4,0:0:0:0:
288,298,67524,2,0,P|311:244|417:219,1,175,2|4,2:0|0:0,0:0:0:0:
499,18,68381,1,2,0:0:0:0:
440,100,68595,1,8,0:0:0:0:
440,100,68703,1,8,0:0:0:0:
440,100,68810,1,8,0:0:0:0:
440,100,68917,1,8,0:0:0:0:
440,100,69024,6,0,L|326:113,1,87.5,6|0,0:1|0:0,0:0:0:0:
263,152,69453,1,8,0:0:0:0:
206,71,69667,2,0,L|221:21,2,43.75,8|8|8,0:0|0:0|0:0,0:0:0:0:
134,142,70095,2,0,P|139:182|30:172,1,175,12|0,0:3|0:0,0:0:0:0:
30,76,70738,6,0,L|5:187,1,87.5,2|2,0:1|0:1,0:0:0:0:
120,249,71167,2,0,L|145:360,1,87.5,2|12,1:0|0:3,0:0:0:0:
164,352,71488,1,8,0:0:0:0:
188,370,71595,1,0,0:0:0:0:
293,372,71810,2,0,P|296:320|396:274,1,175,2|0,0:1|3:0,0:0:0:0:
462,353,72453,5,2,0:0:0:0:
462,353,72667,1,2,0:0:0:0:
462,353,72881,1,2,1:2:0:0:
502,264,73095,2,0,L|507:211,2,43.75,4|8|8,3:0|3:0|0:0,0:0:0:0:
396,274,73524,1,4,0:3:0:0:
357,182,73738,2,0,P|377:137|412:122,1,87.5,8|8,0:0|1:2,0:0:0:0:
440,119,74060,1,8,1:2:0:0:
470,117,74167,6,0,L|382:95,1,87.5,6|2,0:0|0:0,0:0:0:0:
314,38,74595,1,2,0:0:0:0:
223,76,74810,2,0,P|220:134|118:181,1,175,4|8,1:1|0:0,0:0:0:0:
79,260,75453,1,8,0:0:0:0:
79,260,75560,1,8,0:0:0:0:
79,260,75667,1,8,0:0:0:0:
79,260,75774,1,8,0:0:0:0:
79,260,75881,6,0,L|252:285,1,175,4|8,0:0|0:0,0:0:0:0:
347,245,76524,2,0,L|393:241,2,43.75,8|8|4,0:3|0:3|0:3,0:0:0:0:
273,171,76953,1,2,0:0:0:0:
346,104,77167,2,0,P|352:62|373:19,1,87.5,8|2,0:0|0:0,0:0:0:0:
401,14,77488,1,2,0:0:0:0:
430,6,77595,6,0,P|406:97|313:108,1,175,2|8,0:1|0:0,0:0:0:0:
250,59,78238,1,8,0:0:0:0:
250,59,78345,1,8,0:0:0:0:
250,59,78453,2,0,L|267:6,2,43.75,8|0|4,1:2|0:0|3:0,0:0:0:0:
157,93,78881,2,0,L|60:102,1,87.5,8|2,0:0|0:0,0:0:0:0:
49,123,79203,1,2,0:0:0:0:
28,145,79310,6,0,L|44:235,1,87.5,2|2,0:1|0:1,0:0:0:0:
187,275,79738,2,0,L|203:184,1,87.5,2|2,1:0|0:1,0:0:0:0:
47,151,80167,2,0,L|63:241,1,87.5,2|2,3:1|3:1,0:0:0:0:
205,268,80595,2,0,L|221:182,1,87.5,8|8,0:0|0:0,0:0:0:0:
246,164,80917,1,8,0:0:0:0:
271,147,81024,5,4,0:0:0:0:
271,147,81238,2,0,P|342:156|385:258,1,175,2|4,0:0|0:1,0:0:0:0:
512,69,82095,1,2,0:0:0:0:
417,20,82310,1,8,0:0:0:0:
410,21,82417,1,8,0:0:0:0:
403,22,82524,1,8,0:0:0:0:
396,23,82631,1,8,0:0:0:0:
389,25,82738,6,0,P|338:49|310:100,1,87.5,4|0,0:0|0:0,0:0:0:0:
338,157,83167,1,10,0:0:0:0:
259,208,83381,2,0,L|66:224,1,175,8|2,3:0|0:0,0:0:0:0:
5,170,84024,2,0,P|20:127|82:97,1,87.5,0|0,0:0|0:0,0:0:0:0:
140,83,84453,5,10,0:0:0:0:
210,271,84774,1,2,0:0:0:0:
222,286,84881,2,0,L|215:346,3,43.75,2|2|2|2,0:0|0:0|0:0|0:0,0:0:0:0:
232,341,85310,1,2,0:0:0:0:
328,381,85524,1,2,0:0:0:0:
392,298,85738,1,2,2:1:0:0:
153,384,86167,5,4,1:0:0:0:
256,192,86274,12,0,91310,0:0:0:0:
