osu file format v14

[General]
AudioFilename: audio.mp3
AudioLeadIn: 0
PreviewTime: 48239
Countdown: 0
SampleSet: Soft
StackLeniency: 0.7
Mode: 0
LetterboxInBreaks: 0
WidescreenStoryboard: 1

[Editor]
DistanceSpacing: 1
BeatDivisor: 6
GridSize: 4
TimelineZoom: 2.1

[Metadata]
Title:again
TitleUnicode:again
Artist:YUI
ArtistUnicode:YUI
Creator:_83
Version:Expert
Source:鋼の錬金術師 FULLMETAL ALCHEMIST
Tags:fma tv size opening bor hagane no renkin jutsushi
BeatmapID:1317261
BeatmapSetID:625048

[Difficulty]
HPDrainRate:6
CircleSize:3
OverallDifficulty:8
ApproachRate:9.3
SliderMultiplier:1.6
SliderTickRate:1

[Events]
//Background and Video events
0,0,"Edward.Elric.full.2057027.jpg",0,0
//Break Periods
//Storyboard Layer 0 (Background)
//Storyboard Layer 1 (Fail)
//Storyboard Layer 2 (Pass)
//Storyboard Layer 3 (Foreground)
//Storyboard Sound Samples

[TimingPoints]
-1261,428.571428571429,4,2,1,40,1,0
10167,397.350993377483,4,2,1,40,1,0
10310,453.686200378072,4,2,1,40,1,0
10763,487.80487804878,4,2,1,40,1,0
11250,444.444444444444,4,2,1,40,1,0
12024,428.571428571429,4,2,1,40,1,0
12024,-83.3333333333333,4,2,1,40,0,0
12453,428.571428571429,4,2,1,40,1,0
12453,-83.3333333333333,4,2,1,40,0,0
21024,-133.333333333333,4,2,1,40,0,0
47167,-74.074074074074,4,2,1,40,0,0
48453,-74.0740740740741,4,2,1,70,0,1
48881,-100,4,2,1,70,0,0
50167,-74.0740740740741,4,2,1,70,0,1
50595,-100,4,2,1,70,0,0
51453,-74.074074074074,4,2,1,70,0,0
51881,-66.6666666666667,4,2,1,70,0,1
52310,-66.6666666666667,4,2,1,70,0,0
53595,-66.6666666666667,4,2,1,70,0,1
55203,-66.6666666666667,4,2,1,70,0,0
55310,-66.6666666666667,4,2,1,70,0,1
55738,-66.6666666666667,4,2,1,70,0,0
57024,-66.6666666666667,4,2,1,70,0,1
57453,-66.6666666666667,4,2,1,70,0,0
58738,-66.6666666666667,4,2,1,70,0,1
59167,-66.6666666666667,4,2,1,70,0,0
60453,-50,4,2,1,70,0,1
61310,-50,4,2,1,70,0,0
62167,-40,4,2,1,70,0,1
75238,-40,4,2,1,70,0,0
75881,-40,4,2,1,70,0,1
84453,-40,4,2,1,70,0,0
86167,-40,4,2,1,70,0,1
86381,-50,4,2,1,70,0,0
89167,-50,4,2,1,30,0,0
90881,-50,4,2,1,5,0,0

[Colours]
Combo1 : 128,128,255
Combo2 : 255,128,192
Combo3 : 128,128,192
Combo4 : 128,255,128

[HitObjects]
93,93,239,5,0,0:0:0:0:
41,175,453,2,0,P|110:184|208:227,1,160,2|0,0:0|0:0,0:0:0:0:
299,256,1096,2,0,P|258:257|212:262,1,80,2|0,0:0|0:0,0:0:0:0:
136,295,1524,2,0,P|100:273|63:246,1,80,2|0,0:0|0:0,0:0:0:0:
110,155,1953,2,0,P|112:130|110:105,1,40
17,33,2167,6,0,P|30:105|45:135,2,80,2|0|0,0:0|0:0|0:0,0:0:0:0:
117,34,2810,2,0,P|168:40|210:60,1,80,2|0,0:0|0:0,0:0:0:0:
271,115,3239,2,0,P|307:99|339:75,1,80,2|0,0:0|0:0,0:0:0:0:
403,11,3667,1,0,0:0:0:0:
403,11,3774,1,0,0:0:0:0:
403,11,3881,5,2,0:0:0:0:
485,54,4096,1,0,0:0:0:0:
448,136,4310,1,0,0:0:0:0:
366,179,4524,1,2,0:0:0:0:
412,261,4739,1,0,0:0:0:0:
494,304,4953,1,0,0:0:0:0:
426,368,5167,1,0,0:0:0:0:
47,343,7096,5,0,0:0:0:0:
47,343,7203,1,0,0:0:0:0:
47,343,7310,2,0,L|56:257,1,80,2|0,0:0|0:0,0:0:0:0:
126,197,7739,2,0,L|86:125,1,80,0|2,0:0|0:0,0:0:0:0:
52,120,8060,2,0,P|36:62|92:6,1,120,0|2,0:0|0:0,0:0:0:0:
169,13,8596,2,0,L|257:25,1,80
344,66,9024,6,0,P|394:37|423:23,2,80,2|0|0,0:0|0:0|0:0,0:0:0:0:
370,164,9667,1,2,0:0:0:0:
379,159,9774,2,0,L|466:135,1,80
456,137,10167,6,0,P|383:156|406:291,1,240,2|0,0:2|0:0,0:0:0:0:
496,324,11006,1,0,0:0:0:0:
496,324,11250,1,0,0:0:0:0:
162,341,12024,6,0,B|120:349|120:349|-9:316,1,143.999995605469,8|2,0:0|3:0,0:0:0:0:
173,352,12452,2,0,P|200:309|196:250,1,95.9999970703126,4|0,0:0|0:0,0:0:0:0:
76,73,12881,1,8,0:0:0:0:
10,170,13095,1,4,2:3:0:0:
25,177,13203,1,4,2:3:0:0:
40,184,13310,2,8,L|160:178,1,95.9999970703126,8|0,0:0|3:0,0:0:0:0:
311,44,13738,1,8,0:0:0:0:
201,0,13953,6,0,B|222:41|222:41|235:190,1,191.999994140625,2|0,0:0|3:0,0:0:0:0:
188,347,14595,1,8,0:0:0:0:
445,269,14917,1,0,3:0:0:0:
433,280,15024,1,8,0:0:0:0:
421,291,15131,1,0,3:0:0:0:
409,302,15238,1,8,0:0:0:0:
504,277,15453,2,0,P|491:212|415:168,1,143.999995605469,8|0,0:0|3:0,0:0:0:0:
418,178,15881,6,0,B|408:178|408:178|322:178,1,95.9999970703126,2|0,0:0|0:0,0:0:0:0:
150,108,16310,1,8,0:0:0:0:
257,0,16524,1,8,0:0:0:0:
251,13,16631,1,0,3:0:0:0:
245,26,16738,2,0,L|241:147,1,95.9999970703126,8|0,0:0|0:0,0:0:0:0:
299,315,17167,1,8,0:0:0:0:
420,248,17381,6,0,L|207:266,1,191.999994140625,4|8,0:0|0:0,0:0:0:0:
72,337,18024,1,8,0:0:0:0:
207,251,18238,1,8,0:0:0:0:
97,310,18453,1,8,2:3:0:0:
194,300,18667,1,8,2:3:0:0:
115,276,18881,1,4,0:3:0:0:
171,333,19095,1,4,0:3:0:0:
266,364,19310,5,8,0:0:0:0:
266,364,19417,1,8,0:0:0:0:
266,364,19524,1,8,0:0:0:0:
156,165,19738,1,8,0:0:0:0:
296,79,19953,2,0,L|363:72,1,47.9999985351563,0|8,3:0|0:0,0:0:0:0:
403,79,20167,2,0,L|291:91,1,95.9999970703126,8|8,0:0|0:0,0:0:0:0:
154,65,20595,1,8,0:0:0:0:
120,45,20703,1,8,0:3:0:0:
94,16,20810,1,4,0:3:0:0:
59,101,21024,6,0,P|65:157|60:244,1,120.000004577637,2|0,3:3|0:0,0:0:0:0:
3,293,21667,1,0,3:0:0:0:
168,377,22095,2,0,P|217:364|244:367,2,60.0000022888184,2|0|0,0:0|0:0|0:0,0:0:0:0:
220,377,22738,5,0,3:0:0:0:
288,305,22953,2,0,P|298:255|332:187,1,120.000004577637,2|2,0:2|3:2,0:0:0:0:
492,348,24238,1,0,0:0:0:0:
503,356,24345,1,0,0:0:0:0:
512,367,24453,6,0,P|472:356|425:349,1,60.0000022888184,2|0,3:2|0:0,0:0:0:0:
363,362,24881,1,0,0:0:0:0:
369,276,25095,2,0,P|381:240|382:199,1,60.0000022888184,2|0,3:2|0:0,0:0:0:0:
383,218,25524,2,0,P|377:167|370:148,1,60.0000022888184,2|0,0:2|0:0,0:0:0:0:
358,282,25953,6,0,L|230:300,1,120.000004577637,2|0,0:0|0:0,0:0:0:0:
134,328,26595,1,0,0:0:0:0:
208,377,26810,1,0,3:0:0:0:
130,311,27024,2,0,P|80:324|41:380,1,120.000004577637,2|0,0:0|3:0,0:0:0:0:
3,184,27667,1,0,0:0:0:0:
9,193,27774,1,0,0:0:0:0:
15,202,27881,6,0,P|21:141|49:66,1,120.000004577637,0|0,3:2|0:0,0:0:0:0:
105,33,28524,1,0,3:0:0:0:
299,36,28953,2,0,P|270:45|243:59,2,60.0000022888184,2|0|0,0:0|0:0|0:0,0:0:0:0:
241,35,29595,5,0,3:2:0:0:
328,67,29810,2,0,P|386:73|467:104,1,120.000004577637,2|2,0:0|3:2,0:0:0:0:
483,298,31095,1,0,0:0:0:0:
476,288,31203,1,0,0:0:0:0:
469,277,31310,6,0,P|475:242|482:215,1,60.0000022888184,2|0,3:2|0:0,0:0:0:0:
501,208,31738,1,0,0:0:0:0:
390,273,31953,2,0,P|356:286|310:283,1,60.0000022888184,2|0,3:2|0:0,0:0:0:0:
322,278,32381,2,0,L|328:351,1,60.0000022888184,2|0,0:0|0:0,0:0:0:0:
453,363,32810,6,0,P|428:293|426:239,1,120.000004577637,2|0,0:0|0:0,0:0:0:0:
473,172,33453,1,0,0:0:0:0:
450,258,33667,1,0,3:0:0:0:
369,289,33881,2,0,P|328:314|295:380,1,120.000004577637,2|0,0:2|3:0,0:0:0:0:
95,369,34524,1,2,0:0:0:0:
119,363,34631,1,2,0:0:0:0:
143,357,34738,5,2,3:2:0:0:
223,271,34953,1,0,0:0:0:0:
143,308,35167,2,0,P|132:340|110:373,1,60.0000022888184,2|0,0:0|3:2,0:0:0:0:
107,257,35488,2,0,P|118:289|140:322,1,60.0000022888184,2|0,0:0|0:0,0:0:0:0:
149,209,35810,1,0,0:0:0:0:
122,249,35917,1,0,0:0:0:0:
94,260,36024,2,0,P|88:226|80:191,1,60.0000022888184,0|0,0:0|3:0,0:0:0:0:
9,152,36453,5,2,3:2:0:0:
78,0,36667,1,2,0:0:0:0:
2,43,36881,1,2,0:0:0:0:
160,129,37095,1,2,3:2:0:0:
239,91,37310,1,2,0:0:0:0:
141,117,37524,1,0,0:0:0:0:
134,126,37631,1,0,0:0:0:0:
127,135,37738,2,0,P|130:145|135:173,1,30.0000011444092
170,200,37953,1,0,3:0:0:0:
0,188,38167,5,2,3:2:0:0:
63,258,38381,1,2,0:0:0:0:
29,373,38595,1,2,0:0:0:0:
130,363,38810,2,0,L|221:370,1,90.0000034332277,2|0,3:2|0:0,0:0:0:0:
256,348,39238,2,0,P|232:342|207:340,1,30.0000011444092
417,255,39453,2,0,P|390:273|373:297,1,60.0000022888184,2|0,0:0|3:0,0:0:0:0:
378,301,39881,5,0,3:0:0:0:
463,341,40310,1,0,0:0:0:0:
413,209,40524,2,0,P|412:169|433:114,1,90.0000034332277,2|0,3:2|0:0,0:0:0:0:
437,117,40953,1,2,0:0:0:0:
337,77,41167,2,0,L|245:61,1,90.0000034332277,2|0,3:2|0:0,0:0:0:0:
242,50,41595,5,2,3:0:0:0:
142,13,41810,1,0,0:0:0:0:
105,134,42024,2,0,P|100:104|84:79,1,60.0000022888184,2|0,0:0|3:0,0:0:0:0:
92,157,42345,1,0,0:0:0:0:
89,180,42453,1,0,0:0:0:0:
98,201,42560,1,0,0:0:0:0:
112,220,42667,2,0,P|126:250|128:269,1,30.0000011444092
78,330,42881,1,2,0:0:0:0:
78,330,43095,1,2,3:2:0:0:
216,257,43310,5,2,3:2:0:0:
300,285,43524,1,2,0:0:0:0:
387,282,43738,1,2,0:0:0:0:
299,310,43953,2,0,P|262:326|216:370,1,90.0000034332277,2|0,3:2|0:0,0:0:0:0:
475,364,44488,1,0,0:0:0:0:
459,337,44595,1,2,0:0:0:0:
459,337,44810,1,2,3:2:0:0:
471,137,45024,5,2,3:2:0:0:
388,277,45238,1,2,0:0:0:0:
393,188,45453,1,2,0:0:0:0:
355,91,45667,2,0,P|328:131|274:178,1,120.000004577637,2|0,3:2|0:0,0:0:0:0:
115,85,46310,1,2,0:0:0:0:
198,56,46524,1,2,3:2:0:0:
72,377,47167,6,0,L|85:307,1,54.0000002059937,2|0,0:0|0:0,0:0:0:0:
157,192,47381,2,0,P|86:222|76:335,1,162.000000617981,2|0,3:1|0:0,0:0:0:0:
81,323,47810,1,4,3:0:0:0:
211,376,48024,2,0,L|372:384,1,162.000000617981,8|0,1:2|0:0,0:0:0:0:
404,371,48453,6,0,L|392:309,1,54.0000002059937,12|0,1:3|0:0,0:0:0:0:
386,191,48667,1,12,1:3:0:0:
342,275,48774,1,0,0:0:0:0:
414,196,48881,2,0,L|467:187,1,40,2|0,0:0|0:0,0:0:0:0:
293,100,49095,2,0,L|240:91,1,40,2|0,0:0|0:0,0:0:0:0:
377,37,49310,5,2,0:0:0:0:
315,104,49417,1,2,0:0:0:0:
248,29,49524,1,2,0:0:0:0:
186,96,49631,1,2,0:0:0:0:
96,64,49738,2,0,L|98:127,1,40,2|0,0:0|0:0,0:0:0:0:
122,195,49953,2,0,L|114:248,1,40,2|0,0:0|0:0,0:0:0:0:
6,367,50167,6,0,L|65:354,1,54.0000002059937,12|0,1:3|0:0,0:0:0:0:
179,365,50381,1,12,1:3:0:0:
98,326,50488,1,0,0:0:0:0:
137,245,50595,1,0,0:0:0:0:
77,175,50703,2,0,L|35:148,1,40,2|0,0:0|0:0,0:0:0:0:
161,256,50917,1,2,0:0:0:0:
241,219,51024,5,0,0:0:0:0:
293,288,51131,2,0,L|288:338,1,40,2|0,0:0|0:0,0:0:0:0:
246,191,51345,1,0,0:0:0:0:
300,84,51453,2,0,P|309:111|319:149,1,54.0000002059937,2|0,0:1|0:0,0:0:0:0:
195,0,51667,2,0,P|220:12|254:32,1,54.0000002059937,2|0,2:1|2:0,2:0:0:0:
448,34,51881,6,0,L|362:44,1,60.0000022888184,12|0,1:3|0:0,0:0:0:0:
225,117,52095,1,12,1:3:0:0:
319,102,52203,1,0,0:0:0:0:
412,149,52310,2,0,L|414:222,1,60.0000022888184,2|0,0:0|0:0,0:0:0:0:
325,281,52524,2,0,L|323:354,1,60.0000022888184,2|0,0:0|0:0,0:0:0:0:
477,382,52738,6,0,P|467:364|416:337,1,60.0000022888184,2|0,0:0|0:0,0:0:0:0:
288,275,52953,2,0,P|298:257|349:230,1,60.0000022888184,2|0,0:0|0:0,0:0:0:0:
488,249,53167,1,2,0:0:0:0:
488,249,53274,1,2,0:0:0:0:
434,155,53381,1,2,0:0:0:0:
358,224,53488,1,2,0:0:0:0:
261,158,53595,6,0,B|210:142|210:142|68:140,1,180.000006866455,4|0,0:0|0:0,0:0:0:0:
74,145,54024,2,0,P|90:71|90:66,1,60.0000022888184,8|0,0:0|0:0,0:0:0:0:
0,256,54238,2,0,P|44:319|130:310,1,120.000004577637,4|0,1:0|0:0,0:0:0:0:
104,316,54560,1,8,0:0:0:0:
171,229,54667,1,8,0:0:0:0:
378,363,54881,2,0,L|448:355,1,60.0000022888184,8|8,0:3|0:3,0:0:0:0:
503,221,55095,1,4,0:3:0:0:
486,199,55310,6,0,L|471:283,1,60.0000022888184,12|0,1:3|0:0,0:0:0:0:
425,340,55524,1,12,1:3:0:0:
446,255,55631,1,0,0:0:0:0:
386,179,55738,2,0,P|353:190|312:216,1,60.0000022888184,2|0,0:0|0:0,0:0:0:0:
234,183,55953,1,0,0:0:0:0:
173,107,56060,1,2,0:0:0:0:
158,11,56167,5,2,0:0:0:0:
208,105,56274,2,0,L|149:91,1,60.0000022888184
0,84,56488,1,2,0:0:0:0:
46,173,56595,2,0,L|37:262,1,60.0000022888184,2|0,0:0|0:0,0:0:0:0:
115,297,56810,2,0,L|139:373,1,60.0000022888184,2|0,0:0|0:0,0:0:0:0:
348,255,57024,6,0,L|370:152,1,60.0000022888184,12|0,1:2|0:0,0:0:0:0:
410,92,57238,1,12,1:3:0:0:
445,175,57345,1,0,0:0:0:0:
381,246,57453,1,0,0:0:0:0:
426,329,57560,2,0,P|427:352|410:386,1,60.0000022888184
302,380,57774,1,0,0:0:0:0:
261,302,57881,5,2,0:0:0:0:
261,302,57988,1,2,0:0:0:0:
261,302,58095,1,2,0:0:0:0:
261,302,58203,1,0,0:0:0:0:
208,245,58310,2,0,L|214:180,1,60.0000022888184,2|0,0:1|0:0,0:0:0:0:
107,12,58524,2,0,L|128:93,1,60.0000022888184,2|0,0:1|0:0,0:0:0:0:
428,102,58738,6,0,L|332:139,1,60.0000022888184,12|0,1:3|0:0,0:0:0:0:
248,182,58953,1,12,1:3:0:0:
341,236,59060,1,0,0:0:0:0:
435,190,59167,1,0,0:0:0:0:
491,272,59274,2,0,P|484:321|447:286,1,120.000004577637,2|0,0:0|0:0,0:0:0:0:
509,350,59595,5,2,0:0:0:0:
417,339,59703,1,2,0:0:0:0:
359,264,59810,1,2,0:0:0:0:
289,332,59917,1,2,0:0:0:0:
222,262,60024,2,0,L|206:204,1,60.0000022888184,2|0,0:0|0:0,0:0:0:0:
119,131,60238,2,0,L|119:70,1,60.0000022888184,2|0,0:0|0:0,0:0:0:0:
19,346,60453,6,0,P|102:321|68:139,1,240,12|0,1:2|0:0,0:0:0:0:
98,142,60881,2,0,P|87:98|99:55,1,80,8|0,1:2|0:0,0:0:0:0:
215,11,61095,2,0,L|403:28,1,160,4|0,0:0|3:0,0:0:0:0:
475,66,61417,5,8,0:0:0:0:
366,44,61524,1,8,0:0:0:0:
305,122,61631,1,8,0:0:0:0:
414,144,61738,1,8,0:0:0:0:
463,240,61845,1,8,0:0:0:0:
354,218,61953,1,8,0:0:0:0:
290,294,62060,1,8,0:0:0:0:
399,316,62167,6,0,B|335:286|335:286|105:273,1,300,4|0,1:0|0:0,0:0:0:0:
21,228,62595,2,0,L|145:235,1,100,8|0,0:0|0:0,0:0:0:0:
264,164,62810,1,8,3:2:0:0:
358,190,62917,1,8,0:0:0:0:
429,240,63024,6,0,P|351:173|334:97,1,100,4|0,0:3|0:0,0:0:0:0:
314,103,63238,2,0,B|285:49|304:-10|304:-10|372:0|381:58,1,200,2|8,0:0|0:0,0:0:0:0:
248,292,63667,1,2,0:0:0:0:
184,364,63774,1,2,0:0:0:0:
88,347,63881,6,0,P|39:316|-12:264,1,100,2|0,3:2|0:0,0:0:0:0:
92,138,64095,2,0,P|198:172|202:367,1,300,2|0,0:0|0:0,0:0:0:0:
125,145,64524,1,8,0:0:0:0:
129,58,64631,1,8,0:0:0:0:
208,20,64738,6,0,L|140:140,1,100,4|0,1:3|0:0,0:0:0:0:
26,123,64953,1,8,0:3:0:0:
181,384,65167,2,0,P|229:354|319:343,1,100,8|0,0:0|0:0,0:0:0:0:
488,301,65381,1,2,0:0:0:0:
500,201,65488,1,2,0:0:0:0:
430,129,65595,6,0,P|441:192|431:286,1,100,2|0,2:1|0:0,0:0:0:0:
397,322,65810,2,0,P|347:363|261:401,1,100,2|0,2:1|0:0,0:0:0:0:
414,125,66024,2,0,P|425:188|415:282,1,100,2|0,1:1|0:0,0:0:0:0:
381,318,66238,2,0,P|331:359|245:397,1,100,2|0,2:1|0:0,0:0:0:0:
398,121,66453,6,0,P|409:184|399:278,1,100,4|0,2:3|0:0,0:0:0:0:
365,314,66667,2,0,P|254:377|155:357,1,200,2|8,3:1|0:0,0:0:0:0:
31,58,67095,1,8,0:0:0:0:
130,66,67203,1,8,0:0:0:0:
203,134,67310,6,0,P|232:181|250:276,1,100,4|0,0:0|0:0,0:0:0:0:
72,298,67524,2,0,P|102:180|240:153,1,200,2|8,2:0|0:0,0:0:0:0:
410,322,67953,6,0,P|294:215|327:54,1,300,4|0,0:0|0:0,0:0:0:0:
459,0,68381,2,0,P|419:45|355:81,1,100,2|0,0:0|0:0,0:0:0:0:
148,131,68595,1,8,0:0:0:0:
107,222,68703,1,8,0:0:0:0:
141,315,68810,1,8,0:0:0:0:
240,319,68917,1,8,0:0:0:0:
334,360,69024,6,0,P|396:225|261:159,1,300,6|0,0:1|0:0,0:0:0:0:
173,164,69453,2,0,P|216:188|264:200,1,100,8|0,0:0|0:0,0:0:0:0:
446,115,69667,1,8,0:0:0:0:
418,19,69774,1,8,0:0:0:0:
341,82,69881,5,8,0:0:0:0:
473,354,70095,1,12,0:3:0:0:
317,297,70310,2,0,L|91:330,1,200,8|0,0:0|0:0,0:0:0:0:
5,12,70738,6,0,P|57:33|117:98,1,100,2|0,0:1|0:0,0:0:0:0:
150,134,70953,2,0,P|171:185|167:274,1,100,2|0,0:1|0:0,0:0:0:0:
261,384,71167,2,0,P|241:330|250:242,1,100,2|0,1:0|0:0,0:0:0:0:
308,130,71381,5,12,0:3:0:0:
242,185,71488,2,0,P|232:222|186:309,1,100,8|0,0:0|0:0,0:0:0:0:
278,31,71703,1,2,0:0:0:0:
339,104,71810,2,2,P|348:198|65:283,1,400,2|0,0:1|3:0,0:1:0:0:
510,338,72453,6,0,P|471:282|399:232,1,100,2|0,0:0|0:0,0:0:0:0:
343,188,72667,2,0,P|281:159|193:151,1,100,2|0,0:0|0:0,0:0:0:0:
123,141,72881,2,0,P|55:146|-24:184,1,100,2|0,1:2|0:0,0:0:0:0:
23,360,73095,1,4,3:0:0:0:
117,327,73203,1,8,3:0:0:0:
37,266,73310,5,8,0:0:0:0:
183,0,73524,1,4,0:3:0:0:
252,348,73738,2,0,P|301:363|370:369,1,100,8|0,0:0|0:0,0:0:0:0:
486,263,73953,1,8,1:2:0:0:
433,177,74060,1,8,1:2:0:0:
376,259,74167,6,0,P|336:289|275:302,1,100,6|0,0:0|0:0,0:0:0:0:
147,292,74381,2,0,P|101:272|59:226,1,100,2|0,0:0|0:0,0:0:0:0:
3,110,74595,2,0,P|-2:60|16:1,1,100,2|0,0:0|0:0,0:0:0:0:
207,164,74810,6,0,B|275:134|275:134|543:113,1,300,4|0,1:1|0:0,0:0:0:0:
499,289,75238,2,0,P|457:255|432:177,1,100,8|0,0:0|0:0,0:0:0:0:
474,30,75453,1,8,0:0:0:0:
401,98,75560,1,8,0:0:0:0:
301,94,75667,1,8,0:0:0:0:
220,153,75774,1,8,0:0:0:0:
126,119,75881,6,0,P|103:228|276:324,1,300,4|0,0:0|0:0,0:0:0:0:
423,249,76310,2,0,P|373:257|327:275,1,100,8|0,0:0|0:0,0:0:0:0:
195,368,76524,1,8,0:3:0:0:
97,350,76631,1,8,0:3:0:0:
0,378,76738,6,0,P|45:315|54:240,1,100,4|0,0:3|0:0,0:0:0:0:
85,213,76953,2,0,B|90:135|35:95|35:95|1:120|-3:164,1,200,2|8,0:0|0:0,0:0:0:0:
187,372,77381,1,2,0:0:0:0:
274,319,77488,1,2,0:0:0:0:
373,315,77595,6,0,P|392:175|246:117,1,300,2|0,0:1|0:0,0:0:0:0:
80,186,78024,2,0,P|138:194|213:174,1,100,8|0,0:0|0:0,0:0:0:0:
349,127,78238,1,8,0:0:0:0:
440,90,78345,1,8,0:0:0:0:
482,0,78453,6,0,P|437:34|410:95,1,100,8|0,1:2|0:0,0:0:0:0:
472,205,78667,2,0,P|418:319|330:338,1,200,4|8,3:0|0:0,0:0:0:0:
180,141,78988,1,2,0:0:0:0:
83,163,79095,1,2,0:0:0:0:
37,250,79203,1,2,0:0:0:0:
100,327,79310,6,0,P|143:268|159:204,1,100,2|0,0:1|0:0,0:0:0:0:
168,133,79524,2,0,P|156:60|122:4,1,100,2|0,0:1|0:0,0:0:0:0:
117,332,79738,2,0,P|160:273|176:209,1,100,2|0,1:0|0:0,0:0:0:0:
185,138,79953,2,0,P|173:65|139:9,1,100,2|0,0:1|0:0,0:0:0:0:
134,337,80167,6,0,P|177:278|193:214,1,100,2|0,3:1|0:0,0:0:0:0:
202,143,80381,2,0,P|190:70|156:14,1,100,2|0,3:1|0:0,0:0:0:0:
151,342,80595,2,0,P|194:283|210:219,1,100,8|0,0:0|0:0,0:0:0:0:
194,51,80810,1,8,0:0:0:0:
101,13,80917,1,8,0:0:0:0:
109,112,81024,6,0,P|153:133|225:148,1,100,4|0,0:0|0:0,0:0:0:0:
405,51,81238,2,0,P|286:26|230:176,1,300,2|0,0:0|0:0,0:0:0:0:
418,234,81667,6,0,B|353:214|353:214|93:225,1,300,4|0,0:1|0:0,0:0:0:0:
0,260,82095,2,0,P|146:253|146:253,1,100,2|0,0:0|0:0,0:0:0:0:
299,220,82310,1,8,0:0:0:0:
390,259,82417,1,8,0:0:0:0:
476,209,82524,1,8,0:0:0:0:
452,111,82631,1,8,0:0:0:0:
502,23,82738,6,0,B|446:6|446:6|201:20,1,300,4|0,0:0|0:0,0:0:0:0:
71,53,83167,2,0,B|195:45|195:45,1,100,10|0,0:0|0:0,0:0:0:0:
343,0,83381,1,8,3:0:0:0:
421,63,83488,1,8,3:0:0:0:
393,158,83595,6,0,P|350:193|261:211,1,100,4|0,3:0|0:0,0:0:0:0:
140,149,83810,2,0,P|119:282|261:322,1,300,2|0,0:0|0:0,0:0:0:0:
450,335,84238,2,2,P|400:327|351:336,1,100,0|0,0:0|0:0,0:0:0:0:
236,376,84453,6,0,P|307:324|338:198,1,200,10|0,0:0|0:0,0:0:0:0:
252,76,84774,1,2,0:0:0:0:
152,72,84881,1,2,0:0:0:0:
105,161,84988,1,2,0:0:0:0:
12,197,85095,1,2,0:0:0:0:
6,297,85203,1,2,0:0:0:0:
66,203,85310,5,2,0:0:0:0:
73,196,85524,1,2,0:0:0:0:
60,196,85738,1,2,2:1:0:0:
512,0,86167,1,4,1:0:0:0:
256,192,86274,12,0,91310,0:0:0:0:
