osu file format v14

[General]
AudioFilename: audio.mp3
AudioLeadIn: 0
PreviewTime: 131
Countdown: 0
SampleSet: Soft
StackLeniency: 0.7
Mode: 0
LetterboxInBreaks: 0
WidescreenStoryboard: 1

[Editor]
Bookmarks: 34738,79310,81024,82738,84453,86167
DistanceSpacing: 1
BeatDivisor: 4
GridSize: 4
TimelineZoom: 2.1

[Metadata]
Title:again (TV Size)
TitleUnicode:again (TV Size)
Artist:YUI
ArtistUnicode:YUI
Creator:Venix
Version:easy
Source:Fullmetal Alchemist: Brotherhood
Tags:鋼の錬金術師 fma fmab opening op 1 hagane no renkin jutsushi j-rock anime rock japanese
BeatmapID:2780435
BeatmapSetID:1341687

[Difficulty]
HPDrainRate:3
CircleSize:3
OverallDifficulty:2.5
ApproachRate:3.5
SliderMultiplier:0.999999999999999
SliderTickRate:1

[Events]
//Background and Video events
0,0,"again.jpg",0,0
Video,-316,"Fullmetal Alchemist Brotherhood Opening 1 HD.flv"
//Break Periods
//Storyboard Layer 0 (Background)
//Storyboard Layer 1 (Fail)
//Storyboard Layer 2 (Pass)
//Storyboard Layer 3 (Foreground)
//Storyboard Layer 4 (Overlay)
//Storyboard Sound Samples

[TimingPoints]
-1261,428.571428571429,4,2,1,40,1,0
24,-111.111111111111,4,2,1,40,0,0
10167,397.350993377483,4,2,1,40,1,0
10310,453.686200378072,4,2,1,40,1,0
10763,487.80487804878,4,2,1,40,1,0
11250,444.444444444444,4,2,1,40,1,0
12010,428.571428571429,4,2,1,40,1,0
12441,428.571428571429,4,2,1,60,1,0
21012,-100,4,2,1,40,0,0
48441,-100,4,2,1,70,0,0
62155,-90.9090909090909,4,2,1,70,0,1
68798,-90.9090909090909,4,2,1,70,0,0
69012,-90.9090909090909,4,2,1,70,0,1
75655,-90.9090909090909,4,2,1,70,0,0
75869,-90.9090909090909,4,2,1,70,0,1
82726,-100,4,2,1,60,0,0
91298,-100,4,2,1,5,0,0

[Colours]
Combo1 : 95,95,177
Combo2 : 255,136,17
Combo3 : 138,145,219
Combo4 : 223,210,47

[HitObjects]
381,272,453,6,0,P|454:291|512:333,2,134.999995880127,2|2|0,0:0|0:0|0:0,0:0:0:0:
323,202,2167,2,0,P|285:244|192:268,1,134.999995880127,2|2,0:0|0:0,0:0:0:0:
104,350,3453,1,0,0:0:0:0:
41,285,3881,2,0,P|30:231|12:189,1,89.999997253418,2|0,0:0|0:0,0:0:0:0:
94,152,4739,1,0,0:0:0:0:
81,63,5167,1,2,0:0:0:0:
166,35,5596,2,0,P|232:82|301:86,2,134.999995880127,2|2|0,0:0|0:0|0:0,0:0:0:0:
81,4,7310,5,2,0:0:0:0:
59,137,7953,1,0,0:0:0:0:
239,103,8810,1,0,0:0:0:0:
239,103,9024,2,0,P|340:65|509:43,1,270.4,2|0,0:0|0:0,0:0:0:0:
483,133,10763,2,0,P|462:179|448:245,1,99.9999999999999,2|0,0:0|0:0,0:0:0:0:
302,318,12010,1,8,0:0:0:0:
206,287,12441,6,0,B|218:215|171:227|185:133,1,150,8|2,0:1|0:0,0:0:0:0:
131,56,13512,2,0,P|92:64|27:38,1,99.9999999999999,8|12,0:1|0:1,0:0:0:0:
45,195,14583,1,8,0:0:0:0:
52,294,15012,1,8,0:1:0:0:
132,353,15441,1,8,0:0:0:0:
216,299,15869,2,0,P|287:318|380:317,1,150,12|2,0:1|0:0,0:0:0:0:
438,253,16941,2,0,P|444:203|459:155,1,99.9999999999999,8|12,0:1|0:1,0:0:0:0:
427,9,18012,5,8,0:0:0:0:
341,61,18441,1,8,0:1:0:0:
242,46,18869,1,8,0:1:0:0:
151,79,19298,1,8,0:0:0:0:
95,162,19726,2,0,P|110:226|119:275,2,99.9999999999999,8|8|8,0:1|0:0|0:0,0:0:0:0:
8,111,21012,5,8,0:1:0:0:
151,79,21655,1,8,0:1:0:0:
289,136,22298,1,2,0:0:0:0:
388,126,22726,2,0,P|375:166|346:288,1,150,8|8,0:1|0:1,0:0:0:0:
204,311,24012,1,2,0:0:0:0:
146,229,24441,2,0,P|110:182|15:188,2,150,8|8|2,0:1|0:1|0:0,0:0:0:0:
204,311,26155,1,8,0:1:0:0:
294,268,26583,1,0,0:0:0:0:
385,309,27012,1,0,0:0:0:0:
475,130,27869,5,8,0:1:0:0:
326,154,28512,1,8,0:1:0:0:
182,108,29155,1,2,0:0:0:0:
114,34,29583,2,0,P|56:79|69:168,1,150,8|8,0:1|0:1,0:0:0:0:
146,271,30869,1,2,0:0:0:0:
232,321,31298,2,0,P|157:326|83:355,2,150,8|8|2,0:1|0:1|0:0,0:0:0:0:
327,349,33012,1,8,0:1:0:0:
417,307,33440,1,0,0:0:0:0:
427,207,33869,1,0,0:0:0:0:
475,119,34298,1,8,0:1:0:0:
412,40,34726,6,0,P|356:61|259:86,2,150,12|8|2,0:1|0:1|0:0,0:0:0:0:
501,84,36441,2,0,P|482:131|471:183,1,99.9999999999999,10|0,0:1|0:0,0:0:0:0:
371,187,37298,2,0,P|390:234|401:286,1,99.9999999999999,2|2,0:0|0:0,0:0:0:0:
355,371,38155,2,0,P|323:338|211:342,1,150,8|10,0:1|0:1,0:0:0:0:
81,285,39441,1,2,0:0:0:0:
24,202,39869,2,0,P|28:146|70:49,2,150,10|8|2,0:1|0:1|0:0,0:0:0:0:
122,186,41583,6,0,L|229:212,1,99.9999999999999,8|0,0:1|0:0,0:0:0:0:
275,292,42441,2,0,L|372:268,1,99.9999999999999,2|2,0:0|0:0,0:0:0:0:
439,193,43298,2,0,B|414:149|414:149|419:35,2,150,8|8|2,0:1|0:1|0:0,0:0:0:0:
510,267,45012,1,8,0:1:0:0:
384,348,45655,1,8,0:1:0:0:
293,305,46083,2,0,B|252:332|252:332|193:323,1,99.9999999999999,2|8,0:0|0:1,0:0:0:0:
57,366,47155,2,0,B|88:251|16:280|48:157,1,200,2|8,0:0|0:0,0:0:0:0:
73,75,48441,5,8,0:0:0:0:
160,122,48869,1,0,0:0:0:0:
257,98,49298,1,2,0:0:0:0:
324,171,49726,1,2,0:0:0:0:
422,187,50155,2,0,L|404:285,2,99.9999999999999,8|0|2,0:0|0:0|0:0,0:0:0:0:
508,137,51440,1,2,0:0:0:0:
435,70,51869,6,0,B|397:100|397:100|334:90,1,99.9999999999999,8|0,0:0|0:0,0:0:0:0:
281,168,52726,2,0,B|243:138|243:138|180:148,1,99.9999999999999,2|2,0:0|0:0,0:0:0:0:
110,204,53583,2,0,B|89:258|89:258|94:296|94:296|68:361,2,150,12|12|8,0:1|0:1|0:0,0:0:0:0:
34,135,55298,5,8,0:0:0:0:
83,40,55726,1,0,0:0:0:0:
174,79,56155,1,2,0:0:0:0:
260,28,56583,1,2,0:0:0:0:
342,84,57012,2,0,L|318:190,1,99.9999999999999,8|0,0:0|0:0,0:0:0:0:
230,227,57869,2,0,L|254:333,1,99.9999999999999,2|2,0:0|0:0,0:0:0:0:
339,360,58726,5,8,0:0:0:0:
400,281,59155,2,0,B|465:297|465:297|518:278,2,99.9999999999999,0|2|0,0:0|0:0|0:0,0:0:0:0:
339,360,60441,2,0,B|292:340|292:340|232:356,1,99.9999999999999,12|8,0:1|0:0,0:0:0:0:
197,337,61083,2,0,B|168:248|168:248|203:183,1,150,12|8,0:1|0:0,0:0:0:0:
277,125,62155,6,0,B|331:119|369:138|369:138|373:172|406:202,2,165.0000050354,14|2|8,0:1|0:0|0:0,0:0:0:0:
191,55,63869,2,0,P|135:70|72:78,1,110.000003356934,8|8,0:1|0:0,0:0:0:0:
1,150,64726,2,0,P|41:174|46:255,1,110.000003356934,8|8,0:1|0:0,0:0:0:0:
126,316,65583,1,14,0:1:0:0:
234,295,66012,1,8,0:0:0:0:
319,364,66441,1,8,0:1:0:0:
416,314,66869,1,8,0:0:0:0:
392,206,67298,2,0,B|392:157|356:127|356:127|381:52,2,165.0000050354,12|12|8,0:1|0:1|0:0,0:0:0:0:
328,295,69012,6,0,B|270:296|235:274|235:274|200:278|167:313,1,165.0000050354,14|2,0:1|0:0,0:0:0:0:
99,384,70083,1,8,0:1:0:0:
27,235,70726,2,0,P|46:181|49:120,1,110.000003356934,8|8,0:1|0:0,0:0:0:0:
116,41,71583,2,0,P|167:59|222:63,1,110.000003356934,8|8,0:1|0:0,0:0:0:0:
328,31,72441,2,0,P|359:76|415:97,2,110.000003356934,8|8|8,0:1|0:0|0:1,0:0:0:0:
222,63,73726,1,8,0:0:0:0:
112,48,74155,6,0,P|116:156|96:233,1,165.0000050354,12|12,0:1|0:1,0:0:0:0:
54,309,75226,2,0,P|23:322|-3:351,2,55.0000016784668,8|8|8,0:1|0:0|0:0,0:0:0:0:
108,298,75869,6,0,B|162:292|202:307|202:307|226:335|237:375,2,165.0000050354,14|2|8,0:1|0:0|0:0,0:0:0:0:
51,203,77583,2,0,P|66:147|74:84,1,110.000003356934,8|8,0:1|0:0,0:0:0:0:
180,72,78440,2,0,P|204:112|285:117,1,110.000003356934,8|8,0:1|0:0,0:0:0:0:
350,59,79297,1,8,0:1:0:0:
441,120,79726,1,8,0:0:0:0:
408,225,80155,1,8,0:1:0:0:
451,325,80583,1,8,0:0:0:0:
348,366,81012,6,0,B|294:343|294:343|244:365,1,110.000003356934,14|8,0:1|0:0,0:0:0:0:
191,364,81655,2,0,B|157:334|157:334|143:268,1,110.000003356934,14|8,0:1|0:1,0:0:0:0:
82,134,82726,6,0,P|122:168|238:181,1,150,14|2,0:1|0:0,0:0:0:0:
298,243,83798,1,8,0:1:0:0:
427,167,84441,2,0,L|412:65,2,99.9999999999999,14|0|2,0:1|0:0|0:0,0:0:0:0:
487,246,85726,1,2,0:0:0:0:
462,343,86155,5,14,0:1:0:0:
256,192,87012,12,0,91298,0:0:0:0:
