osu file format v14

[General]
AudioFilename: audio.mp3
AudioLeadIn: 0
PreviewTime: 48346
Countdown: 0
SampleSet: Soft
StackLeniency: 0.4
Mode: 0
LetterboxInBreaks: 0
WidescreenStoryboard: 1

[Editor]
Bookmarks: 21024
DistanceSpacing: 1
BeatDivisor: 4
GridSize: 32
TimelineZoom: 1.7

[Metadata]
Title:again
TitleUnicode:again
Artist:YUI
ArtistUnicode:YUI
Creator:FoxyGrandpa
Version:skrub's Normal
Source:鋼の錬金術師 FULLMETAL ALCHEMIST
Tags:full metal alchemist brotherhood osuskrub finshie kkipalt asaiga cheesecake rizen aqpw sulfur su1fu7 zero zer0- 0 underforest gero TV size opening
BeatmapID:1337685
BeatmapSetID:623911

[Difficulty]
HPDrainRate:4
CircleSize:3.5
OverallDifficulty:4
ApproachRate:5
SliderMultiplier:1.2
SliderTickRate:1

[Events]
//Background and Video events
0,0,"73729.jpg",0,0
Video,-320,"Fullmetal Alchemist Brotherhood Opening 1 HD.flv"
//Break Periods
2,12653,19824
//Storyboard Layer 0 (Background)
//Storyboard Layer 1 (Fail)
//Storyboard Layer 2 (Pass)
//Storyboard Layer 3 (Foreground)
//Storyboard Sound Samples

[TimingPoints]
-1261,428.571428571429,4,2,1,40,1,0
453,-100,4,2,4,40,0,0
12024,-100,4,2,3,40,0,0
12453,-100,4,2,3,50,0,0
21024,-100,4,2,3,40,0,0
21131,-100,4,2,2,40,0,0
47381,-100,4,2,2,43,0,0
47596,-100,4,2,2,46,0,0
47810,-100,4,2,2,49,0,0
48024,-100,4,2,3,55,0,0
48453,-100,4,2,7,55,0,0
55096,-100,4,2,3,55,0,0
55310,-100,4,2,7,55,0,0
60453,-100,4,2,3,50,0,1
61310,-100,4,2,3,40,0,0
61417,-100,4,2,3,42,0,0
61524,-100,4,2,3,44,0,0
61631,-100,4,2,3,46,0,0
61739,-100,4,2,3,48,0,0
61846,-100,4,2,3,50,0,0
61953,-100,4,2,3,52,0,0
62060,-100,4,2,3,54,0,0
62167,-100,4,2,3,60,0,1
75239,-100,4,2,3,60,0,0
75881,-100,4,2,3,60,0,1
84346,-100,4,2,3,5,0,1
84453,-100,4,2,3,60,0,0
86167,-100,4,2,3,60,0,1
86274,-100,4,2,3,30,0,0
89596,-100,4,2,1,20,0,0
91310,-100,4,2,1,10,0,0
93024,-100,4,2,1,5,0,0

[Colours]
Combo1 : 128,128,128
Combo2 : 255,28,28
Combo3 : 128,0,0
Combo4 : 128,255,128
Combo5 : 128,255,255
Combo6 : 68,68,68
Combo7 : 128,128,192
Combo8 : 187,187,119

[HitObjects]
69,303,453,38,0,B|119:294|119:294|154:309|208:305,1,120,8|0,0:0|0:0,0:0:0:0:
244,289,1096,2,0,P|250:234|233:155,1,120,8|0,0:0|0:0,0:0:0:0:
208,54,1953,1,0,0:0:0:0:
251,12,2167,2,0,B|317:4|317:4|394:22,1,120,8|0,0:0|0:0,0:0:0:0:
410,60,2810,2,0,P|422:117|404:194,1,120,8|0,0:0|0:0,0:0:0:0:
296,141,3667,1,0,0:0:0:0:
242,115,3881,6,0,P|182:112|116:150,1,120,8|0,0:0|0:0,0:0:0:0:
93,185,4524,2,0,P|71:263|136:341,1,180,8|8,0:0|0:0,0:0:0:0:
242,367,5596,2,0,P|281:376|325:373,2,60,8|2|2,0:0|0:0|0:0,0:0:0:0:
199,323,6239,2,0,P|192:267|220:189,1,120,10|2,0:0|0:0,0:0:0:0:
237,153,6881,1,8,0:0:0:0:
310,56,7310,102,0,B|398:43|398:43|490:71,1,180,8|8,0:0|0:0,0:0:0:0:
369,207,8596,2,0,P|332:215|285:216,1,60,8|0,0:0|0:0,0:0:0:0:
276,167,9024,2,0,P|244:245|291:349,1,180,8|8,0:0|0:0,0:0:0:0:
448,284,10310,2,0,P|452:243|446:205,1,60,0|0,0:0|0:0,0:0:0:0:
396,202,10739,6,0,B|385:137|385:137|413:59,1,120,8|0,0:0|0:0,0:0:0:0:
432,33,11381,1,8,0:0:0:0:
318,72,11810,1,8,0:0:0:0:
263,96,12024,2,0,B|234:105|234:105|178:96,1,60,8|0,0:0|0:0,0:0:0:0:
146,84,12453,69,4,0:0:0:0:
41,42,21024,86,0,L|45:174,1,120,4|0,0:0|0:0,0:0:0:0:
47,222,21667,1,8,0:0:0:0:
205,136,22310,2,0,P|243:131|284:135,1,60,0|0,0:0|0:0,0:0:0:0:
322,151,22739,2,0,P|386:154|444:138,1,120,8|0,0:0|0:0,0:0:0:0:
486,102,23381,2,0,L|478:284,1,180,8|0,0:0|0:0,0:0:0:0:
379,351,24453,6,0,B|328:341|276:374|276:374|202:356,1,180,8|8,0:0|0:0,0:0:0:0:
47,271,25739,1,0,0:0:0:0:
133,188,26167,2,0,P|139:147|132:101,1,60,8|0,0:0|0:0,0:0:0:0:
231,53,26810,2,0,P|301:67|353:51,1,120,8|0,0:0|0:0,0:0:0:0:
401,29,27453,2,0,P|407:78|405:102,1,60,8|0,0:0|0:0,0:0:0:0:
364,130,27881,102,0,P|351:190|377:264,1,120,8|0,0:0|0:0,0:0:0:0:
396,297,28524,1,8,0:0:0:0:
219,332,29167,2,0,P|183:335|144:334,1,60,0|0,0:0|0:0,0:0:0:0:
101,317,29596,2,0,P|83:258|108:193,1,120,8|0,0:0|0:0,0:0:0:0:
130,152,30239,1,8,0:0:0:0:
340,266,31096,1,0,0:0:0:0:
395,289,31310,6,0,P|470:293|524:273,1,120,8|0,0:0|0:0,0:0:0:0:
477,229,31953,2,0,P|462:170|476:97,1,120,8|0,0:0|0:0,0:0:0:0:
487,54,32596,2,0,P|448:41|410:42,1,60,0|0,0:0|0:0,0:0:0:0:
379,73,33024,2,0,B|315:84|315:84|248:77,1,120,8|0,0:0|0:0,0:0:0:0:
202,64,33667,1,8,0:0:0:0:
161,176,34096,1,0,0:0:0:0:
214,203,34310,2,0,P|249:212|292:200,1,60,0|2,0:0|0:0,0:0:0:0:
331,198,34739,85,6,0:0:0:0:
460,333,35381,1,8,0:0:0:0:
293,311,36024,2,0,P|264:315|210:313,1,60,0|8,0:0|0:0,0:0:0:0:
178,291,36453,2,0,P|144:243|163:172,1,120,8|0,0:0|0:0,0:0:0:0:
178,130,37096,1,8,0:0:0:0:
19,44,37739,2,0,P|11:88|19:121,1,60,0|8,0:0|0:0,0:0:0:0:
60,139,38167,102,0,P|84:189|71:275,1,120,8|0,0:0|0:0,0:0:0:0:
59,308,38810,1,8,0:0:0:0:
231,361,39453,2,0,P|279:364|309:355,2,60,0|8|8,0:0|0:0|0:0,0:0:0:0:
59,308,40524,1,8,0:0:0:0:
206,204,41167,1,8,0:0:0:0:
146,196,41382,6,0,P|116:194|86:198,1,60,2|14,0:0|0:0,0:0:0:0:
150,369,42239,1,8,0:0:0:0:
316,305,42881,2,0,P|358:304|389:297,1,60,8|8,0:0|0:0,0:0:0:0:
430,274,43310,2,0,P|441:218|423:133,1,120,8|0,0:0|0:0,0:0:0:0:
404,102,43953,1,8,0:0:0:0:
237,151,44596,2,0,P|199:156|156:152,1,60,0|8,0:0|0:0,0:0:0:0:
128,120,45024,102,0,P|102:178|124:247,1,120,8|0,0:0|0:0,0:0:0:0:
137,286,45667,1,8,0:0:0:0:
312,325,46310,2,0,P|341:325|369:315,1,60,0|8,0:0|0:0,0:0:0:0:
424,295,46739,1,8,0:0:0:0:
330,141,47381,1,8,0:0:0:0:
273,124,47596,2,0,P|211:116|147:125,1,120,8|8,0:0|0:0,0:0:0:0:
69,207,48453,54,0,L|71:131,1,60,8|10,0:0|0:0,0:0:0:0:
481,235,50167,2,0,L|478:316,1,60,8|10,0:0|0:0,0:0:0:0:
76,173,51881,2,0,L|79:92,1,60,8|10,0:0|0:0,0:0:0:0:
97,51,53596,6,0,B|158:41|158:41|234:53,1,120,12|8,0:0|0:0,0:0:0:0:
267,80,54239,2,0,P|291:133|278:211,1,120,4|2,0:0|0:0,0:0:0:0:
247,239,54881,2,0,P|194:249|162:244,1,60,8|2,0:0|0:0,0:0:0:0:
141,285,55310,102,0,L|62:283,1,60,12|10,0:0|0:0,0:0:0:0:
415,29,57024,2,0,L|488:28,1,60,8|10,0:0|0:0,0:0:0:0:
81,175,58739,2,0,L|1:171,1,60,8|10,0:0|0:0,0:0:0:0:
399,354,60453,54,0,B|402:286|402:286|372:215,1,120,4|8,0:0|0:0,0:0:0:0:
346,189,61096,1,4,0:0:0:0:
234,145,61524,1,8,0:2:0:0:
180,171,61739,2,0,P|142:179|96:174,1,60,8|8,0:2|0:2,0:0:0:0:
64,158,62167,54,0,B|41:211|41:211|69:296,1,120,12|8,0:0|0:0,0:0:0:0:
109,305,62810,2,0,P|164:316|244:306,1,120,2|2,0:0|0:0,0:0:0:0:
278,287,63453,2,0,P|332:283|364:287,1,60,8|2,0:0|0:0,0:0:0:0:
393,260,63881,2,0,B|398:205|398:205|359:135,1,120,2|8,0:0|0:0,0:0:0:0:
316,114,64524,2,0,P|242:106|176:73,1,120,0|2,0:0|0:0,0:0:0:0:
150,55,65167,1,8,0:0:0:0:
267,31,65596,6,0,B|350:28|350:28|401:48,1,120,2|8,0:0|0:0,0:0:0:0:
429,81,66239,1,2,0:0:0:0:
461,131,66453,2,0,P|472:205|465:262,1,120,2|8,0:0|0:0,0:0:0:0:
428,288,67096,1,8,0:0:0:0:
383,328,67310,2,0,B|330:355|330:355|245:347,1,120,14|8,0:0|0:0,0:0:0:0:
213,328,67953,2,0,B|154:316|154:316|85:336,1,120,6|2,0:0|0:0,0:0:0:0:
47,366,68596,1,8,0:2:0:0:
8,252,69024,6,0,B|-2:170|-2:170|12:113,1,120,6|8,0:0|0:0,0:0:0:0:
66,125,69667,1,2,0:0:0:0:
126,123,69881,2,0,B|193:134|193:134|230:170,1,120,2|8,0:0|0:0,0:0:0:0:
251,226,70524,1,2,0:0:0:0:
296,265,70739,2,0,B|372:298|372:298|426:287,1,120,2|8,0:0|0:0,0:0:0:0:
466,185,71596,2,0,B|450:130|450:130|464:59,1,120,2|8,0:0|0:0,0:0:0:0:
358,129,72453,5,2,0:0:0:0:
232,94,72881,2,0,P|169:86|107:107,1,120,8|2,0:0|0:0,0:0:0:0:
40,195,73739,1,8,0:0:0:0:
149,244,74167,2,0,B|211:264|211:264|270:244|270:244,1,120,12|8,0:2|0:2,0:0:0:0:
317,221,74810,2,0,B|330:162|330:162|284:95,1,120,6|8,0:2|0:2,0:0:0:0:
248,77,75453,1,8,0:2:0:0:
367,82,75881,6,0,B|408:149|408:149|396:214,1,120,6|8,0:0|0:0,0:0:0:0:
368,240,76524,2,0,B|315:227|315:227|255:255,1,120,0|2,0:0|0:0,0:0:0:0:
211,295,77167,2,0,P|165:302|126:294,1,60,8|2,0:0|0:0,0:0:0:0:
101,268,77596,2,0,B|84:202|84:202|37:156,1,120,2|8,0:0|0:0,0:0:0:0:
83,117,78239,2,0,B|152:100|152:100|221:124,1,120,0|2,0:0|0:0,0:0:0:0:
247,150,78881,1,8,0:0:0:0:
181,250,79310,6,0,B|239:281|239:281|310:272,1,120,2|8,0:0|0:0,0:0:0:0:
403,227,80167,2,0,B|416:163|416:163|380:106,1,120,2|8,0:0|0:0,0:0:0:0:
341,77,80810,1,8,0:0:0:0:
282,91,81024,2,0,B|219:100|219:100|140:77,1,120,6|8,0:0|0:0,0:0:0:0:
104,86,81667,2,0,B|58:137|58:137|74:201,1,120,4|2,0:0|0:0,0:0:0:0:
96,241,82310,1,8,0:2:0:0:
200,182,82739,6,0,B|297:178|297:178|332:197,1,120,6|8,0:0|0:0,0:0:0:0:
368,227,83381,2,0,B|405:246|405:246|442:240,2,60,0|2|2,0:0|0:0|0:0,0:0:0:0:
308,238,84024,2,0,B|244:259|244:259|179:254,1,120,8|8,0:0|0:0,0:0:0:0:
256,192,86167,85,14,0:0:0:0:
256,192,86274,12,0,93024,0:0:0:0:
