osu file format v14

[General]
AudioFilename: audio.mp3
AudioLeadIn: 0
PreviewTime: 48346
Countdown: 0
SampleSet: Soft
StackLeniency: 0.4
Mode: 0
LetterboxInBreaks: 0
WidescreenStoryboard: 1

[Editor]
Bookmarks: 21024,34739
DistanceSpacing: 1
BeatDivisor: 8
GridSize: 4
TimelineZoom: 1.7

[Metadata]
Title:again
TitleUnicode:again
Artist:YUI
ArtistUnicode:YUI
Creator:FoxyGrandpa
Version:Zer0's Insane
Source:鋼の錬金術師 FULLMETAL ALCHEMIST
Tags:full metal alchemist brotherhood osuskrub finshie kkipalt asaiga cheesecake rizen aqpw sulfur su1fu7 zero zer0- 0 underforest gero TV size opening
BeatmapID:1375156
BeatmapSetID:623911

[Difficulty]
HPDrainRate:5.6
CircleSize:4
OverallDifficulty:7.7
ApproachRate:9
SliderMultiplier:1.8
SliderTickRate:1

[Events]
//Background and Video events
0,0,"73729.jpg",0,0
Video,-320,"Fullmetal Alchemist Brotherhood Opening 1 HD.flv"
//Break Periods
//Storyboard Layer 0 (Background)
//Storyboard Layer 1 (Fail)
//Storyboard Layer 2 (Pass)
//Storyboard Layer 3 (Foreground)
//Storyboard Sound Samples

[TimingPoints]
-1261,428.571428571429,4,2,1,40,1,0
453,-200,4,2,4,40,0,0
10310,-200,4,2,12,40,0,0
10417,-200,4,2,4,40,0,0
10605,-200,4,2,4,5,0,0
10739,-200,4,2,4,40,0,0
11810,-100,4,2,4,40,0,0
12024,-100,4,2,3,40,0,0
12453,-90.9090909090909,4,2,3,50,0,0
21024,-133.333333333333,4,2,3,40,0,0
21131,-133.333333333333,4,2,2,40,0,0
34739,-105.263157894737,4,2,2,40,0,0
47381,-105.263157894737,4,2,2,43,0,0
47596,-105.263157894737,4,2,2,46,0,0
47810,-105.263157894737,4,2,2,49,0,0
48024,-90.9090909090909,4,2,3,55,0,0
48453,-90.9090909090909,4,2,7,55,0,0
55096,-90.9090909090909,4,2,3,55,0,0
55310,-90.9090909090909,4,2,7,55,0,0
59381,-90.9090909090909,4,2,13,55,0,0
59489,-90.9090909090909,4,2,7,55,0,0
60453,-83.3333333333333,4,2,3,50,0,1
61310,-100,4,2,3,40,0,0
61417,-100,4,2,3,42,0,0
61524,-100,4,2,3,44,0,0
61631,-100,4,2,3,46,0,0
61739,-100,4,2,3,48,0,0
61846,-100,4,2,3,50,0,0
61953,-100,4,2,3,52,0,0
62060,-100,4,2,3,54,0,0
62167,-66.6666666666667,4,2,3,60,0,1
75239,-66.6666666666667,4,2,3,60,0,0
75881,-66.6666666666667,4,2,3,60,0,1
84346,-66.6666666666667,4,2,3,5,0,1
84453,-133.333333333333,4,2,3,60,0,0
85310,-100,4,2,3,60,0,0
86167,-100,4,2,3,60,0,1
86274,-100,4,2,3,30,0,0
89596,-100,4,2,1,20,0,0
91310,-100,4,2,1,10,0,0
93024,-100,4,2,1,5,0,0

[Colours]
Combo1 : 128,128,128
Combo2 : 255,28,28
Combo3 : 128,0,0
Combo4 : 128,255,128
Combo5 : 128,255,255
Combo6 : 68,68,68
Combo7 : 128,128,192
Combo8 : 187,187,119

[HitObjects]
170,242,239,37,0,0:0:0:0:
170,242,453,2,0,P|126:234|95:203,1,90,8|0,0:0|0:0,0:0:0:0:
166,162,1096,2,0,L|225:162,1,45,8|0,0:0|0:0,0:0:0:0:
246,230,1524,2,0,L|305:230,1,45,0|8,0:0|0:0,0:0:0:0:
326,162,1953,6,0,L|385:162,2,45,0|8|0,0:0|0:0|0:0,0:0:0:0:
291,230,2596,1,0,0:0:0:0:
314,306,2810,2,0,P|351:282|369:239,1,90,8|0,0:0|0:0,0:0:0:0:
235,286,3667,1,0,0:0:0:0:
235,286,3774,1,0,0:0:0:0:
235,286,3881,101,8,0:0:0:0:
156,308,4096,1,0,0:0:0:0:
97,250,4310,1,0,0:0:0:0:
117,169,4524,1,8,0:0:0:0:
197,145,4739,1,0,0:0:0:0:
177,226,4953,1,0,0:0:0:0:
136,87,5167,2,0,L|136:7,1,67.5,8|0,0:0|0:0,0:0:0:0:
136,19,5596,6,0,L|185:26,2,45,8|2|2,0:0|0:0|0:0,0:0:0:0:
101,91,6239,2,0,L|56:96,1,45,10|0,0:0|0:0,0:0:0:0:
136,162,6667,2,0,L|180:167,1,45,2|8,0:0|0:0,0:0:0:0:
245,118,7096,1,0,0:0:0:0:
245,118,7203,1,0,0:0:0:0:
245,118,7310,102,0,L|289:113,1,45,8|0,0:0|0:0,0:0:0:0:
345,169,7739,1,0,0:0:0:0:
303,239,7953,1,8,0:0:0:0:
303,239,8060,2,0,L|298:283,1,45,0|0,0:0|0:0,0:0:0:0:
378,356,8381,2,0,L|373:312,1,45,0|8,0:0|0:0,0:0:0:0:
417,243,8810,1,0,0:0:0:0:
379,169,9024,5,8,0:0:0:0:
417,95,9239,1,0,0:0:0:0:
379,21,9453,1,0,0:0:0:0:
334,91,9667,1,8,0:0:0:0:
334,91,9774,2,0,L|268:95,1,45,0|0,0:0|0:0,0:0:0:0:
250,161,10176,2,0,L|150:158,1,95.625
154,158,10739,101,8,0:0:0:0:
76,271,11167,2,0,P|128:294|149:333,1,90,0|0,0:0|0:0,0:0:0:0:
70,352,11810,102,0,L|20:348,1,45,8|0,0:0|0:0,0:0:0:0:
144,319,12024,2,0,L|155:185,1,135,8|0,0:0|0:0,0:0:0:0:
201,202,12453,102,0,P|248:213|297:205,1,99.0000030212403,4|0,0:0|0:0,0:0:0:0:
385,161,12881,1,8,0:0:0:0:
385,260,13096,2,0,L|385:367,1,99.0000030212403,0|2,0:0|0:0,0:0:0:0:
474,316,13524,2,0,L|474:209,1,99.0000030212403,2|8,0:0|0:0,0:0:0:0:
385,161,13953,6,0,P|375:108|401:56,1,99.0000030212403,0|2,0:0|0:0,0:0:0:0:
472,123,14381,1,2,0:0:0:0:
385,260,14596,1,8,0:0:0:0:
313,180,14810,1,0,0:0:0:0:
304,156,14917,1,8,0:0:0:0:
300,132,15024,1,2,0:0:0:0:
300,107,15131,1,8,0:0:0:0:
304,83,15238,1,2,0:0:0:0:
277,281,15453,2,0,P|221:285|169:273,1,99.0000030212403,8|2,0:0|0:0,0:0:0:0:
313,180,15881,102,0,P|369:176|421:188,1,99.0000030212403,2|0,0:0|0:0,0:0:0:0:
277,281,16310,1,8,0:0:0:0:
208,200,16524,1,2,0:0:0:0:
208,200,16631,1,2,0:0:0:0:
208,200,16739,1,2,0:0:0:0:
313,180,16953,1,2,0:0:0:0:
172,300,17167,1,8,0:0:0:0:
198,51,17381,6,0,L|207:199,1,148.50000453186,4|0,0:0|0:0,0:0:0:0:
211,224,17810,85,8,0:0:0:0:
304,81,18024,1,8,0:0:0:0:
284,256,18239,1,8,0:0:0:0:
358,139,18453,1,2,0:0:0:0:
342,281,18667,1,2,0:0:0:0:
401,187,18881,1,2,0:0:0:0:
391,289,19096,1,2,0:0:0:0:
290,182,19310,5,8,0:0:0:0:
290,182,19417,1,8,0:0:0:0:
290,182,19524,1,8,0:0:0:0:
342,281,19739,1,8,0:0:0:0:
350,88,19953,1,8,0:0:0:0:
350,88,20060,1,8,0:0:0:0:
350,88,20167,1,8,0:0:0:0:
290,182,20382,1,8,0:0:0:0:
462,93,20596,1,8,0:0:0:0:
462,93,20703,1,8,0:0:0:0:
462,93,20810,1,2,0:0:0:0:
350,88,21024,86,0,P|316:94|214:129,1,135.000005149842,4|0,0:0|0:0,0:0:0:0:
109,180,21667,2,0,P|159:191|206:209,1,101.250003862381,8|0,0:0|0:0,0:0:0:0:
220,219,22096,1,0,0:0:0:0:
253,292,22310,1,0,0:0:0:0:
173,284,22524,1,0,0:0:0:0:
298,226,22739,5,8,0:0:0:0:
298,226,22953,2,0,P|331:218|364:224,1,67.5000025749208,0|0,0:0|0:0,0:0:0:0:
253,291,23381,2,0,P|190:313|125:298,1,135.000005149842,8|0,0:0|0:0,0:0:0:0:
65,243,24024,1,0,0:0:0:0:
143,218,24239,1,0,0:0:0:0:
143,218,24346,1,0,0:0:0:0:
143,218,24453,101,8,0:0:0:0:
161,137,24667,1,0,0:0:0:0:
99,81,24881,1,0,0:0:0:0:
161,137,25096,2,0,L|244:133,1,67.5000025749208,8|0,0:0|0:0,0:0:0:0:
143,218,25524,2,0,L|60:214,1,67.5000025749208,0|0,0:0|0:0,0:0:0:0:
228,133,25953,6,0,L|232:216,1,67.5000025749208,0|8,0:0|0:0,0:0:0:0:
281,263,26381,1,0,0:0:0:0:
359,251,26596,1,0,0:0:0:0:
309,189,26810,1,8,0:0:0:0:
331,325,27024,2,0,P|395:322|430:286,1,101.250003862381,0|0,0:0|0:0,0:0:0:0:
446,267,27453,1,8,0:0:0:0:
438,186,27667,1,0,0:0:0:0:
438,186,27774,1,0,0:0:0:0:
438,186,27881,102,0,P|405:186|374:200,2,67.5000025749208,8|0|0,0:0|0:0|0:0,0:0:0:0:
318,135,28524,2,0,P|299:163|292:195,1,67.5000025749208,8|0,0:0|0:0,0:0:0:0:
329,268,28953,1,0,0:0:0:0:
373,199,29167,1,0,0:0:0:0:
292,195,29381,1,0,0:0:0:0:
410,271,29596,5,8,0:0:0:0:
453,203,29810,2,0,P|460:167|452:126,1,67.5000025749208,0|0,0:0|0:0,0:0:0:0:
372,199,30239,2,0,P|360:265|373:330,1,135.000005149842,8|0,0:0|0:0,0:0:0:0:
436,383,30881,1,0,0:0:0:0:
450,304,31096,1,0,0:0:0:0:
450,304,31203,1,0,0:0:0:0:
450,304,31310,101,8,0:0:0:0:
373,330,31524,1,0,0:0:0:0:
298,303,31739,1,0,0:0:0:0:
221,330,31953,2,0,P|183:336|135:329,1,67.5000025749208,8|0,0:0|0:0,0:0:0:0:
298,303,32381,2,0,P|336:297|384:304,1,67.5000025749208,0|0,0:0|0:0,0:0:0:0:
236,249,32810,6,0,P|230:211|237:163,1,67.5000025749208,0|8,0:0|0:0,0:0:0:0:
260,106,33239,1,0,0:0:0:0:
181,119,33453,1,0,0:0:0:0:
209,44,33667,1,8,0:0:0:0:
232,182,33881,2,0,P|169:200|113:165,1,135.000005149842,0|0,0:0|0:0,0:0:0:0:
68,97,34524,1,2,0:0:0:0:
68,97,34631,1,2,0:0:0:0:
68,97,34739,85,6,0:0:0:0:
181,119,34953,1,0,0:0:0:0:
181,119,35167,2,0,L|178:182,1,42.7499988584519,0|0,0:0|0:0,0:0:0:0:
248,265,35381,1,8,0:0:0:0:
257,246,35489,2,0,L|254:183,1,42.7499988584519,0|0,0:0|0:0,0:0:0:0:
324,105,35703,1,0,0:0:0:0:
333,124,35811,2,0,L|330:187,1,42.7499988584519,0|0,0:0|0:0,0:0:0:0:
400,265,36024,1,0,0:0:0:0:
450,155,36239,1,8,0:0:0:0:
280,276,36453,5,8,0:0:0:0:
400,265,36667,1,0,0:0:0:0:
389,145,36881,1,0,0:0:0:0:
269,156,37096,1,8,0:0:0:0:
280,276,37310,2,0,L|276:339,1,42.7499988584519,0|0,0:0|0:0,0:0:0:0:
199,359,37524,1,0,0:0:0:0:
199,359,37631,1,0,0:0:0:0:
199,359,37739,2,0,L|195:296,1,42.7499988584519,0|0,0:0|0:0,0:0:0:0:
192,237,37953,1,8,0:0:0:0:
192,237,38167,5,8,0:0:0:0:
252,114,38381,1,0,0:0:0:0:
129,54,38596,1,0,0:0:0:0:
69,177,38810,2,0,B|53:227|70:265|70:265|91:309|71:351,1,170.999995433807,8|0,0:0|0:0,0:0:0:0:
66,366,39346,1,0,0:0:0:0:
66,366,39453,2,0,L|130:357,1,42.7499988584519,0|0,0:0|0:0,0:0:0:0:
213,328,39667,1,8,0:0:0:0:
213,328,39881,85,8,0:0:0:0:
145,143,40310,1,0,0:0:0:0:
145,143,40524,2,0,P|186:152|227:144,1,85.4999977169037,8|0,0:0|0:0,0:0:0:0:
301,100,40953,1,0,0:0:0:0:
277,222,41167,2,0,L|280:307,1,85.4999977169037,8|2,0:0|0:0,0:0:0:0:
368,360,41596,6,0,L|366:317,1,42.7499988584519,14|0,0:0|0:0,0:0:0:0:
448,209,41810,1,0,0:0:0:0:
448,209,42024,2,0,L|444:294,1,85.4999977169037,0|8,0:0|0:0,0:0:0:0:
442,337,42346,1,0,0:0:0:0:
418,347,42453,1,0,0:0:0:0:
393,352,42560,1,0,0:0:0:0:
367,350,42667,1,0,0:0:0:0:
343,342,42774,1,0,0:0:0:0:
321,329,42881,2,0,L|317:277,1,42.7499988584519,8|0,0:0|0:0,0:0:0:0:
260,180,43096,2,0,L|255:232,1,42.7499988584519,8|0,0:0|0:0,0:0:0:0:
242,342,43310,5,8,0:0:0:0:
106,358,43524,1,0,0:0:0:0:
90,222,43739,1,0,0:0:0:0:
226,206,43953,2,0,L|363:190,1,128.249996575356,8|0,0:0|0:0,0:0:0:0:
231,296,44489,1,0,0:0:0:0:
231,296,44596,2,0,L|188:291,1,42.7499988584519,0|0,0:0|0:0,0:0:0:0:
90,222,44810,2,0,L|132:217,1,42.7499988584519,8|0,0:0|0:0,0:0:0:0:
225,206,45024,85,8,0:0:0:0:
103,112,45239,1,0,0:0:0:0:
9,235,45453,1,0,0:0:0:0:
132,329,45667,2,0,P|140:270|128:231,1,85.4999977169037,8|0,0:0|0:0,0:0:0:0:
83,145,46096,1,0,0:0:0:0:
21,239,46310,1,0,0:0:0:0:
195,150,46524,1,8,0:0:0:0:
195,150,46739,5,8,0:0:0:0:
195,150,47167,85,8,0:0:0:0:
297,239,47381,1,8,0:0:0:0:
137,240,47596,1,8,0:0:0:0:
349,141,47810,1,8,0:0:0:0:
291,333,48024,2,0,L|142:332,1,148.50000453186,8|0,0:0|0:0,0:0:0:0:
51,338,48453,54,0,P|55:310|62:289,1,49.5000015106202,8|0,0:0|0:0,0:0:0:0:
126,191,48667,2,0,P|130:216|137:240,1,49.5000015106202,10|0,0:0|0:0,0:0:0:0:
208,199,48881,2,0,L|273:195,1,49.5000015106202,0|0,0:0|0:0,0:0:0:0:
368,145,49096,2,0,L|303:141,1,49.5000015106202,2|0,0:0|0:0,0:0:0:0:
245,113,49309,1,0,0:0:0:0:
231,93,49416,1,0,0:0:0:0:
209,81,49523,1,2,0:0:0:0:
185,81,49630,1,0,0:0:0:0:
163,92,49739,2,0,P|164:125|178:151,1,49.5000015106202,0|0,0:0|0:0,0:0:0:0:
121,26,49953,2,0,P|96:48|85:76,1,49.5000015106202,2|0,0:0|0:0,0:0:0:0:
266,114,50167,54,0,P|294:118|315:125,1,49.5000015106202,8|0,0:0|0:0,0:0:0:0:
408,183,50381,2,0,P|380:187|359:194,1,49.5000015106202,10|0,0:0|0:0,0:0:0:0:
402,273,50596,1,0,0:0:0:0:
405,297,50703,2,0,L|461:290,1,49.5000015106202,0|2,0:0|0:0,0:0:0:0:
337,346,50917,1,0,0:0:0:0:
334,370,51024,2,0,L|231:357,1,99.0000030212403,0|2,0:0|0:0,0:0:0:0:
191,290,51345,1,0,0:0:0:0:
186,266,51453,2,0,P|210:257|234:255,1,49.5000015106202,0|0,0:0|0:0,0:0:0:0:
105,245,51667,2,0,P|113:221|127:201,1,49.5000015106202,2|0,0:0|0:0,0:0:0:0:
304,156,51881,54,0,P|276:152|255:145,1,49.5000015106202,8|0,0:0|0:0,0:0:0:0:
162,87,52095,2,0,P|190:83|211:76,1,49.5000015106202,10|0,0:0|0:0,0:0:0:0:
168,6,52310,2,0,L|100:27,1,49.5000015106202,0|0,0:0|0:0,0:0:0:0:
11,45,52524,2,0,L|79:66,1,49.5000015106202,2|0,0:0|0:0,0:0:0:0:
162,87,52739,2,0,L|94:108,1,49.5000015106202,0|0,0:0|0:0,0:0:0:0:
5,126,52953,2,0,L|73:147,1,49.5000015106202,2|0,0:0|0:0,0:0:0:0:
156,168,53167,2,0,L|88:189,1,49.5000015106202,0|0,0:0|0:0,0:0:0:0:
5,210,53381,1,2,0:0:0:0:
5,210,53489,1,0,0:0:0:0:
5,210,53596,6,0,L|15:358,1,148.50000453186,12|0,0:0|0:0,0:0:0:0:
15,358,54024,1,8,0:0:0:0:
99,306,54239,2,0,P|169:287|234:319,1,148.50000453186,4|8,0:0|0:0,0:0:0:0:
234,319,54667,1,2,0:0:0:0:
163,384,54881,1,8,0:0:0:0:
163,384,54989,1,8,0:0:0:0:
163,384,55096,1,2,0:0:0:0:
99,306,55310,38,0,P|103:278|110:257,1,49.5000015106202,12|0,0:0|0:0,0:0:0:0:
168,164,55524,2,0,P|172:192|179:213,1,49.5000015106202,10|0,0:0|0:0,0:0:0:0:
221,283,55739,2,0,P|245:297|265:306,1,49.5000015106202,0|0,0:0|0:0,0:0:0:0:
347,318,55953,1,2,0:0:0:0:
371,317,56060,1,0,0:0:0:0:
394,310,56167,2,0,P|383:288|371:208,1,99.0000030212403,0|2,0:0|0:0,0:0:0:0:
361,132,56488,1,0,0:0:0:0:
356,108,56596,2,0,P|329:116|305:136,1,49.5000015106202,0|0,0:0|0:0,0:0:0:0:
412,46,56810,2,0,P|387:30|356:25,1,49.5000015106202,2|0,0:0|0:0,0:0:0:0:
370,215,57024,54,0,P|366:243|359:264,1,49.5000015106202,8|0,0:0|0:0,0:0:0:0:
301,357,57238,2,0,P|297:329|290:308,1,49.5000015106202,10|0,0:0|0:0,0:0:0:0:
215,351,57453,1,0,0:0:0:0:
190,356,57560,1,0,0:0:0:0:
166,353,57667,1,2,0:0:0:0:
144,342,57774,1,0,0:0:0:0:
127,324,57881,1,0,0:0:0:0:
117,301,57988,1,0,0:0:0:0:
115,277,58096,2,0,P|141:275|168:280,1,49.5000015106202,2|0,0:0|0:0,0:0:0:0:
290,308,58310,2,0,P|275:286|265:260,1,49.5000015106202,0|0,0:0|0:0,0:0:0:0:
229,141,58524,2,0,P|218:164|200:185,1,49.5000015106202,2|0,0:0|0:0,0:0:0:0:
228,41,58739,54,0,P|256:45|277:52,1,49.5000015106202,8|0,0:0|0:0,0:0:0:0:
370,110,58953,2,0,P|342:114|321:121,1,49.5000015106202,10|0,0:0|0:0,0:0:0:0:
366,207,59167,1,0,0:0:0:0:
378,227,59274,2,0,P|353:270|341:318,1,99.0000030212403,0|0,0:0|0:0,0:0:0:0:
336,349,59596,1,0,0:0:0:0:
327,326,59703,1,0,0:0:0:0:
310,307,59810,1,2,0:0:0:0:
288,296,59917,1,0,0:0:0:0:
264,294,60024,2,0,P|239:297|207:317,1,49.5000015106202,0|0,0:0|0:0,0:0:0:0:
366,207,60239,2,0,P|341:204|309:184,1,49.5000015106202,2|0,0:0|0:0,0:0:0:0:
426,338,60453,70,0,B|454:358|454:358|453:230,1,161.999995056153,4|0,0:0|0:0,0:0:0:0:
366,207,60881,2,0,L|366:260,1,53.9999983520508,8|0,0:0|0:0,0:0:0:0:
278,364,61096,2,0,L|279:256,1,107.999996704102,4|8,0:0|0:2,0:0:0:0:
266,138,61417,1,8,0:2:0:0:
244,121,61524,1,8,0:2:0:0:
223,104,61631,1,8,0:2:0:0:
202,88,61738,85,8,0:2:0:0:
162,112,61845,1,8,0:2:0:0:
149,155,61952,1,8,0:2:0:0:
160,198,62059,1,8,0:2:0:0:
192,229,62167,6,0,P|132:259|68:245,1,135.000005149842,12|0,0:0|0:0,0:0:0:0:
241,159,62596,1,8,0:0:0:0:
310,214,62810,2,0,L|315:348,1,135.000005149842,2|2,0:0|0:0,0:0:0:0:
241,159,63239,2,0,L|246:24,1,135.000005149842,2|8,0:0|0:0,0:0:0:0:
487,139,63667,1,2,0:0:0:0:
487,139,63774,1,2,0:0:0:0:
487,139,63881,6,0,P|453:135|421:144,1,67.5000025749208,2|0,0:0|0:0,0:0:0:0:
309,214,64096,2,0,P|375:223|417:274,1,135.000005149842,2|8,0:0|0:0,0:0:0:0:
246,278,64524,2,0,B|200:289|94:276,1,135.000005149842,0|2,0:0|0:0,0:0:0:0:
1,150,64953,2,0,B|47:139|153:152,1,135.000005149842,2|8,0:0|0:0,0:0:0:0:
246,278,65381,1,0,0:0:0:0:
246,278,65489,1,0,0:0:0:0:
246,278,65596,101,2,0:0:0:0:
112,278,65810,1,0,0:0:0:0:
316,159,66024,5,8,0:0:0:0:
316,346,66239,2,0,P|284:348|249:343,1,67.5000025749208,2|2,0:0|0:0,0:0:0:0:
112,278,66453,1,2,0:0:0:0:
330,265,66667,2,0,P|307:216|284:266,1,135.000005149842,2|8,0:0|0:0,0:0:0:0:
447,280,67096,1,8,0:0:0:0:
452,264,67203,1,8,0:0:0:0:
457,248,67310,101,14,0:0:0:0:
333,143,67524,1,0,0:0:0:0:
168,219,67739,5,8,0:0:0:0:
306,55,67953,2,0,B|333:25|333:25|301:201,1,202.500007724762,6|0,0:0|0:0,0:0:0:0:
227,168,68381,2,0,L|239:101,1,67.5000025749208,2|0,0:0|0:0,0:0:0:0:
395,133,68596,1,8,0:2:0:0:
388,166,68703,1,8,0:2:0:0:
382,199,68810,1,8,0:2:0:0:
376,232,68917,1,8,0:2:0:0:
370,265,69024,102,0,B|325:282|325:282|225:264,1,135.000005149842,6|0,0:0|0:0,0:0:0:0:
99,197,69453,1,8,0:0:0:0:
250,132,69667,2,0,L|239:267,1,135.000005149842,2|2,0:0|0:0,0:0:0:0:
388,166,70096,2,0,L|377:31,1,135.000005149842,2|8,0:0|0:0,0:0:0:0:
250,132,70524,1,2,0:0:0:0:
415,182,70739,5,2,0:0:0:0:
375,14,70953,1,2,0:0:0:0:
250,132,71167,1,8,0:0:0:0:
384,303,71381,1,0,0:0:0:0:
384,303,71489,2,0,P|417:306|450:303,1,67.5000025749208,8|2,0:0|0:0,0:0:0:0:
258,266,71703,1,8,0:0:0:0:
258,266,71811,2,0,P|264:299|278:329,1,67.5000025749208,2|0,0:0|0:0,0:0:0:0:
250,132,72024,2,0,B|199:114|147:133|147:133|93:153|41:135,1,202.500007724762,8|0,0:0|0:0,0:0:0:0:
28,126,72453,101,2,0:0:0:0:
201,230,72667,1,0,0:0:0:0:
107,27,72881,1,8,0:0:0:0:
63,237,73096,1,8,0:0:0:0:
63,237,73203,1,8,0:0:0:0:
63,237,73310,2,0,P|124:250|196:238,1,135.000005149842,2|2,0:0|0:0,0:0:0:0:
333,127,73739,1,8,0:0:0:0:
283,245,73953,2,0,P|277:209|261:177,1,67.5000025749208,8|8,0:0|0:2,0:0:0:0:
128,71,74167,5,12,0:2:0:0:
154,91,74274,1,8,0:2:0:0:
186,102,74381,1,8,0:2:0:0:
219,102,74488,1,0,0:2:0:0:
251,91,74595,1,8,0:2:0:0:
420,223,74810,101,6,0:2:0:0:
390,245,74917,1,8,0:2:0:0:
355,257,75024,1,8,0:2:0:0:
318,257,75131,1,0,0:0:0:0:
283,245,75239,2,0,P|274:279|271:313,1,67.5000025749208,8|0,0:2|0:0,0:0:0:0:
231,169,75453,2,0,P|222:135|219:101,1,67.5000025749208,8|8,0:2|0:2,0:0:0:0:
179,245,75667,2,0,P|170:279|167:313,1,67.5000025749208,8|8,0:2|0:2,0:0:0:0:
127,169,75881,22,0,P|118:135|137:36,1,135.000005149842,6|0,0:0|0:0,0:0:0:0:
243,108,76310,1,8,0:0:0:0:
179,245,76524,2,0,B|137:255|137:255|39:243,1,135.000005149842,0|2,0:0|0:0,0:0:0:0:
243,108,76953,2,0,B|285:98|285:98|383:110,1,135.000005149842,2|8,0:0|0:0,0:0:0:0:
298,327,77381,1,2,0:0:0:0:
298,327,77489,1,2,0:0:0:0:
298,327,77596,6,0,P|285:253|301:175,1,135.000005149842,2|0,0:0|0:0,0:0:0:0:
376,109,78024,1,8,0:0:0:0:
256,229,78239,2,0,L|98:221,1,135.000005149842,0|2,0:0|0:0,0:0:0:0:
0,95,78667,2,0,L|158:87,1,135.000005149842,2|8,0:0|0:0,0:0:0:0:
166,85,78989,1,0,0:0:0:0:
162,118,79096,1,0,0:0:0:0:
158,152,79203,1,0,0:0:0:0:
154,185,79310,69,2,0:0:0:0:
81,56,79524,1,0,0:0:0:0:
251,196,79739,5,8,0:0:0:0:
96,283,79953,1,8,0:0:0:0:
293,104,80167,101,2,0:0:0:0:
397,290,80381,1,2,0:0:0:0:
184,288,80596,2,0,L|99:286,1,67.5000025749208,8|0,0:0|0:0,0:0:0:0:
0,294,80810,1,8,0:0:0:0:
0,294,80917,1,8,0:0:0:0:
0,294,81024,6,0,L|11:218,1,67.5000025749208,6|0,0:0|0:0,0:0:0:0:
94,189,81239,2,0,L|83:113,1,67.5000025749208,0|0,0:0|0:0,0:0:0:0:
24,54,81453,1,8,0:0:0:0:
94,189,81667,2,0,P|161:200|228:194,1,135.000005149842,4|0,0:0|0:0,0:0:0:0:
359,106,82096,2,0,P|325:100|292:103,1,67.5000025749208,2|0,0:0|0:0,0:0:0:0:
227,194,82310,1,8,0:2:0:0:
218,239,82417,1,8,0:2:0:0:
229,285,82524,1,8,0:2:0:0:
256,323,82631,1,8,0:2:0:0:
296,348,82739,102,0,B|342:363|396:347|396:347|453:329|499:344,1,202.500007724762,6|0,0:0|0:0,0:0:0:0:
505,357,83167,1,8,0:0:0:0:
345,262,83381,2,0,L|355:122,1,135.000005149842,0|2,0:0|0:0,0:0:0:0:
456,15,83810,2,0,L|466:155,1,135.000005149842,2|8,0:0|0:0,0:0:0:0:
465,149,84453,86,0,P|416:143|371:165,1,101.250003862381,8|0,0:0|0:0,0:0:0:0:
354,193,84881,1,0,0:0:0:0:
320,191,84988,1,0,0:0:0:0:
286,190,85095,1,0,0:0:0:0:
252,189,85202,1,0,0:0:0:0:
219,188,85310,2,0,L|228:131,1,45,0|0,0:0|0:0,0:0:0:0:
150,215,85524,2,0,L|158:272,1,45,0|0,0:0|0:0,0:0:0:0:
80,188,85739,2,0,L|100:54,1,135,0|0,0:0|0:0,0:0:0:0:
106,28,86167,21,14,0:0:0:0:
256,192,86274,12,0,93024,0:0:0:0:
