osu file format v14

[General]
AudioFilename: audio.mp3
AudioLeadIn: 0
PreviewTime: 48346
Countdown: 0
SampleSet: Soft
StackLeniency: 0.4
Mode: 0
LetterboxInBreaks: 0
WidescreenStoryboard: 0

[Editor]
DistanceSpacing: 1.3
BeatDivisor: 4
GridSize: 8
TimelineZoom: 1.7

[Metadata]
Title:again
TitleUnicode:again
Artist:YUI
ArtistUnicode:YUI
Creator:FoxyGrandpa
Version:Sulfur's Advanced
Source:鋼の錬金術師 FULLMETAL ALCHEMIST
Tags:full metal alchemist brotherhood osuskrub finshie kkipalt asaiga cheesecake rizen aqpw sulfur su1fu7 zero zer0- 0 underforest gero TV size opening
BeatmapID:1373485
BeatmapSetID:623911

[Difficulty]
HPDrainRate:4
CircleSize:3.6
OverallDifficulty:5
ApproachRate:7
SliderMultiplier:1.2
SliderTickRate:1

[Events]
//Background and Video events
0,0,"73729.jpg",0,0
Video,-320,"Fullmetal Alchemist Brotherhood Opening 1 HD.flv"
//Break Periods
//Storyboard Layer 0 (Background)
//Storyboard Layer 1 (Fail)
//Storyboard Layer 2 (Pass)
//Storyboard Layer 3 (Foreground)
//Storyboard Sound Samples

[TimingPoints]
-1261,428.571428571429,4,2,1,40,1,0
239,-125,4,2,1,40,0,0
453,-125,4,2,4,40,0,0
12024,-125,4,2,3,40,0,0
12453,-100,4,2,3,50,0,0
21024,-125,4,2,3,40,0,0
21131,-125,4,2,2,40,0,0
47381,-125,4,2,2,43,0,0
47596,-125,4,2,2,46,0,0
47810,-125,4,2,2,49,0,0
48024,-125,4,2,3,55,0,0
48453,-100,4,2,7,55,0,0
55096,-100,4,2,3,55,0,0
55310,-100,4,2,7,55,0,0
60453,-100,4,2,3,50,0,0
61310,-100,4,2,3,40,0,0
61417,-100,4,2,3,42,0,0
61524,-100,4,2,3,44,0,0
61631,-100,4,2,3,46,0,0
61739,-100,4,2,3,48,0,0
61846,-100,4,2,3,50,0,0
61953,-100,4,2,3,52,0,0
62060,-100,4,2,3,54,0,0
62167,-83.3333333333333,4,2,3,60,0,1
75239,-83.3333333333333,4,2,3,60,0,0
75881,-83.3333333333333,4,2,3,60,0,1
84346,-83.3333333333333,4,2,3,5,0,1
84453,-83.3333333333333,4,2,3,60,0,0
86167,-83.3333333333333,4,2,3,60,0,1
86274,-83.3333333333333,4,2,3,30,0,0
89596,-83.3333333333333,4,2,1,20,0,0
91310,-83.3333333333333,4,2,1,10,0,0
93024,-83.3333333333333,4,2,1,5,0,0

[Colours]
Combo1 : 128,128,128
Combo2 : 255,28,28
Combo3 : 128,0,0
Combo4 : 128,255,128
Combo5 : 128,255,255
Combo6 : 68,68,68
Combo7 : 128,128,192
Combo8 : 187,187,119

[HitObjects]
128,24,239,37,0,0:0:0:0:
128,24,453,2,0,P|197:16|238:29,1,96,8|0,0:0|0:0,0:0:0:0:
277,75,1096,2,0,P|346:83|387:70,1,96,8|0,0:0|0:0,0:0:0:0:
446,62,1739,2,0,L|440:125,1,48,8|0,0:0|0:0,0:0:0:0:
436,186,2167,6,0,B|402:199|402:199|338:193,1,96,8|0,0:0|0:0,0:0:0:0:
276,153,2810,2,0,L|164:143,1,96,8|0,0:0|0:0,0:0:0:0:
106,122,3453,1,8,0:0:0:0:
48,178,3667,1,0,0:0:0:0:
48,178,3881,102,0,P|86:208|104:253,1,96,8|0,0:0|0:0,0:0:0:0:
153,309,4524,2,0,B|185:302|225:317|225:317|266:332|314:319,1,144,8|8,0:0|0:0,0:0:0:0:
371,301,5381,1,0,0:0:0:0:
371,301,5596,2,0,B|375:253|375:253|395:206|395:206|400:143,2,144,8|10|8,0:0|0:0|0:0,0:0:0:0:
293,316,7096,1,0,0:0:0:0:
293,316,7310,6,0,P|223:330|153:316,2,144,8|8|8,0:0|0:0|0:0,0:0:0:0:
351,264,8810,1,0,0:0:0:0:
293,212,9024,2,0,P|223:197|153:211,2,144,8|8|8,0:0|0:0|0:0,0:0:0:0:
371,267,10739,102,0,B|390:222|390:222|368:120,1,144,8|8,0:0|0:0,0:0:0:0:
253,85,11810,1,8,0:0:0:0:
253,85,12024,2,0,L|308:89,1,48,8|0,0:0|0:0,0:0:0:0:
274,167,12453,86,0,L|194:160,1,60,4|0,0:0|0:0,0:0:0:0:
136,153,12881,2,0,P|182:171|216:261,1,150,8|0,0:0|0:0,0:0:0:0:
188,287,13524,2,0,L|273:264,1,60,2|8,0:0|0:0,0:0:0:0:
316,305,13953,6,0,L|331:247,1,60,0|2,0:0|0:0,0:0:0:0:
339,169,14381,1,2,0:0:0:0:
408,133,14596,2,0,P|416:178|408:213,1,60,8|0,0:0|0:0,0:0:0:0:
407,267,15024,2,0,L|462:262,2,30,2|8|2,0:0|0:0|0:0,0:0:0:0:
331,247,15453,1,8,0:0:0:0:
273,167,15881,86,0,P|243:168|214:161,1,60,2|0,0:0|0:0,0:0:0:0:
139,138,16310,2,0,P|123:182|149:289,1,150,8|0,0:0|0:0,0:0:0:0:
174,303,16952,2,0,L|261:293,1,60,2|8,0:0|0:0,0:0:0:0:
287,239,17381,6,0,B|293:208|293:208|287:179,1,60,4|0,0:0|0:0,0:0:0:0:
289,98,17810,1,8,0:0:0:0:
289,98,18024,1,8,0:0:0:0:
372,104,18239,1,8,0:0:0:0:
372,104,18453,1,2,0:0:0:0:
407,184,18667,1,2,0:0:0:0:
407,184,18881,1,2,0:0:0:0:
389,265,19096,1,2,0:0:0:0:
389,265,19310,54,0,L|429:257,2,30,8|8|8,0:0|0:0|0:0,0:0:0:0:
321,305,19739,1,8,0:0:0:0:
253,265,19953,2,0,L|213:257,2,30,8|8|8,0:0|0:0|0:0,0:0:0:0:
321,226,20382,1,8,0:0:0:0:
389,186,20596,2,0,L|429:178,2,30,8|8|2,0:0|0:0|0:0,0:0:0:0:
321,226,21024,21,4,0:0:0:0:
385,95,21667,1,8,0:0:0:0:
311,33,22096,2,0,P|262:25|210:39,1,96,0|0,0:0|0:0,0:0:0:0:
174,95,22739,2,0,P|140:124|27:142,1,144,8|8,0:0|0:0,0:0:0:0:
45,145,24239,1,0,0:0:0:0:
20,217,24453,6,0,L|6:360,2,144,8|8|0,0:0|0:0|0:0,0:0:0:0:
114,198,26167,2,0,L|100:55,2,144,8|8|8,0:0|0:0|0:0,0:0:0:0:
127,293,27881,102,0,B|155:276|155:276|230:271,1,96,8|0,0:0|0:0,0:0:0:0:
272,327,28524,2,0,B|243:343|243:343|169:349,2,96,8|0|0,0:0|0:0|0:0,0:0:0:0:
327,272,29596,2,0,P|394:251|461:274,2,144,8|8|0,0:0|0:0|0:0,0:0:0:0:
272,327,31096,1,0,0:0:0:0:
253,253,31310,6,0,L|244:106,2,144,8|8|0,0:0|0:0|0:0,0:0:0:0:
252,349,33024,2,0,P|208:332|141:342,1,96,8|0,0:0|0:0,0:0:0:0:
84,351,33667,2,0,P|62:283|85:216,1,144,8|0,0:0|0:0,0:0:0:0:
150,175,34524,1,2,0:0:0:0:
150,175,34739,86,0,P|159:129|131:74,1,96,6|0,0:0|0:0,0:0:0:0:
94,23,35381,2,0,P|155:92|248:90,1,192,8|8,0:0|0:0,0:0:0:0:
310,50,36453,2,0,P|402:57|444:96,2,144,8|8|0,0:0|0:0|0:0,0:0:0:0:
245,92,37953,1,8,0:0:0:0:
314,128,38167,6,0,L|307:291,1,144,8|8,0:0|0:0,0:0:0:0:
305,368,39239,2,0,P|332:356|360:354,1,48,0|0,0:0|0:0,0:0:0:0:
431,363,39667,1,8,0:0:0:0:
431,363,39881,1,8,0:0:0:0:
379,272,40310,1,0,0:0:0:0:
379,272,40524,2,0,L|227:264,1,144,8|8,0:0|0:0,0:0:0:0:
144,239,41596,101,14,0:0:0:0:
144,239,41810,2,0,L|149:175,1,48
169,115,42239,1,8,0:0:0:0:
169,115,42453,2,0,P|129:99|33:139,1,144,0|8,0:0|0:0,0:0:0:0:
11,208,43310,2,0,L|3:360,2,144,8|8|0,0:0|0:0|0:0,0:0:0:0:
83,144,45024,102,0,B|130:139|130:139|172:152|172:152|243:145,2,144,8|8|0,0:0|0:0|0:0,0:0:0:0:
6,150,46524,1,8,0:0:0:0:
6,150,46739,1,8,0:0:0:0:
68,230,47167,1,8,0:0:0:0:
68,230,47381,2,0,B|117:249|117:249|229:239,1,144,8|8,0:0|0:0,0:0:0:0:
307,233,48453,53,8,0:0:0:0:
293,309,48667,1,10,0:0:0:0:
83,192,50167,53,8,0:0:0:0:
69,116,50381,1,10,0:0:0:0:
317,151,51881,53,8,0:0:0:0:
303,227,52095,1,10,0:0:0:0:
93,251,53596,6,0,L|83:192,1,60,12|0,0:0|0:0,0:0:0:0:
68,115,54024,1,8,0:0:0:0:
141,139,54239,2,0,L|200:149,1,60,4|0,0:0|0:0,0:0:0:0:
276,166,54667,1,2,0:0:0:0:
282,88,54881,2,0,L|284:58,2,30,8|8|2,0:0|0:0|0:0,0:0:0:0:
276,166,55310,101,12,0:0:0:0:
269,243,55524,1,10,0:0:0:0:
93,251,57024,53,8,0:0:0:0:
16,258,57238,1,10,0:0:0:0:
269,243,58739,53,8,0:0:0:0:
346,236,58953,1,10,0:0:0:0:
96,309,60453,6,0,P|89:262|103:225,1,60,4|0,0:0|0:0,0:0:0:0:
140,189,60881,1,8,0:0:0:0:
178,256,61096,2,0,P|224:262|261:248,1,60,4|8,0:0|0:2,0:0:0:0:
311,237,61524,2,0,L|333:287,4,30,8|8|8|8|8,0:2|0:2|0:2|0:2|0:2,0:0:0:0:
255,184,62167,102,0,P|250:140|270:84,1,71.9999978027344,12|0,0:0|0:0,0:0:0:0:
314,40,62596,2,0,L|164:30,1,143.999995605469,8|2,0:0|0:0,0:0:0:0:
76,26,63239,1,2,0:0:0:0:
119,110,63453,2,0,P|131:158|100:232,1,107.999996704102,8|2,0:0|0:0,0:0:0:0:
80,244,63881,6,0,B|125:224|125:224|233:233,1,143.999995605469,2|8,0:0|0:0,0:0:0:0:
309,260,64524,2,0,P|343:240|383:138,1,143.999995605469,0|2,0:0|0:0,0:0:0:0:
333,69,65167,2,0,P|370:74|422:59,1,71.9999978027344,8|0,0:0|0:0,0:0:0:0:
483,9,65596,102,0,L|475:113,1,71.9999978027344,2|0,0:0|0:0,0:0:0:0:
452,172,66024,2,0,L|444:276,1,71.9999978027344,8|2,0:0|0:0,0:0:0:0:
451,337,66453,2,0,P|409:317|285:340,1,143.999995605469,2|8,0:0|0:0,0:0:0:0:
228,361,67096,1,8,0:0:0:0:
257,272,67310,6,0,P|274:215|249:117,1,143.999995605469,14|8,0:0|0:0,0:0:0:0:
175,176,67953,2,0,P|157:119|182:21,1,143.999995605469,6|2,0:0|0:0,0:0:0:0:
264,52,68596,2,0,P|290:50|307:45,3,35.9999989013672,8|8|8|8,0:2|0:2|0:2|0:2,0:0:0:0:
345,38,69024,102,0,P|415:37|473:79,1,143.999995605469,6|8,0:0|0:0,0:0:0:0:
472,172,69667,2,0,P|418:217|348:221,1,143.999995605469,2|2,0:0|0:0,0:0:0:0:
254,202,70310,1,8,0:0:0:0:
179,258,70524,1,2,0:0:0:0:
179,258,70739,6,0,B|172:221|172:221|182:160,1,71.9999978027344,2|2,0:0|0:0,0:0:0:0:
241,118,71167,1,8,0:0:0:0:
241,118,71381,2,0,L|97:105,1,143.999995605469,0|2,0:0|0:0,0:0:0:0:
5,98,72024,2,0,P|12:145|61:191,1,107.999996704102,8|0,0:0|0:0,0:0:0:0:
99,197,72453,102,0,P|175:205|228:255,1,143.999995605469,2|8,0:0|0:0,0:0:0:0:
243,340,73096,1,8,0:0:0:0:
312,278,73310,2,0,L|295:216,2,35.9999989013672,2|0|2,0:0|0:0|0:0,0:0:0:0:
330,369,73739,1,8,0:0:0:0:
399,307,73953,1,8,0:0:0:0:
486,336,74167,6,0,L|502:397,2,35.9999989013672,12|8|8,0:2|0:2|0:2,0:0:0:0:
468,245,74596,1,8,0:2:0:0:
432,160,74810,2,0,P|388:151|336:169,1,71.9999978027344,6|8,0:2|0:2,0:0:0:0:
279,200,75239,1,8,0:2:0:0:
281,105,75453,2,0,L|297:43,2,35.9999989013672,8|8|8,0:2|0:2|0:2,0:0:0:0:
199,150,75881,6,0,P|154:157|109:135,1,71.9999978027344,6|0,0:0|0:0,0:0:0:0:
47,104,76310,2,0,L|56:278,1,143.999995605469,8|2,0:0|0:0,0:0:0:0:
64,341,76953,1,2,0:0:0:0:
138,284,77167,2,0,P|189:271|260:304,1,107.999996704102,8|2,0:0|0:0,0:0:0:0:
274,319,77596,6,0,L|281:175,1,143.999995605469,2|8,0:0|0:0,0:0:0:0:
301,83,78239,1,0,0:0:0:0:
301,83,78453,2,0,P|236:56|143:87,1,143.999995605469,2|8,0:0|0:0,0:0:0:0:
88,123,79096,1,0,0:0:0:0:
88,123,79310,70,0,B|94:217,1,71.9999978027344,2|0,0:0|0:0,0:0:0:0:
99,288,79739,2,0,P|52:286|14:318,1,71.9999978027344,8|8,0:0|0:0,0:0:0:0:
77,368,80167,2,0,P|124:369|162:338,1,71.9999978027344,2|2,0:0|0:0,0:0:0:0:
209,289,80596,1,8,0:0:0:0:
269,359,80810,1,8,0:0:0:0:
345,304,81024,6,0,L|357:139,1,143.999995605469,6|8,0:0|0:0,0:0:0:0:
366,67,81667,2,0,P|311:84|215:49,1,143.999995605469,4|2,0:0|0:0,0:0:0:0:
137,45,82310,2,0,P|137:67|144:104,3,35.9999989013672,8|8|8|8,0:2|0:2|0:2|0:2,0:0:0:0:
161,121,82739,102,0,P|179:175|163:275,1,143.999995605469,6|8,0:0|0:0,0:0:0:0:
143,349,83381,2,0,P|197:331|297:347,1,143.999995605469,0|2,0:0|0:0,0:0:0:0:
372,366,84024,2,0,P|371:308|355:281,1,71.9999978027344,8|0,0:0|0:0,0:0:0:0:
312,218,84453,5,8,0:0:0:0:
312,218,86167,69,14,0:0:0:0:
256,192,86274,12,0,93024,0:0:0:0:
