osu file format v14

[General]
AudioFilename: audio.mp3
AudioLeadIn: 0
PreviewTime: 48346
Countdown: 0
SampleSet: Soft
StackLeniency: 0.4
Mode: 0
LetterboxInBreaks: 0
WidescreenStoryboard: 1

[Editor]
Bookmarks: 21024
DistanceSpacing: 0.6
BeatDivisor: 4
GridSize: 16
TimelineZoom: 1.7

[Metadata]
Title:again
TitleUnicode:again
Artist:YUI
ArtistUnicode:YUI
Creator:FoxyGrandpa
Version:Rizen's Insane
Source:鋼の錬金術師 FULLMETAL ALCHEMIST
Tags:full metal alchemist brotherhood osuskrub finshie kkipalt asaiga cheesecake rizen aqpw sulfur su1fu7 zero zer0- 0 underforest gero TV size opening
BeatmapID:1372702
BeatmapSetID:623911

[Difficulty]
HPDrainRate:5
CircleSize:7
OverallDifficulty:8
ApproachRate:9
SliderMultiplier:1.6
SliderTickRate:1

[Events]
//Background and Video events
0,0,"73729.jpg",0,0
Video,-320,"Fullmetal Alchemist Brotherhood Opening 1 HD.flv"
//Break Periods
//Storyboard Layer 0 (Background)
//Storyboard Layer 1 (Fail)
//Storyboard Layer 2 (Pass)
//Storyboard Layer 3 (Foreground)
//Storyboard Sound Samples

[TimingPoints]
-1261,428.571428571429,4,2,1,40,1,0
453,-100,4,2,4,40,0,0
10310,-100,4,2,12,40,0,0
10417,-100,4,2,4,40,0,0
10605,-100,4,2,4,5,0,0
10739,-100,4,2,4,40,0,0
12024,-133.333333333333,4,2,3,40,0,0
12346,-133.333333333333,4,2,3,40,0,0
12453,-100,4,2,3,50,0,0
21024,-133.333333333333,4,2,3,40,0,0
21131,-133.333333333333,4,2,2,40,0,0
39131,-133.333333333333,4,2,2,5,0,0
39239,-133.333333333333,4,2,2,40,0,0
47381,-133.333333333333,4,2,2,43,0,0
47596,-133.333333333333,4,2,2,46,0,0
47810,-133.333333333333,4,2,2,49,0,0
48024,-133.333333333333,4,2,3,55,0,0
48453,-100,4,2,7,55,0,0
55096,-100,4,2,3,55,0,0
55310,-100,4,2,7,55,0,0
57667,-100,4,2,13,55,0,0
57774,-100,4,2,7,55,0,0
59381,-100,4,2,13,55,0,0
59489,-100,4,2,7,55,0,0
60453,-100,4,2,3,50,0,0
61310,-100,4,2,3,40,0,0
61417,-100,4,2,3,42,0,0
61524,-100,4,2,3,44,0,0
61631,-100,4,2,3,46,0,0
61739,-100,4,2,3,48,0,0
61846,-100,4,2,3,50,0,0
61953,-100,4,2,3,52,0,0
62060,-100,4,2,3,54,0,0
62167,-83.3333333333333,4,2,3,60,0,0
74810,-71.4285714285714,4,2,3,60,0,0
75881,-83.3333333333333,4,2,3,60,0,0
84346,-83.3333333333333,4,2,3,5,0,0
84453,-83.3333333333333,4,2,3,60,0,0
86167,-100,4,2,3,60,0,1
86274,-100,4,2,3,30,0,0
89596,-100,4,2,1,20,0,0
91310,-100,4,2,1,10,0,0
93024,-100,4,2,1,5,0,0

[Colours]
Combo1 : 128,128,128
Combo2 : 255,28,28
Combo3 : 128,0,0
Combo4 : 128,255,128
Combo5 : 128,255,255
Combo6 : 68,68,68
Combo7 : 128,128,192
Combo8 : 187,187,119

[HitObjects]
116,112,239,37,0,0:0:0:0:
116,112,453,2,0,P|190:139|269:131,1,160,8|0,0:0|0:0,0:0:0:0:
320,55,1096,2,0,L|303:214,1,160,8|0,0:0|0:0,0:0:0:0:
302,214,1953,1,0,0:0:0:0:
439,83,2167,6,0,P|441:43|430:4,1,80,8|0,0:0|0:0,0:0:0:0:
430,4,2596,1,0,0:0:0:0:
320,55,2810,2,0,L|160:38,1,160,8|0,0:0|0:0,0:0:0:0:
17,161,3667,1,0,0:0:0:0:
47,151,3774,1,0,0:0:0:0:
77,142,3881,102,0,P|115:154|154:154,1,80,8|0,0:0|0:0,0:0:0:0:
181,258,4310,2,0,P|216:239|244:211,1,80,0|8,0:0|0:0,0:0:0:0:
339,268,4739,2,0,P|351:229|351:190,1,80,0|0,0:0|0:0,0:0:0:0:
244,211,5167,2,0,L|227:370,1,160,8|8,0:0|0:0,0:0:0:0:
123,251,5810,6,0,L|131:330,1,80,2|2,0:0|0:0,0:0:0:0:
5,290,6239,1,10,0:0:0:0:
244,211,6667,1,2,0:0:0:0:
118,96,6881,2,0,P|112:135|121:174,1,80,8|0,0:0|0:0,0:0:0:0:
142,198,7203,1,0,0:0:0:0:
164,220,7310,102,0,L|243:211,1,80,8|0,0:0|0:0,0:0:0:0:
339,134,7739,2,0,L|418:143,1,80,0|8,0:0|0:0,0:0:0:0:
446,130,8060,2,0,P|405:171|402:230,1,120,0|0,0:0|0:0,0:0:0:0:
449,334,8596,1,8,0:0:0:0:
488,208,8810,1,0,0:0:0:0:
324,274,9024,6,0,P|285:262|246:264,1,80,8|0,0:0|0:0,0:0:0:0:
154,213,9453,2,0,P|180:183|215:164,1,80,0|8,0:0|0:0,0:0:0:0:
247,162,9774,2,0,P|244:122|256:84,1,80
341,23,10176,2,0,B|255:41|255:41|173:27,1,170
175,28,10739,101,8,0:0:0:0:
164,179,11167,2,0,P|191:105|175:28,1,160
73,96,11810,1,8,0:0:0:0:
125,279,12024,102,0,L|214:270,1,90.0000034332277,8|0,0:0|0:0,0:0:0:0:
245,278,12453,102,0,B|323:296|323:296|401:276,1,160,4|8,0:0|0:0,0:0:0:0:
470,181,13096,1,0,0:0:0:0:
463,149,13203,1,0,0:0:0:0:
457,117,13310,2,0,L|466:37,1,80,2|2,0:0|0:0,0:0:0:0:
342,147,13739,1,8,0:0:0:0:
211,31,13953,6,0,B|323:16|323:16|368:28,1,160,0|2,0:0|0:0,0:0:0:0:
230,135,14596,1,8,0:0:0:0:
128,100,14810,1,0,0:0:0:0:
104,78,14917,1,8,0:0:0:0:
92,48,15024,1,2,0:0:0:0:
81,78,15131,1,8,0:0:0:0:
57,99,15239,1,2,0:0:0:0:
92,249,15453,2,0,L|92:169,1,80,8|2,0:0|0:0,0:0:0:0:
39,328,15881,102,0,B|83:340|83:340|196:325,1,160,2|8,0:0|0:0,0:0:0:0:
290,242,16524,1,2,0:0:0:0:
310,266,16631,1,2,0:0:0:0:
319,296,16739,2,0,P|322:335|311:373,1,80,2|2,0:0|0:0,0:0:0:0:
210,254,17167,1,8,0:0:0:0:
427,284,17381,5,4,0:0:0:0:
427,284,17810,1,8,0:0:0:0:
462,157,18024,1,8,0:0:0:0:
445,300,18239,1,8,0:0:0:0:
485,151,18453,1,2,0:0:0:0:
333,187,18667,1,2,0:0:0:0:
375,26,18881,1,2,0:0:0:0:
369,179,19096,1,2,0:0:0:0:
178,91,19310,101,8,0:0:0:0:
206,76,19417,1,8,0:0:0:0:
237,73,19524,1,8,0:0:0:0:
299,197,19739,1,8,0:0:0:0:
116,140,19953,5,8,0:0:0:0:
100,110,20060,1,8,0:0:0:0:
98,77,20167,1,8,0:0:0:0:
230,152,20381,1,8,0:0:0:0:
157,310,20596,101,8,0:0:0:0:
160,278,20703,1,8,0:0:0:0:
163,246,20810,1,2,0:0:0:0:
280,318,21024,86,0,B|400:307|400:307|458:318,1,180.000006866455,4|8,0:0|0:0,0:0:0:0:
411,146,22096,2,0,L|416:86,2,60.0000022888184,0|0|0,0:0|0:0|0:0,0:0:0:0:
304,174,22739,6,0,L|299:114,1,60.0000022888184,8|0,0:0|0:0,0:0:0:0:
134,140,23381,2,0,P|221:155|299:114,1,180.000006866455,8|0,0:0|0:0,0:0:0:0:
202,40,24239,1,0,0:0:0:0:
181,27,24346,1,0,0:0:0:0:
159,15,24453,102,0,L|99:21,1,60.0000022888184,8|0,0:0|0:0,0:0:0:0:
15,102,24881,1,0,0:0:0:0:
129,131,25096,2,0,P|128:72|99:21,2,120.000004577637,8|0|0,0:0|0:0|0:0,0:0:0:0:
46,220,26167,6,0,P|36:247|34:277,1,60.0000022888184,8|0,0:0|0:0,0:0:0:0:
192,242,26596,2,0,P|165:254|143:274,1,60.0000022888184,0|8,0:0|0:0,0:0:0:0:
204,362,27024,2,0,L|192:242,1,120.000004577637,0|8,0:0|0:0,0:0:0:0:
90,312,27667,1,0,0:0:0:0:
281,384,27881,102,0,L|263:204,1,180.000006866455,8|8,0:0|0:0,0:0:0:0:
427,287,28953,2,0,P|397:290|367:286,2,60.0000022888184,0|0|0,0:0|0:0|0:0,0:0:0:0:
454,193,29596,2,0,P|424:188|394:192,1,60.0000022888184,8|0,0:0|0:0,0:0:0:0:
228,94,30239,2,0,B|347:106|347:106|406:96,1,180.000006866455,8|0,0:0|0:0,0:0:0:0:
301,177,31096,1,0,0:0:0:0:
293,199,31203,1,0,0:0:0:0:
286,222,31310,6,0,L|280:281,1,60.0000022888184,8|0,0:0|0:0,0:0:0:0:
179,335,31739,1,0,0:0:0:0:
79,270,31953,2,0,P|123:230|181:215,2,120.000004577637,8|0|0,0:0|0:0|0:0,0:0:0:0:
82,145,33024,102,0,P|74:116|75:87,1,60.0000022888184,8|0,0:0|0:0,0:0:0:0:
206,69,33453,2,0,P|184:90|158:104,1,60.0000022888184,0|8,0:0|0:0,0:0:0:0:
270,19,33881,2,0,L|389:31,1,120.000004577637,0|0,0:0|0:0,0:0:0:0:
477,136,34524,1,2,0:0:0:0:
468,158,34631,1,2,0:0:0:0:
460,180,34739,102,0,L|465:239,1,60.0000022888184,6|0,0:0|0:0,0:0:0:0:
355,226,35167,2,0,P|361:255|360:284,1,60.0000022888184,0|8,0:0|0:0,0:0:0:0:
303,187,35489,2,0,P|323:209|337:235,1,60.0000022888184,0|0,0:0|0:0,0:0:0:0:
239,171,35810,1,0,0:0:0:0:
239,171,36024,1,0,0:0:0:0:
271,303,36239,1,8,0:0:0:0:
145,269,36453,6,0,L|152:209,1,60.0000022888184,8|0,0:0|0:0,0:0:0:0:
79,129,36881,1,0,0:0:0:0:
5,209,37096,2,0,L|12:268,1,60.0000022888184,8|0,0:0|0:0,0:0:0:0:
144,372,37524,1,0,0:0:0:0:
153,350,37631,1,0,0:0:0:0:
158,326,37739,2,0,P|156:296|145:269,1,60.0000022888184,0|8,0:0|0:0,0:0:0:0:
5,209,38167,5,8,0:0:0:0:
112,233,38381,1,0,0:0:0:0:
179,145,38596,1,0,0:0:0:0:
286,169,38810,2,0,P|330:165|374:150,1,90.0000034332277,8|0,0:0|0:0,0:0:0:0:
456,182,39239,1,0,0:0:0:0:
457,205,39346,1,0,0:0:0:0:
458,228,39453,2,0,P|429:226|401:216,1,60.0000022888184,0|8,0:0|0:0,0:0:0:0:
383,54,39881,86,0,P|354:56|326:66,1,60.0000022888184,8|0,0:0|0:0,0:0:0:0:
286,169,40310,1,0,0:0:0:0:
179,145,40524,2,0,L|168:25,1,120.000004577637,8|0,0:0|0:0,0:0:0:0:
74,123,41167,2,0,L|79:63,1,60.0000022888184,8|2,0:0|0:0,0:0:0:0:
34,219,41596,6,0,P|63:224|93:224,1,60.0000022888184,14|0,0:0|0:0,0:0:0:0:
238,150,42024,2,0,P|208:144|179:145,1,60.0000022888184,0|8,0:0|0:0,0:0:0:0:
288,202,42453,1,0,0:0:0:0:
293,225,42560,1,0,0:0:0:0:
290,248,42667,1,0,0:0:0:0:
280,270,42774,1,0,0:0:0:0:
263,287,42881,2,0,L|267:346,1,60.0000022888184,8|8,0:0|0:0,0:0:0:0:
386,373,43310,6,0,L|390:313,1,60.0000022888184,8|0,0:0|0:0,0:0:0:0:
442,210,43739,1,0,0:0:0:0:
355,136,43953,2,0,L|295:140,1,60.0000022888184,8|0,0:0|0:0,0:0:0:0:
413,112,44274,2,0,L|384:113,2,30.0000011444092,0|0|0,0:0|0:0|0:0,0:0:0:0:
474,88,44596,1,0,0:0:0:0:
474,88,44810,1,8,0:0:0:0:
309,27,45024,85,8,0:0:0:0:
208,100,45239,1,0,0:0:0:0:
102,37,45453,1,0,0:0:0:0:
4,112,45667,2,0,L|8:171,1,60.0000022888184,8|0,0:0|0:0,0:0:0:0:
51,283,46096,2,0,L|55:342,2,60.0000022888184,0|0|8,0:0|0:0|0:0,0:0:0:0:
167,220,46739,102,0,P|196:226|226:224,1,60.0000022888184,8|0,0:0|0:0,0:0:0:0:
335,166,47167,1,8,0:0:0:0:
291,8,47381,2,0,P|261:1|231:3,1,60.0000022888184,8|8,0:0|0:0,0:0:0:0:
116,63,47810,1,8,0:0:0:0:
226,224,48024,2,0,L|216:134,1,90.0000034332277,8|0,0:0|0:0,0:0:0:0:
253,71,48453,53,8,0:0:0:0:
284,76,48560,1,0,0:0:0:0:
315,82,48667,2,0,L|354:79,1,40,10|0,0:0|0:0,0:0:0:0:
429,14,48881,2,0,P|420:52|428:91,1,80,0|2,0:0|0:0,0:0:0:0:
489,257,49310,2,0,L|496:217,1,40,0|0,0:0|0:0,0:0:0:0:
418,267,49524,2,0,L|402:230,1,40,2|0,0:0|0:0,0:0:0:0:
370,319,49739,2,0,L|290:308,1,80,0|2,0:0|0:0,0:0:0:0:
105,285,50167,53,8,0:0:0:0:
117,255,50274,1,0,0:0:0:0:
129,225,50381,2,0,L|122:185,1,40,10|0,0:0|0:0,0:0:0:0:
54,218,50596,1,0,0:0:0:0:
42,188,50703,2,0,L|48:148,1,40,0|2,0:0|0:0,0:0:0:0:
120,117,50917,1,0,0:0:0:0:
151,123,51024,2,0,P|182:147|192:184,1,80,0|2,0:0|0:0,0:0:0:0:
240,113,51346,1,0,0:0:0:0:
240,113,51453,2,0,L|230:33,1,80,0|2,0:0|0:0,0:0:0:0:
397,68,51881,53,8,0:0:0:0:
392,100,51989,1,0,0:0:0:0:
387,131,52096,2,0,L|391:170,1,40,10|0,0:0|0:0,0:0:0:0:
457,253,52310,2,0,P|419:240|379:244,1,80,0|2,0:0|0:0,0:0:0:0:
178,288,52739,2,0,P|215:300|255:296,1,80,0|2,0:0|0:0,0:0:0:0:
131,94,53167,1,0,0:0:0:0:
126,126,53275,1,0,0:0:0:0:
121,157,53382,2,0,L|125:196,1,40,2|0,0:0|0:0,0:0:0:0:
222,223,53596,6,0,L|211:143,1,80,12|0,0:0|0:0,0:0:0:0:
102,314,54024,1,8,0:0:0:0:
244,376,54239,2,0,L|254:296,1,80,4|0,0:0|0:0,0:0:0:0:
276,273,54560,1,8,0:0:0:0:
298,250,54667,1,2,0:0:0:0:
456,348,54881,1,8,0:0:0:0:
426,360,54989,1,8,0:0:0:0:
394,359,55096,1,2,0:0:0:0:
385,152,55310,101,12,0:0:0:0:
298,250,55524,2,0,L|258:245,1,40,10|0,0:0|0:0,0:0:0:0:
196,196,55739,1,0,0:0:0:0:
183,225,55846,1,0,0:0:0:0:
181,256,55953,1,2,0:0:0:0:
191,286,56060,1,0,0:0:0:0:
214,307,56167,2,0,L|203:386,1,80,0|2,0:0|0:0,0:0:0:0:
125,369,56489,1,0,0:0:0:0:
125,369,56596,2,0,L|120:329,1,40,0|0,0:0|0:0,0:0:0:0:
117,297,56810,1,2,0:0:0:0:
29,97,57024,53,8,0:0:0:0:
60,103,57131,1,0,0:0:0:0:
91,109,57239,2,0,L|130:105,1,40,10|0,0:0|0:0,0:0:0:0:
199,162,57453,1,0,0:0:0:0:
199,162,57560,2,0,L|278:171,1,80,0|0,0:0|0:0,0:0:0:0:
353,134,57881,2,0,P|352:114|347:94,1,40,0|0,0:0|0:0,0:0:0:0:
422,189,58096,2,0,P|432:172|437:152,1,40,2|0,0:0|0:0,0:0:0:0:
446,73,58310,2,0,L|437:152,1,80,0|2,0:0|0:0,0:0:0:0:
484,330,58739,53,8,0:0:0:0:
372,258,58953,1,10,0:0:0:0:
340,264,59060,1,0,0:0:0:0:
311,279,59167,1,0,0:0:0:0:
291,303,59274,2,0,L|282:224,1,80,0|0,0:0|0:0,0:0:0:0:
199,138,59596,2,0,L|235:153,1,40,0|0,0:0|0:0,0:0:0:0:
345,121,59810,2,0,L|312:144,1,40,2|0,0:0|0:0,0:0:0:0:
291,303,60024,2,0,L|282:224,1,80,0|2,0:0|0:0,0:0:0:0:
208,58,60453,6,0,L|199:137,1,80,4|0,0:0|0:0,0:0:0:0:
281,223,60881,1,8,0:0:0:0:
424,130,61096,2,0,L|345:121,1,80,4|8,0:0|0:2,0:0:0:0:
349,156,61417,1,8,0:2:0:0:
370,181,61524,1,8,0:2:0:0:
381,219,61631,1,8,0:2:0:0:
377,263,61739,1,8,0:2:0:0:
345,304,61846,1,8,0:2:0:0:
289,325,61953,1,8,0:2:0:0:
226,310,62060,1,8,0:2:0:0:
180,258,62167,102,0,L|171:162,1,95.9999970703126,12|0,0:0|0:0,0:0:0:0:
111,19,62596,1,8,0:0:0:0:
202,66,62810,1,2,0:0:0:0:
239,73,62917,1,10,0:0:0:0:
276,81,63024,2,0,L|372:72,1,95.9999970703126,2|2,0:0|0:0,0:0:0:0:
491,183,63453,1,8,0:0:0:0:
469,86,63667,1,2,0:0:0:0:
328,165,63881,5,2,0:0:0:0:
402,235,64096,1,2,0:0:0:0:
371,72,64310,1,8,0:0:0:0:
328,165,64524,1,0,0:0:0:0:
290,172,64631,1,8,0:0:0:0:
251,164,64739,1,2,0:0:0:0:
216,146,64846,1,8,0:0:0:0:
177,147,64953,1,2,0:0:0:0:
210,314,65167,2,0,P|217:267|200:222,1,95.9999970703126,8|0,0:0|0:0,0:0:0:0:
127,204,65489,1,0,0:0:0:0:
127,204,65596,102,0,P|97:240|52:257,1,95.9999970703126,2|0,0:0|0:0,0:0:0:0:
104,128,66024,2,0,P|57:120|20:90,1,95.9999970703126,8|2,0:0|0:0,0:0:0:0:
55,23,66346,1,2,0:0:0:0:
55,23,66453,2,0,L|149:38,1,95.9999970703126,2|2,0:0|0:0,0:0:0:0:
256,12,66881,1,8,0:0:0:0:
378,113,67096,1,8,0:0:0:0:
370,76,67203,1,8,0:0:0:0:
363,39,67310,5,14,0:0:0:0:
258,174,67524,1,0,0:0:0:0:
256,12,67739,1,8,0:0:0:0:
345,193,67953,2,0,L|201:206,1,143.999995605469,6|0,0:0|0:0,0:0:0:0:
248,250,68381,2,0,L|152:244,1,95.9999970703126,2|8,0:0|0:2,0:0:0:0:
116,227,68703,1,8,0:2:0:0:
65,235,68810,1,8,0:2:0:0:
24,288,68917,1,8,0:2:0:0:
101,306,69024,102,0,B|143:226|107:145|107:145|94:168|95:167,1,191.999994140625,6|8,0:0|0:0,0:0:0:0:
248,250,69667,1,2,0:0:0:0:
242,211,69774,1,2,0:0:0:0:
236,171,69881,2,0,P|240:124|263:82,1,95.9999970703126,2|2,0:0|0:0,0:0:0:0:
444,105,70310,1,8,0:0:0:0:
346,157,70524,1,2,0:0:0:0:
454,197,70739,6,0,P|458:149|443:104,1,95.9999970703126,2|2,0:0|0:0,0:0:0:0:
263,82,71167,1,8,0:0:0:0:
156,129,71381,1,0,0:0:0:0:
133,160,71489,1,8,0:0:0:0:
96,170,71596,1,2,0:0:0:0:
60,154,71703,1,8,0:0:0:0:
44,118,71810,1,2,0:0:0:0:
56,81,71917,1,0,0:0:0:0:
87,59,72024,2,0,L|182:48,1,95.9999970703126,8|0,0:0|0:0,0:0:0:0:
344,147,72453,101,2,0:0:0:0:
234,159,72667,1,0,0:0:0:0:
366,30,72881,1,8,0:0:0:0:
416,132,73096,1,8,0:0:0:0:
382,148,73203,1,8,0:0:0:0:
344,147,73310,2,0,L|349:242,1,95.9999970703126,2|2,0:0|0:0,0:0:0:0:
420,341,73739,2,0,B|464:326|464:326|415:324,1,95.9999970703126,8|8,0:0|0:0,0:0:0:0:
372,345,74060,1,8,0:2:0:0:
315,342,74167,5,12,0:2:0:0:
262,304,74274,1,8,0:2:0:0:
244,237,74381,1,8,0:2:0:0:
349,242,74596,1,8,0:2:0:0:
289,384,74810,38,0,L|280:161,1,223.999993164063,6|8,0:2|0:2,0:0:0:0:
162,263,75453,1,8,0:2:0:0:
117,275,75560,1,8,0:2:0:0:
65,263,75667,1,8,0:2:0:0:
28,214,75774,1,8,0:2:0:0:
34,143,75881,86,0,L|129:132,1,95.9999970703126,6|0,0:0|0:0,0:0:0:0:
279,160,76310,1,8,0:0:0:0:
211,107,76524,1,0,0:0:0:0:
205,146,76631,1,8,0:0:0:0:
199,185,76739,2,0,L|210:280,1,95.9999970703126,2|2,0:0|0:0,0:0:0:0:
387,310,77167,1,8,0:0:0:0:
292,336,77381,1,2,0:0:0:0:
299,296,77489,1,2,0:0:0:0:
305,256,77596,6,0,P|340:225|386:213,1,95.9999970703126,2|0,0:0|0:0,0:0:0:0:
286,375,78024,1,8,0:0:0:0:
210,280,78239,1,0,0:0:0:0:
208,241,78346,1,8,0:0:0:0:
222,205,78453,1,2,0:0:0:0:
223,166,78560,1,8,0:0:0:0:
207,130,78667,1,2,0:0:0:0:
51,168,78881,2,0,P|95:185|143:183,1,95.9999970703126,8|0,0:0|0:0,0:0:0:0:
66,76,79203,1,0,0:0:0:0:
66,76,79310,70,0,P|48:120|51:167,1,95.9999970703126,2|0,0:0|0:0,0:0:0:0:
157,91,79739,2,0,P|159:138|142:182,1,95.9999970703126,8|8,0:0|0:0,0:0:0:0:
66,76,80060,1,8,0:0:0:0:
66,76,80167,2,0,P|113:73|157:90,1,95.9999970703126,2|2,0:0|0:0,0:0:0:0:
222,205,80596,1,8,0:0:0:0:
355,144,80810,1,8,0:0:0:0:
308,148,80917,1,8,0:0:0:0:
260,151,81024,5,6,0:0:0:0:
346,68,81239,1,0,0:0:0:0:
415,218,81453,1,8,0:0:0:0:
499,135,81667,2,0,L|355:144,1,143.999995605469,4|0,0:0|0:0,0:0:0:0:
260,151,82096,2,0,L|356:145,1,95.9999970703126,2|8,0:0|0:2,0:0:0:0:
390,170,82417,1,8,0:2:0:0:
415,218,82524,1,8,0:2:0:0:
414,280,82631,1,8,0:2:0:0:
375,346,82739,102,0,P|336:277|415:281,1,191.999994140625,6|8,0:0|0:0,0:0:0:0:
261,314,83381,1,0,0:0:0:0:
222,309,83489,1,10,0:0:0:0:
183,303,83596,2,0,P|158:337|193:361,1,95.9999970703126,2|2,0:0|0:0,0:0:0:0:
221,189,84024,1,8,0:0:0:0:
104,212,84239,1,0,0:0:0:0:
276,235,84453,86,0,L|268:139,1,95.9999970703126,8|0,0:0|0:0,0:0:0:0:
237,29,84774,2,0,L|240:76,1,47.9999985351563,0|0,0:0|0:0,0:0:0:0:
338,149,84989,1,0,0:0:0:0:
332,112,85096,1,0,0:0:0:0:
309,83,85203,1,0,0:0:0:0:
221,143,85310,2,0,L|268:139,1,47.9999985351563,0|0,0:0|0:0,0:0:0:0:
385,145,85524,2,0,L|337:148,1,47.9999985351563,0|0,0:0|0:0,0:0:0:0:
450,98,85739,2,0,B|478:138|459:184|459:184|449:207|457:237,1,143.999995605469,0|0,0:0|0:0,0:0:0:0:
472,266,86167,21,14,0:0:0:0:
256,192,86274,12,0,93024,0:0:0:0:
