osu file format v14

[General]
AudioFilename: audio.mp3
AudioLeadIn: 0
PreviewTime: 48346
Countdown: 0
SampleSet: Soft
StackLeniency: 0.4
Mode: 0
LetterboxInBreaks: 0
WidescreenStoryboard: 1

[Editor]
Bookmarks: 21024,34739,58846
DistanceSpacing: 1.6
BeatDivisor: 4
GridSize: 4
TimelineZoom: 1.7

[Metadata]
Title:again
TitleUnicode:again
Artist:YUI
ArtistUnicode:YUI
Creator:FoxyGrandpa
Version:KKip's Insane
Source:鋼の錬金術師 FULLMETAL ALCHEMIST
Tags:full metal alchemist brotherhood osuskrub finshie kkipalt asaiga cheesecake rizen aqpw sulfur su1fu7 zero zer0- 0 underforest gero TV size opening
BeatmapID:1351491
BeatmapSetID:623911

[Difficulty]
HPDrainRate:5.6
CircleSize:3.8
OverallDifficulty:7.7
ApproachRate:8.9
SliderMultiplier:1.8
SliderTickRate:1

[Events]
//Background and Video events
0,0,"73729.jpg",0,0
Video,-320,"Fullmetal Alchemist Brotherhood Opening 1 HD.flv"
//Break Periods
//Storyboard Layer 0 (Background)
//Storyboard Layer 1 (Fail)
//Storyboard Layer 2 (Pass)
//Storyboard Layer 3 (Foreground)
//Storyboard Sound Samples

[TimingPoints]
-1261,428.571428571429,4,2,1,40,1,0
453,-200,4,2,4,40,0,0
6881,-133.333333333333,4,2,4,40,0,0
7310,-166.666666666667,4,2,4,40,0,0
11810,-100,4,2,4,40,0,0
12024,-100,4,2,3,40,0,0
12453,-90.9090909090909,4,2,3,50,0,0
21024,-133.333333333333,4,2,3,40,0,0
21131,-133.333333333333,4,2,2,40,0,0
47381,-133.333333333333,4,2,2,43,0,0
47596,-133.333333333333,4,2,2,46,0,0
47810,-133.333333333333,4,2,2,49,0,0
48024,-90.9090909090909,4,2,3,55,0,0
48453,-90.9090909090909,4,2,7,55,0,0
55096,-90.9090909090909,4,2,3,55,0,0
55310,-90.9090909090909,4,2,7,55,0,0
60453,-83.3333333333333,4,2,3,50,0,1
61310,-100,4,2,3,40,0,0
61417,-100,4,2,3,42,0,0
61524,-100,4,2,3,44,0,0
61631,-100,4,2,3,46,0,0
61739,-100,4,2,3,48,0,0
61846,-100,4,2,3,50,0,0
61953,-100,4,2,3,52,0,0
62060,-100,4,2,3,54,0,0
62167,-66.6666666666667,4,2,3,60,0,1
75239,-66.6666666666667,4,2,3,60,0,0
75881,-66.6666666666667,4,2,3,60,0,1
84346,-66.6666666666667,4,2,3,5,0,1
84453,-133.333333333333,4,2,3,60,0,0
85310,-100,4,2,3,60,0,0
86167,-100,4,2,3,60,0,1
86274,-100,4,2,3,30,0,0
89596,-100,4,2,1,20,0,0
91310,-100,4,2,1,10,0,0
93024,-100,4,2,1,5,0,0

[Colours]
Combo1 : 128,128,128
Combo2 : 255,28,28
Combo3 : 128,0,0
Combo4 : 128,255,128
Combo5 : 128,255,255
Combo6 : 68,68,68
Combo7 : 128,128,192
Combo8 : 187,187,119

[HitObjects]
328,256,453,38,0,P|345:358|369:387,2,135,8|8|8,0:0|0:0|0:0,0:0:0:0:
232,171,2167,2,0,P|215:273|191:302,2,135,8|8|8,0:0|0:0|0:0,0:0:0:0:
397,87,3667,1,0,0:0:0:0:
381,103,3881,6,0,L|273:93,1,90,8|0,0:0|0:0,0:0:0:0:
197,83,4524,2,0,L|89:73,1,90,8|0,0:0|0:0,0:0:0:0:
84,93,5167,2,0,L|39:89,1,45,8|0,0:0|0:0,0:0:0:0:
0,16,5596,1,8,0:0:0:0:
0,176,5810,2,0,L|44:172,1,45,2|2,0:0|0:0,0:0:0:0:
106,231,6239,2,0,B|151:233|151:233|206:223,1,90,10|2,0:0|0:0,0:0:0:0:
276,144,6881,2,0,L|286:249,1,101.250003862381,8|0,0:0|0:0,0:0:0:0:
264,282,7310,102,0,P|386:302|421:331,2,161.999995056153,8|8|8,0:0|0:0|0:0,0:0:0:0:
512,160,9024,2,0,P|389:180|354:209,2,161.999995056153,8|8|0,0:0|0:0|0:0,0:0:0:0:
375,77,10524,1,0,0:0:0:0:
306,127,10739,6,0,L|174:115,1,107.999996704102,8|0,0:0|0:0,0:0:0:0:
113,109,11381,2,0,L|44:102,1,53.9999983520508,8|0,0:0|0:0,0:0:0:0:
0,221,11810,2,0,L|59:215,1,45,8|0,0:0|0:0,0:0:0:0:
83,189,12024,2,0,P|91:244|133:284,1,90,8|0,0:0|0:0,0:0:0:0:
267,321,12453,70,0,P|168:319|72:341,1,198.000006042481,4|8,0:0|0:0,0:0:0:0:
172,205,13096,1,0,0:0:0:0:
184,206,13203,1,0,0:0:0:0:
196,207,13310,1,2,0:0:0:0:
179,338,13524,1,2,0:0:0:0:
128,108,13739,1,8,0:0:0:0:
196,207,13953,6,0,P|304:239|412:199,1,198.000006042481,0|2,0:0|0:0,0:0:0:0:
436,32,14596,1,8,0:0:0:0:
318,90,14810,2,0,L|323:149,1,49.5000015106202,0|8,0:0|0:0,0:0:0:0:
384,206,15024,2,0,L|378:265,2,49.5000015106202,2|8|2,0:0|0:0|0:0,0:0:0:0:
316,76,15453,2,0,L|216:80,1,99.0000030212403,8|2,0:0|0:0,0:0:0:0:
16,114,15881,102,0,P|112:120|199:183,1,198.000006042481,2|8,0:0|0:0,0:0:0:0:
173,32,16524,1,2,0:0:0:0:
161,33,16631,1,2,0:0:0:0:
149,34,16738,1,2,0:0:0:0:
192,196,16953,1,2,0:0:0:0:
305,2,17168,1,8,0:0:0:0:
350,92,17381,54,0,P|422:116|512:96,1,148.50000453186,4|0,0:0|0:0,0:0:0:0:
504,88,17810,1,8,0:0:0:0:
429,256,18024,2,0,L|417:128,1,99.0000030212403,8|8,0:0|0:0,0:0:0:0:
507,311,18453,1,2,0:0:0:0:
306,384,18667,1,2,0:0:0:0:
507,311,18881,1,2,0:0:0:0:
307,384,19095,1,2,0:0:0:0:
340,274,19310,54,0,L|346:192,2,49.5000015106202,8|8|8,0:0|0:0|0:0,0:0:0:0:
333,375,19739,1,8,0:0:0:0:
243,217,19953,2,0,L|236:135,2,49.5000015106202,8|8|8,0:0|0:0|0:0,0:0:0:0:
250,318,20382,1,8,0:0:0:0:
137,174,20596,2,0,L|117:94,2,49.5000015106202,8|8|2,0:0|0:0|0:0,0:0:0:0:
159,272,21024,86,0,P|124:236|40:240,1,135.000005149842,4|0,0:0|0:0,0:0:0:0:
134,352,21667,2,0,P|169:316|253:320,1,135.000005149842,8|0,0:0|0:0,0:0:0:0:
314,377,22310,1,0,0:0:0:0:
306,217,22524,1,0,0:0:0:0:
355,285,22739,6,0,P|391:297|443:297,2,67.5000025749208,8|0|0,0:0|0:0|0:0,0:0:0:0:
293,209,23381,2,0,P|257:221|205:221,2,67.5000025749208,8|0|0,0:0|0:0|0:0,0:0:0:0:
342,77,24024,2,0,L|348:1,1,67.5000025749208,0|0,0:0|0:0,0:0:0:0:
157,95,24453,102,0,P|192:131|276:127,1,135.000005149842,8|0,0:0|0:0,0:0:0:0:
129,183,25096,2,0,P|85:191|49:184,1,67.5000025749208,8|0,0:0|0:0,0:0:0:0:
24,116,25524,1,0,0:0:0:0:
11,251,25739,1,0,0:0:0:0:
36,106,25953,1,0,0:0:0:0:
75,312,26167,6,0,P|111:324|163:324,1,67.5000025749208,8|0,0:0|0:0,0:0:0:0:
216,292,26596,1,0,0:0:0:0:
171,146,26810,1,8,0:0:0:0:
315,186,27024,2,0,P|279:198|227:198,1,67.5000025749208,0|0,0:0|0:0,0:0:0:0:
373,59,27453,1,8,0:0:0:0:
364,251,27667,1,0,0:0:0:0:
185,131,27881,102,0,B|118:124|118:124|50:132,1,135.000005149842,8|0,0:0|0:0,0:0:0:0:
118,274,28524,2,0,P|119:240|118:198,2,67.5000025749208,8|0|0,0:0|0:0|0:0,0:0:0:0:
50,132,29167,1,0,0:0:0:0:
21,333,29381,1,0,0:0:0:0:
107,284,29596,6,0,B|173:277|173:277|241:285,1,135.000005149842,8|0,0:0|0:0,0:0:0:0:
365,351,30239,2,0,P|321:359|285:352,1,67.5000025749208,8|0,0:0|0:0,0:0:0:0:
357,238,30667,1,0,0:0:0:0:
448,372,30881,1,0,0:0:0:0:
436,295,31096,101,0,0:0:0:0:
436,295,31203,1,0,0:0:0:0:
436,295,31310,2,0,P|480:303|516:296,2,67.5000025749208,8|0|0,0:0|0:0|0:0,0:0:0:0:
363,155,31953,2,0,L|368:87,1,67.5000025749208,8|0,0:0|0:0,0:0:0:0:
278,276,32381,2,0,L|272:208,1,67.5000025749208,0|0,0:0|0:0,0:0:0:0:
356,240,32810,1,0,0:0:0:0:
200,352,33024,6,0,P|164:355|108:352,1,67.5000025749208,8|0,0:0|0:0,0:0:0:0:
69,294,33453,1,0,0:0:0:0:
135,127,33667,1,8,0:0:0:0:
0,173,33881,2,0,P|35:176|92:173,1,67.5000025749208,0|0,0:0|0:0,0:0:0:0:
135,127,34310,1,0,0:0:0:0:
89,20,34524,2,0,L|83:83,1,33.7500012874604,2|2,0:0|0:0,0:0:0:0:
135,127,34739,86,0,P|157:133|219:123,1,67.5000025749208,6|0,0:0|0:0,0:0:0:0:
258,58,35167,2,0,L|342:54,1,67.5000025749208,0|8,0:0|0:0,0:0:0:0:
354,77,35489,2,0,L|438:73,1,67.5000025749208,0|0,0:0|0:0,0:0:0:0:
445,47,35810,1,0,0:0:0:0:
452,224,36024,1,0,0:0:0:0:
510,110,36239,1,8,0:0:0:0:
352,172,36453,22,0,P|336:236|336:268,2,67.5000025749208,8|0|0,0:0|0:0|0:0,0:0:0:0:
404,320,37096,1,8,0:0:0:0:
312,352,37310,2,0,L|228:348,1,67.5000025749208,0|0,0:0|0:0,0:0:0:0:
226,328,37631,1,0,0:0:0:0:
226,328,37739,2,0,L|142:332,1,67.5000025749208,0|8,0:0|0:0,0:0:0:0:
62,369,38167,86,0,P|38:309|34:285,1,67.5000025749208,8|0,0:0|0:0,0:0:0:0:
168,192,38596,2,0,P|152:232|137:262,1,67.5000025749208,0|8,0:0|0:0,0:0:0:0:
45,118,39024,1,0,0:0:0:0:
45,118,39131,1,0,0:0:0:0:
45,118,39239,2,0,L|40:66,2,33.7500012874604,0|0|0,0:0|0:0|0:0,0:0:0:0:
57,206,39667,1,8,0:0:0:0:
168,104,39881,102,0,P|195:99|248:96,1,67.5000025749208,8|0,0:0|0:0,0:0:0:0:
312,145,40310,1,0,0:0:0:0:
486,56,40524,2,0,P|430:44|354:68,1,135.000005149842,8|0,0:0|0:0,0:0:0:0:
433,212,41167,2,0,L|429:128,1,67.5000025749208,8|2,0:0|0:0,0:0:0:0:
309,277,41596,6,0,P|331:283|393:273,1,67.5000025749208,14|0,0:0|0:0,0:0:0:0:
282,185,42024,2,0,L|198:189,1,67.5000025749208,0|8,0:0|0:0,0:0:0:0:
189,211,42346,1,0,0:0:0:0:
188,211,42453,2,0,L|127:208,2,33.7500012874604,0|0|0,0:0|0:0|0:0,0:0:0:0:
238,83,42881,1,8,0:0:0:0:
236,283,43096,1,8,0:0:0:0:
106,138,43310,22,0,P|42:121|10:122,2,67.5000025749208,8|0|0,0:0|0:0|0:0,0:0:0:0:
4,36,43953,1,8,0:0:0:0:
41,211,44167,2,0,L|37:295,1,67.5000025749208,0|0,0:0|0:0,0:0:0:0:
17,297,44488,1,0,0:0:0:0:
17,297,44596,2,0,L|21:381,1,67.5000025749208,0|8,0:0|0:0,0:0:0:0:
114,330,45024,86,0,P|147:326|179:316,1,67.5000025749208,8|0,0:0|0:0,0:0:0:0:
320,376,45453,2,0,P|286:374|253:368,2,67.5000025749208,0|8|0,0:0|0:0|0:0,0:0:0:0:
385,246,46096,2,0,L|378:325,1,67.5000025749208,0|0,0:0|0:0,0:0:0:0:
322,185,46524,1,8,0:0:0:0:
509,196,46738,102,0,P|506:162|501:129,1,67.5000025749208,8|0,0:0|0:0,0:0:0:0:
335,94,47167,1,8,0:0:0:0:
385,246,47381,1,8,0:0:0:0:
424,32,47596,1,8,0:0:0:0:
200,152,47810,1,8,0:0:0:0:
371,154,48024,2,0,L|209:168,1,148.50000453186,8|0,0:0|0:0,0:0:0:0:
160,232,48453,54,0,L|92:226,1,49.5000015106202,8|0,0:0|0:0,0:0:0:0:
0,296,48667,2,0,L|67:290,1,49.5000015106202,10|0,0:0|0:0,0:0:0:0:
128,352,48881,53,0,0:0:0:0:
156,328,48988,1,0,0:0:0:0:
190,314,49095,1,2,0:0:0:0:
227,312,49202,1,0,0:0:0:0:
263,321,49310,2,0,P|287:327|330:326,3,49.5000015106202,0|0|2|0,0:0|0:0|0:0|0:0,0:0:0:0:
395,261,49739,2,0,L|401:360,1,99.0000030212403,0|2,0:0|0:0,0:0:0:0:
490,195,50167,54,0,L|495:127,1,49.5000015106202,8|0,0:0|0:0,0:0:0:0:
382,20,50381,2,0,L|387:87,1,49.5000015106202,10|0,0:0|0:0,0:0:0:0:
408,156,50596,101,0,0:0:0:0:
373,143,50703,1,0,0:0:0:0:
336,140,50810,1,2,0:0:0:0:
300,147,50917,1,0,0:0:0:0:
266,163,51024,2,0,P|242:169|198:168,3,49.5000015106202,0|0|2|0,0:0|0:0|0:0|0:0,0:0:0:0:
142,115,51453,2,0,B|129:96|129:96|136:213,1,99.0000030212403,0|2,0:0|0:0,0:0:0:0:
48,340,51881,6,0,L|53:272,1,49.5000015106202,8|0,0:0|0:0,0:0:0:0:
195,253,52095,2,0,L|200:320,1,49.5000015106202,10|0,0:0|0:0,0:0:0:0:
146,375,52310,53,0,0:0:0:0:
170,377,52417,1,0,0:0:0:0:
195,379,52524,2,0,L|262:384,1,49.5000015106202,2|0,0:0|0:0,0:0:0:0:
300,319,52739,2,0,L|367:313,1,49.5000015106202,0|0,0:0|0:0,0:0:0:0:
409,378,52953,1,2,0:0:0:0:
433,376,53060,1,0,0:0:0:0:
458,374,53167,2,0,L|525:368,2,49.5000015106202,0|0|2,0:0|0:0|0:0,0:0:0:0:
430,116,53596,70,0,B|411:227|411:227|418:292,1,148.50000453186,12|0,0:0|0:0,0:0:0:0:
438,288,54024,1,8,0:0:0:0:
512,200,54239,1,4,0:0:0:0:
296,184,54453,1,0,0:0:0:0:
296,184,54560,1,8,0:0:0:0:
296,184,54667,1,2,0:0:0:0:
388,8,54881,1,8,0:0:0:0:
388,32,54988,1,8,0:0:0:0:
389,57,55095,1,2,0:0:0:0:
390,82,55202,1,2,0:0:0:0:
391,106,55310,102,0,L|341:109,1,49.5000015106202,12|0,0:0|0:0,0:0:0:0:
205,18,55524,2,0,L|254:21,1,49.5000015106202,10|0,0:0|0:0,0:0:0:0:
193,128,55739,101,0,0:0:0:0:
158,140,55846,1,0,0:0:0:0:
121,143,55953,1,2,0:0:0:0:
85,136,56060,1,0,0:0:0:0:
52,118,56167,2,0,B|45:63|45:63|64:-21,1,99.0000030212403,0|2,0:0|0:0,0:0:0:0:
193,128,56489,1,0,0:0:0:0:
208,140,56596,2,0,B|215:195|215:195|195:279,1,99.0000030212403,0|2,0:0|0:0,0:0:0:0:
66,253,57024,6,0,L|116:250,1,49.5000015106202,8|0,0:0|0:0,0:0:0:0:
293,317,57238,2,0,L|244:314,1,49.5000015106202,10|0,0:0|0:0,0:0:0:0:
322,238,57453,53,0,0:0:0:0:
353,257,57560,1,0,0:0:0:0:
372,288,57667,1,2,0:0:0:0:
376,325,57774,1,0,0:0:0:0:
364,360,57881,1,0,0:0:0:0:
387,322,57988,1,0,0:0:0:0:
422,301,58095,1,2,0:0:0:0:
465,297,58202,1,0,0:0:0:0:
505,310,58310,2,0,B|500:212,1,99.0000030212403,0|2,0:0|0:0,0:0:0:0:
440,108,58739,54,0,L|490:105,1,49.5000015106202,8|0,0:0|0:0,0:0:0:0:
371,241,58953,2,8,L|322:238,1,49.5000015106202,10|0,0:0|0:0,0:0:0:0:
221,190,59167,102,0,P|205:142|205:118,2,49.5000015106202,0|0|2,0:0|0:0|0:0,0:0:0:0:
303,95,59489,1,0,0:0:0:0:
315,77,59596,2,0,P|318:26|311:3,3,49.5000015106202,0|0|2|0,0:0|0:0|0:0|0:0,0:0:0:0:
211,36,60024,2,0,L|91:48,1,99.0000030212403,0|2,0:0|0:0,0:0:0:0:
0,120,60453,22,0,B|117:131|117:131|95:132|74:141,1,161.999995056153,4|0,0:0|0:0,0:0:0:0:
63,161,60881,1,8,0:0:0:0:
267,180,61096,2,0,B|182:188|182:188|198:188|213:195,1,107.999996704102,4|8,0:0|0:2,0:0:0:0:
225,217,61417,1,8,0:2:0:0:
234,249,61524,1,8,0:2:0:0:
230,283,61631,1,8,0:2:0:0:
212,311,61738,1,8,0:2:0:0:
257,279,61846,1,8,0:2:0:0:
312,280,61953,1,8,0:2:0:0:
356,314,62060,1,8,0:2:0:0:
372,367,62167,102,0,P|460:387|540:351,1,135.000005149842,12|0,0:0|0:0,0:0:0:0:
492,179,62596,1,8,0:0:0:0:
459,301,62810,1,2,0:0:0:0:
379,108,63024,2,0,P|329:65|195:70,1,202.500007724762,2|0,0:0|0:0,0:0:0:0:
179,91,63453,1,8,0:0:0:0:
242,282,63667,5,2,0:0:0:0:
242,282,63774,1,2,0:0:0:0:
242,282,63881,2,0,L|256:131,1,135.000005149842,2|2,0:0|0:0,0:0:0:0:
150,228,64310,1,8,0:0:0:0:
346,253,64524,1,0,0:0:0:0:
346,253,64631,1,8,0:0:0:0:
346,253,64739,2,0,L|353:336,1,67.5000025749208,2|8,0:0|0:0,0:0:0:0:
235,368,64953,1,2,0:0:0:0:
448,332,65167,1,8,0:0:0:0:
368,132,65381,101,0,0:0:0:0:
368,132,65489,1,0,0:0:0:0:
368,132,65596,1,2,0:0:0:0:
451,221,65810,1,0,0:0:0:0:
512,66,66024,2,0,L|439:73,1,67.5000025749208,8|0,0:0|0:0,0:0:0:0:
368,132,66239,2,0,L|300:125,2,67.5000025749208,2|2|2,0:0|0:0|0:0,0:0:0:0:
444,72,66667,1,2,0:0:0:0:
242,63,66881,2,0,P|214:123|241:185,1,135.000005149842,8|8,0:0|0:0,0:0:0:0:
275,204,67203,1,8,0:0:0:0:
275,204,67310,6,0,B|209:190|209:190|135:203,1,135.000005149842,14|0,0:0|0:0,0:0:0:0:
306,281,67739,1,8,0:0:0:0:
67,134,67953,2,0,B|53:200|53:200|66:274,1,135.000005149842,6|0,0:0|0:0,0:0:0:0:
192,345,68381,2,0,P|208:266|204:246,1,67.5000025749208,2|0,0:0|0:0,0:0:0:0:
390,283,68596,2,0,B|352:288|352:288|303:290,1,67.5000025749208,8|8,0:2|0:2,0:0:0:0:
262,189,68810,2,0,B|257:151|257:151|255:102,1,67.5000025749208,8|8,0:2|0:2,0:0:0:0:
376,8,69024,102,0,P|392:72|365:132,1,135.000005149842,6|0,0:0|0:0,0:0:0:0:
173,161,69453,1,8,0:0:0:0:
345,148,69667,1,2,0:0:0:0:
84,89,69881,2,0,B|44:161|78:250|78:250|81:221|98:166,1,202.500007724762,2|0,0:0|0:0,0:0:0:0:
11,303,70310,2,0,P|78:331|149:292,1,135.000005149842,8|2,0:0|0:0,0:0:0:0:
343,232,70739,6,0,B|272:232|272:232|192:246,1,135.000005149842,2|2,0:0|0:0,0:0:0:0:
412,366,71167,2,0,L|405:289,1,67.5000025749208,8|0,0:0|0:0,0:0:0:0:
472,232,71382,1,0,0:0:0:0:
472,232,71489,1,8,0:0:0:0:
472,232,71597,2,0,L|479:149,2,67.5000025749208,2|0|0,0:0|0:0|0:0,0:0:0:0:
270,193,72024,2,0,P|262:114|274:54,1,135.000005149842,8|0,0:0|0:0,0:0:0:0:
178,175,72453,102,0,P|111:172|49:148,2,135.000005149842,2|0|8,0:0|0:0|0:0,0:0:0:0:
113,286,73096,2,0,L|106:218,2,67.5000025749208,8|8|2,0:0|0:0|0:0,0:0:0:0:
125,379,73524,1,2,0:0:0:0:
196,168,73739,1,8,0:0:0:0:
239,290,73953,1,8,0:0:0:0:
239,290,74060,1,8,0:2:0:0:
239,290,74167,22,0,L|314:296,1,67.5000025749208,12|8,0:2|0:2,0:0:0:0:
420,376,74381,2,0,L|413:300,1,67.5000025749208,8|0,0:2|0:2,0:0:0:0:
394,87,74596,1,8,0:2:0:0:
372,208,74810,1,6,0:2:0:0:
369,224,74917,1,8,0:2:0:0:
366,241,75024,1,8,0:2:0:0:
329,2,75239,1,8,0:2:0:0:
220,198,75453,1,8,0:2:0:0:
186,211,75560,1,8,0:2:0:0:
151,214,75667,1,8,0:2:0:0:
116,206,75774,1,8,0:2:0:0:
85,189,75881,6,0,P|71:276|88:336,1,135.000005149842,6|0,0:0|0:0,0:0:0:0:
253,352,76310,1,8,0:0:0:0:
108,300,76524,1,0,0:0:0:0:
350,222,76739,2,0,P|393:172|388:38,1,202.500007724762,2|0,0:0|0:0,0:0:0:0:
369,22,77167,1,8,0:0:0:0:
179,73,77381,101,2,0:0:0:0:
179,73,77488,1,2,0:0:0:0:
179,73,77595,2,0,L|330:87,1,135.000005149842,2|0,0:0|0:0,0:0:0:0:
198,160,78024,2,0,L|115:167,1,67.5000025749208,8|0,0:0|0:0,0:0:0:0:
48,112,78239,1,0,0:0:0:0:
48,112,78346,1,8,0:0:0:0:
48,112,78453,2,0,L|41:195,1,67.5000025749208,2|8,0:0|0:0,0:0:0:0:
13,295,78667,2,0,P|54:262|136:284,1,135.000005149842,2|8,0:0|0:0,0:0:0:0:
129,287,78989,1,0,0:0:0:0:
129,298,79096,1,0,0:0:0:0:
129,308,79203,1,0,0:0:0:0:
129,319,79310,86,0,L|280:332,1,135.000005149842,2|0,0:0|0:0,0:0:0:0:
464,244,79739,2,0,L|313:257,1,135.000005149842,8|8,0:0|0:0,0:0:0:0:
355,239,80060,1,8,0:0:0:0:
355,239,80167,2,0,P|367:154|323:98,1,135.000005149842,2|2,0:0|0:0,0:0:0:0:
200,48,80596,2,0,L|267:53,1,67.5000025749208,8|0,0:0|0:0,0:0:0:0:
208,176,80810,2,0,B|168:180|168:180|112:176,1,67.5000025749208,8|8,0:0|0:0,0:0:0:0:
81,111,81024,6,0,B|95:177|95:177|82:251,1,135.000005149842,6|0,0:0|0:0,0:0:0:0:
0,79,81453,1,8,0:0:0:0:
149,322,81667,2,0,B|83:336|83:336|9:323,1,135.000005149842,4|0,0:0|0:0,0:0:0:0:
216,263,82095,2,0,P|237:323|228:362,1,67.5000025749208,2|0,0:0|0:0,0:0:0:0:
379,258,82310,2,0,B|341:253|341:253|292:251,1,67.5000025749208,8|8,0:2|0:2,0:0:0:0:
159,180,82524,2,0,B|197:175|197:175|246:173,1,67.5000025749208,8|8,0:2|0:2,0:0:0:0:
310,124,82738,102,0,P|337:64|322:0,1,135.000005149842,6|0,0:0|0:0,0:0:0:0:
411,140,83167,1,8,0:0:0:0:
241,59,83381,1,0,0:0:0:0:
241,59,83489,1,10,0:0:0:0:
241,59,83596,2,0,L|98:43,1,135.000005149842,2|2,0:0|0:0,0:0:0:0:
24,164,84024,2,0,P|91:136|162:175,1,135.000005149842,8|0,0:0|0:0,0:0:0:0:
184,247,84453,54,0,L|178:314,1,67.5000025749208,8|0,0:0|0:0,0:0:0:0:
197,307,84774,2,0,L|192:375,1,67.5000025749208,0|0,0:0|0:0,0:0:0:0:
283,384,85096,2,0,L|277:324,1,33.7500012874604,0|0,0:0|0:0,0:0:0:0:
315,250,85310,2,0,P|367:238|408:244,1,90,0|0,0:0|0:0,0:0:0:0:
482,156,85739,2,0,L|347:159,1,135,0|0,0:0|0:0,0:0:0:0:
326,148,86167,21,14,0:0:0:0:
256,192,86274,12,0,93024,0:0:0:0:
