osu file format v14

[General]
AudioFilename: audio.mp3
AudioLeadIn: 0
PreviewTime: 48346
Countdown: 0
SampleSet: Soft
StackLeniency: 0.4
Mode: 0
LetterboxInBreaks: 0
WidescreenStoryboard: 0

[Editor]
Bookmarks: 21024
DistanceSpacing: 1
BeatDivisor: 4
GridSize: 8
TimelineZoom: 1.7

[Metadata]
Title:again
TitleUnicode:again
Artist:YUI
ArtistUnicode:YUI
Creator:FoxyGrandpa
Version:Insane
Source:鋼の錬金術師 FULLMETAL ALCHEMIST
Tags:full metal alchemist brotherhood osuskrub finshie kkipalt asaiga cheesecake rizen aqpw sulfur su1fu7 zero zer0- 0 underforest gero TV size opening
BeatmapID:1314964
BeatmapSetID:623911

[Difficulty]
HPDrainRate:5
CircleSize:5
OverallDifficulty:8
ApproachRate:9
SliderMultiplier:1.6
SliderTickRate:1

[Events]
//Background and Video events
0,0,"73729.jpg",0,0
Video,-320,"Fullmetal Alchemist Brotherhood Opening 1 HD.flv"
//Break Periods
//Storyboard Layer 0 (Background)
//Storyboard Layer 1 (Fail)
//Storyboard Layer 2 (Pass)
//Storyboard Layer 3 (Foreground)
//Storyboard Sound Samples

[TimingPoints]
-1261,428.571428571429,4,2,1,40,1,0
453,-100,4,2,4,40,0,0
10310,-100,4,2,12,40,0,0
10417,-100,4,2,4,40,0,0
12024,-100,4,2,3,40,0,0
12346,-100,4,2,3,5,0,0
12453,-100,4,2,3,50,0,0
21024,-100,4,2,3,40,0,0
21131,-100,4,2,2,40,0,0
47381,-100,4,2,2,43,0,0
47596,-100,4,2,2,46,0,0
47810,-100,4,2,2,49,0,0
48024,-100,4,2,3,55,0,0
48453,-100,4,2,7,55,0,1
48881,-100,4,2,7,55,0,0
50810,-100,4,2,13,55,0,0
50917,-100,4,2,7,55,0,0
51239,-100,4,2,13,55,0,0
51346,-100,4,2,7,55,0,0
53596,-100,4,2,7,55,0,1
55096,-100,4,2,3,55,0,1
55310,-100,4,2,7,55,0,0
57667,-100,4,2,13,55,0,0
57774,-100,4,2,7,55,0,0
59381,-100,4,2,13,55,0,0
59489,-100,4,2,7,55,0,0
60453,-100,4,2,3,50,0,1
60774,-100,4,2,3,5,0,1
60881,-100,4,2,3,50,0,1
61310,-100,4,2,3,40,0,0
61417,-100,4,2,3,42,0,0
61524,-100,4,2,3,44,0,0
61631,-100,4,2,3,46,0,0
61739,-100,4,2,3,48,0,0
61846,-100,4,2,3,50,0,0
61953,-100,4,2,3,52,0,0
62060,-100,4,2,3,54,0,0
62167,-83.3333333333333,4,2,3,60,0,1
75239,-76.9230769230769,4,2,3,60,0,0
75881,-83.3333333333333,4,2,3,60,0,1
84346,-83.3333333333333,4,2,3,5,0,1
84453,-100,4,2,3,60,0,0
86167,-100,4,2,3,60,0,1
86274,-100,4,2,3,30,0,0
89596,-100,4,2,1,20,0,0
91310,-100,4,2,1,10,0,0
93024,-100,4,2,1,5,0,0

[Colours]
Combo1 : 128,128,128
Combo2 : 255,28,28
Combo3 : 128,0,0
Combo4 : 128,255,128
Combo5 : 128,255,255
Combo6 : 68,68,68
Combo7 : 128,128,192
Combo8 : 187,187,119

[HitObjects]
146,60,239,37,0,0:0:0:0:
146,60,453,2,0,P|171:103|143:204,1,160,8|0,0:0|0:0,0:0:0:0:
211,243,1096,2,0,P|182:271|144:275,1,80,8|0,0:0|0:0,0:0:0:0:
144,353,1524,2,0,P|105:342|82:311,1,80,0|8,0:0|0:0,0:0:0:0:
81,239,1953,1,0,0:0:0:0:
143,203,2167,6,0,P|210:172|280:212,1,160,8|0,0:0|0:0,0:0:0:0:
211,243,2810,2,0,L|211:79,1,160,8|0,0:0|0:0,0:0:0:0:
211,13,3453,1,8,0:0:0:0:
281,98,3667,1,0,0:0:0:0:
281,78,3774,1,0,0:0:0:0:
281,58,3881,101,8,0:0:0:0:
347,176,4096,1,0,0:0:0:0:
384,80,4310,5,0,0:0:0:0:
347,210,4525,1,8,0:0:0:0:
441,168,4739,101,0,0:0:0:0:
323,234,4954,1,0,0:0:0:0:
323,233,5167,2,0,P|361:224|400:233,1,80,8|0,0:0|0:0,0:0:0:0:
283,302,5596,1,8,0:0:0:0:
283,302,5810,6,0,P|255:273|243:235,1,80,2|2,0:0|0:0,0:0:0:0:
201,140,6239,2,0,P|176:215|122:273,1,160,10|2,0:0|0:0,0:0:0:0:
49,305,6881,1,8,0:0:0:0:
113,353,7096,1,0,0:0:0:0:
113,353,7203,1,0,0:0:0:0:
113,353,7310,102,0,P|157:358|199:345,1,80,8|0,0:0|0:0,0:0:0:0:
323,233,7739,2,0,P|279:228|237:241,1,80,0|8,0:0|0:0,0:0:0:0:
247,355,8060,2,0,P|280:308|267:251,1,120
185,276,8596,1,8,0:0:0:0:
236,143,8810,1,8,0:0:0:0:
93,214,9024,6,0,P|77:250|78:290,2,80,8|0|0,0:0|0:0|0:0,0:0:0:0:
186,145,9667,1,8,0:0:0:0:
186,145,9774,2,0,P|181:194|161:228,1,80
97,67,10176,102,0,P|185:30|263:105,1,210,0|8,0:0|0:0,0:0:0:0:
262,100,11167,1,0,0:0:0:0:
222,34,11381,1,8,0:0:0:0:
210,193,11596,1,0,0:0:0:0:
98,71,11810,101,8,0:0:0:0:
262,100,12024,102,0,B|254:126|234:132|234:132|241:154|241:154|221:157|210:196,1,120,8|0,0:0|0:0,0:0:0:0:
336,102,12453,6,0,P|298:36|222:33,1,160,4|8,0:0|0:0,0:0:0:0:
92,128,13096,1,0,0:0:0:0:
102,145,13203,1,0,0:0:0:0:
112,162,13310,1,2,0:0:0:0:
72,94,13524,1,2,0:0:0:0:
132,196,13739,1,8,0:0:0:0:
191,94,13953,102,0,P|191:45|158:16,1,80,0|2,0:0|0:0,0:0:0:0:
132,196,14381,1,2,0:0:0:0:
249,180,14596,1,8,0:0:0:0:
67,156,14810,1,0,0:0:0:0:
59,174,14917,1,8,0:0:0:0:
55,194,15024,1,2,0:0:0:0:
55,214,15131,1,8,0:0:0:0:
57,234,15238,1,2,0:0:0:0:
20,321,15453,2,0,P|72:329|111:316,1,80,8|2,0:0|0:0,0:0:0:0:
269,331,15881,6,0,B|284:279|284:279|240:156,1,160,2|8,0:0|0:0,0:0:0:0:
342,239,16524,1,2,0:0:0:0:
327,201,16631,1,2,0:0:0:0:
313,164,16738,1,2,0:0:0:0:
371,314,16953,1,2,0:0:0:0:
284,89,17167,1,8,0:0:0:0:
499,166,17381,1,4,0:0:0:0:
499,166,17810,101,8,0:0:0:0:
284,89,18024,1,8,0:0:0:0:
468,264,18239,1,8,0:0:0:0:
253,187,18453,53,2,0:0:0:0:
370,302,18667,1,2,0:0:0:0:
185,246,18881,1,2,0:0:0:0:
302,361,19096,1,2,0:0:0:0:
117,305,19310,53,8,0:0:0:0:
83,283,19417,1,8,0:0:0:0:
61,250,19524,1,8,0:0:0:0:
241,215,19739,1,8,0:0:0:0:
132,294,19953,5,8,0:0:0:0:
95,280,20060,1,8,0:0:0:0:
64,255,20167,1,8,0:0:0:0:
221,219,20382,1,8,0:0:0:0:
45,126,20596,37,8,0:0:0:0:
80,97,20703,1,8,0:0:0:0:
132,107,20810,1,2,0:0:0:0:
132,107,20917,1,2,0:0:0:0:
132,107,21024,22,0,P|204:149|214:246,1,160,4|0,0:0|0:0,0:0:0:0:
221,219,21667,2,0,P|149:177|139:80,1,160,8|0,0:0|0:0,0:0:0:0:
131,106,22310,1,0,0:0:0:0:
277,151,22524,1,0,0:0:0:0:
235,84,22739,5,8,0:0:0:0:
235,84,22953,2,0,L|279:154,1,80,0|0,0:0|0:0,0:0:0:0:
358,150,23381,2,0,L|272:14,1,160,8|0,0:0|0:0,0:0:0:0:
352,12,24024,2,0,L|395:80,1,80,0|0,0:0|0:0,0:0:0:0:
413,115,24346,1,0,0:0:0:0:
413,115,24453,102,0,P|439:176|441:207,1,80,8|0,0:0|0:0,0:0:0:0:
429,333,24881,1,0,0:0:0:0:
429,333,25096,2,0,P|403:272|401:241,1,80,8|0,0:0|0:0,0:0:0:0:
358,150,25524,2,0,P|339:185|330:223,1,80,0|0,0:0|0:0,0:0:0:0:
263,281,25953,6,0,P|248:243|248:204,1,80,0|8,0:0|0:0,0:0:0:0:
212,142,26381,1,0,0:0:0:0:
284,142,26596,1,0,0:0:0:0:
247,79,26810,1,8,0:0:0:0:
212,142,27024,1,0,0:0:0:0:
320,79,27239,1,0,0:0:0:0:
176,79,27453,1,8,0:0:0:0:
248,204,27667,1,0,0:0:0:0:
248,204,27774,1,0,0:0:0:0:
248,204,27881,102,0,L|327:269,1,80,8|0,0:0|0:0,0:0:0:0:
309,254,28310,1,0,0:0:0:0:
160,241,28524,2,0,L|239:306,1,80,8|0,0:0|0:0,0:0:0:0:
84,284,28953,2,0,L|146:335,2,80,0|0|0,0:0|0:0|0:0,0:0:0:0:
160,241,29596,5,8,0:0:0:0:
160,241,29810,2,0,P|210:253|244:243,1,80,0|0,0:0|0:0,0:0:0:0:
89,207,30239,2,0,P|76:244|83:283,1,80,8|0,0:0|0:0,0:0:0:0:
149,337,30667,1,0,0:0:0:0:
160,241,30881,2,0,P|172:203|165:164,1,80,0|0,0:0|0:0,0:0:0:0:
94,130,31203,1,0,0:0:0:0:
94,130,31310,70,0,P|81:167|88:206,1,80,8|0,0:0|0:0,0:0:0:0:
165,164,31739,1,0,0:0:0:0:
10,261,31953,2,0,P|43:282|82:282,1,80,8|0,0:0|0:0,0:0:0:0:
177,314,32381,2,0,P|178:274|159:240,1,80,8|0,0:0|0:0,0:0:0:0:
274,200,32810,6,0,P|290:267|325:288,1,80,0|8,0:0|0:0,0:0:0:0:
399,289,33239,1,0,0:0:0:0:
295,272,33453,1,0,0:0:0:0:
378,217,33667,1,8,0:0:0:0:
274,200,33881,2,0,P|253:167|253:128,1,80,0|0,0:0|0:0,0:0:0:0:
334,71,34310,1,0,0:0:0:0:
253,127,34524,1,2,0:0:0:0:
253,127,34631,1,2,0:0:0:0:
252,128,34739,22,0,P|191:122|171:93,1,80,6|0,0:0|0:0,0:0:0:0:
115,38,35167,2,0,L|85:139,1,80,0|8,0:0|0:0,0:0:0:0:
42,168,35489,2,0,L|65:92,1,80,0|0,0:0|0:0,0:0:0:0:
142,61,35810,2,0,L|112:162,1,80,0|0,0:0|0:0,0:0:0:0:
14,144,36239,1,8,0:0:0:0:
19,222,36453,38,0,P|9:164|21:131,1,80,8|0,0:0|0:0,0:0:0:0:
79,182,36881,1,0,0:0:0:0:
112,247,37096,2,0,P|122:305|110:338,1,80,8|0,0:0|0:0,0:0:0:0:
79,182,37524,1,0,0:0:0:0:
113,171,37631,1,0,0:0:0:0:
148,174,37738,1,0,0:0:0:0:
50,210,37953,1,8,0:0:0:0:
217,166,38167,70,0,P|222:229|238:260,2,80,8|0|0,0:0|0:0|0:0,0:0:0:0:
217,166,38810,1,8,0:0:0:0:
217,166,39239,1,0,0:0:0:0:
247,140,39346,1,0,0:0:0:0:
286,132,39453,1,0,0:0:0:0:
229,243,39667,1,8,0:0:0:0:
150,116,39881,85,8,0:0:0:0:
150,116,40310,1,0,0:0:0:0:
31,37,40524,70,0,P|105:49|151:125,1,160,8|0,0:0|0:0,0:0:0:0:
60,126,41167,2,0,L|122:65,1,80,8|2,0:0|0:0,0:0:0:0:
153,51,41489,1,2,0:0:0:0:
190,66,41596,22,0,P|247:48|267:16,1,80,14|0,0:0|0:0,0:0:0:0:
203,2,42024,2,0,L|248:117,1,120,0|0,0:0|0:0,0:0:0:0:
305,80,42453,2,0,L|290:42,1,40,0|0,0:0|0:0,0:0:0:0:
149,51,42667,2,0,L|163:88,1,40,0|0,0:0|0:0,0:0:0:0:
325,138,42881,1,8,0:0:0:0:
175,160,43096,1,8,0:0:0:0:
251,319,43310,22,0,P|232:268|239:228,1,80,8|0,0:0|0:0,0:0:0:0:
301,271,43739,1,0,0:0:0:0:
196,363,43953,86,0,P|167:315|162:245,1,120,8|0,0:0|0:0,0:0:0:0:
238,163,44489,1,0,0:0:0:0:
238,163,44596,2,0,L|233:260,1,80,0|8,0:0|0:0,0:0:0:0:
96,145,45024,22,0,P|122:111|185:104,1,80,8|0,0:0|0:0,0:0:0:0:
165,173,45453,1,0,0:0:0:0:
31,128,45667,6,0,P|73:62|146:34,1,160,8|0,0:0|0:0,0:0:0:0:
121,113,46310,2,0,L|61:33,1,80,0|8,0:0|0:0,0:0:0:0:
165,173,46739,85,8,0:0:0:0:
165,173,47167,101,8,0:0:0:0:
123,243,47381,1,8,0:0:0:0:
207,103,47596,1,8,0:0:0:0:
31,189,47810,1,8,0:0:0:0:
299,157,48024,69,8,0:0:0:0:
299,157,48453,101,8,0:0:0:0:
31,189,48667,1,10,0:0:0:0:
164,173,48881,54,0,L|185:277,1,80,0|2,0:0|0:0,0:0:0:0:
141,332,49310,1,0,0:0:0:0:
179,341,49417,1,0,0:0:0:0:
218,333,49524,1,2,0:0:0:0:
248,308,49631,1,0,0:0:0:0:
265,272,49738,1,0,0:0:0:0:
164,173,49953,1,2,0:0:0:0:
101,332,50167,53,8,0:0:0:0:
289,116,50381,1,10,0:0:0:0:
265,272,50596,101,0,0:0:0:0:
265,272,50703,2,0,L|294:346,1,80,0|0,0:0|0:0,0:0:0:0:
250,116,51024,1,0,0:0:0:0:
250,116,51131,2,0,L|213:211,1,80,0|0,0:0|0:0,0:0:0:0:
138,104,51453,2,0,L|153:67,1,40,0|0,0:0|0:0,0:0:0:0:
345,67,51667,2,0,L|358:104,1,40,2|0,0:0|0:0,0:0:0:0:
100,312,51881,5,8,0:0:0:0:
392,310,52096,1,10,0:0:0:0:
256,198,52310,54,0,L|256:288,1,80,0|2,0:0|0:0,0:0:0:0:
379,353,52739,2,0,L|379:263,1,80,0|2,0:0|0:0,0:0:0:0:
266,136,53167,1,0,0:0:0:0:
247,141,53274,1,0,0:0:0:0:
231,154,53381,1,2,0:0:0:0:
221,171,53488,1,0,0:0:0:0:
219,191,53596,70,0,P|252:187|289:128,1,80,12|0,0:0|0:0,0:0:0:0:
168,34,54024,1,8,0:0:0:0:
284,155,54239,2,0,P|310:134|378:150,1,80,4|0,0:0|0:0,0:0:0:0:
379,161,54560,1,8,0:0:0:0:
379,161,54667,1,2,0:0:0:0:
237,271,54881,1,8,0:0:0:0:
233,232,54988,1,8,0:0:0:0:
258,202,55095,1,2,0:0:0:0:
296,198,55202,1,2,0:0:0:0:
327,222,55310,101,12,0:0:0:0:
17,225,55524,1,10,0:0:0:0:
198,193,55739,102,0,L|134:258,1,80,0|2,0:0|0:0,0:0:0:0:
99,138,56060,1,0,0:0:0:0:
99,138,56167,2,0,L|160:77,1,80,0|2,0:0|0:0,0:0:0:0:
225,163,56489,1,0,0:0:0:0:
225,163,56596,2,0,L|175:218,1,40,0|0,0:0|0:0,0:0:0:0:
69,73,56810,2,0,L|119:18,1,40,2|0,0:0|0:0,0:0:0:0:
329,220,57024,5,8,0:0:0:0:
155,81,57239,1,10,0:0:0:0:
386,148,57453,53,0,0:0:0:0:
386,148,57560,2,0,P|437:160|460:187,1,80,0|0,0:0|0:0,0:0:0:0:
371,324,57881,1,0,0:0:0:0:
331,318,57988,1,0,0:0:0:0:
301,293,58095,1,2,0:0:0:0:
347,136,58310,2,0,L|411:155,1,40,0|0,0:0|0:0,0:0:0:0:
409,335,58524,2,0,L|345:316,1,40,2|0,0:0|0:0,0:0:0:0:
181,51,58739,53,8,0:0:0:0:
244,341,58953,1,10,0:0:0:0:
151,191,59167,101,0,0:0:0:0:
151,191,59274,2,0,L|129:274,1,80,0|0,0:0|0:0,0:0:0:0:
96,85,59596,1,0,0:0:0:0:
85,123,59703,1,0,0:0:0:0:
75,162,59810,1,2,0:0:0:0:
65,200,59917,1,0,0:0:0:0:
55,239,60024,1,0,0:0:0:0:
107,47,60239,1,2,0:0:0:0:
361,109,60453,6,0,B|340:139|340:139|341:49,1,120,4|0,0:0|0:0,0:0:0:0:
341,25,60881,1,8,0:0:0:0:
248,189,61096,2,0,L|248:252,1,40,4|0,0:0|0:0,0:0:0:0:
373,339,61310,53,8,0:2:0:0:
362,311,61418,1,8,0:2:0:0:
358,281,61525,1,8,0:2:0:0:
365,252,61632,1,8,0:2:0:0:
381,227,61739,1,8,0:2:0:0:
397,202,61846,1,8,0:2:0:0:
405,173,61953,1,8,0:2:0:0:
403,143,62060,1,8,0:2:0:0:
390,116,62167,54,0,P|380:166|489:174,1,191.999994140625,12|8,0:0|0:0,0:0:0:0:
347,36,62810,1,2,0:0:0:0:
347,36,62917,1,10,0:0:0:0:
347,36,63024,1,2,0:0:0:0:
230,197,63239,1,2,0:0:0:0:
390,116,63453,1,8,0:0:0:0:
202,236,63667,1,2,0:0:0:0:
230,197,63774,1,2,0:0:0:0:
259,159,63881,5,2,0:0:0:0:
347,36,64096,1,2,0:0:0:0:
188,33,64310,2,0,P|149:60|132:104,1,95.9999970703126,8|0,0:0|0:0,0:0:0:0:
124,137,64631,1,8,0:0:0:0:
127,170,64738,1,2,0:0:0:0:
143,199,64845,1,8,0:0:0:0:
169,220,64952,1,2,0:0:0:0:
133,105,65167,1,8,0:0:0:0:
205,335,65381,1,0,0:0:0:0:
205,335,65489,1,0,0:0:0:0:
205,335,65596,85,2,0:0:0:0:
343,344,65810,1,0,0:0:0:0:
282,220,66024,1,8,0:0:0:0:
271,379,66239,1,2,0:0:0:0:
271,379,66346,1,2,0:0:0:0:
271,379,66453,1,2,0:0:0:0:
348,264,66667,1,2,0:0:0:0:
210,255,66881,1,8,0:0:0:0:
345,345,67096,1,8,0:0:0:0:
345,345,67203,1,8,0:0:0:0:
345,345,67310,5,14,0:0:0:0:
257,180,67524,1,0,0:0:0:0:
271,379,67739,1,8,0:0:0:0:
221,94,67953,6,0,P|186:128|217:261,1,191.999994140625,6|2,0:0|0:0,0:0:0:0:
257,180,68596,1,8,0:2:0:0:
210,175,68703,1,8,0:2:0:0:
171,201,68810,1,8,0:2:0:0:
159,247,68917,1,8,0:2:0:0:
180,289,69024,102,0,P|192:223|82:198,1,191.999994140625,6|8,0:0|0:0,0:0:0:0:
102,324,69667,1,2,0:0:0:0:
102,324,69774,1,2,0:0:0:0:
102,324,69881,1,2,0:0:0:0:
12,225,70096,1,2,0:0:0:0:
7,377,70310,1,8,0:0:0:0:
91,190,70524,1,2,0:0:0:0:
168,345,70739,86,0,P|211:283|202:241,1,95.9999970703126,2|2,0:0|0:0,0:0:0:0:
133,111,71167,2,0,P|90:173|99:215,1,95.9999970703126,8|0,0:0|0:0,0:0:0:0:
137,203,71489,1,8,0:0:0:0:
123,168,71596,1,2,0:0:0:0:
93,146,71703,1,8,0:0:0:0:
54,143,71810,1,2,0:0:0:0:
10,239,72024,1,8,0:0:0:0:
12,66,72239,1,0,0:0:0:0:
10,239,72453,5,2,0:0:0:0:
137,203,72667,1,0,0:0:0:0:
54,143,72881,1,8,0:0:0:0:
90,270,73096,1,8,0:0:0:0:
90,270,73203,1,8,0:0:0:0:
90,270,73310,2,0,L|120:372,1,95.9999970703126,2|2,0:0|0:0,0:0:0:0:
137,203,73739,1,8,0:0:0:0:
190,337,73953,1,8,0:0:0:0:
190,337,74060,1,8,0:2:0:0:
190,337,74167,5,12,0:2:0:0:
201,291,74274,1,8,0:2:0:0:
237,261,74381,1,8,0:2:0:0:
327,360,74595,1,8,0:2:0:0:
324,160,74810,1,6,0:2:0:0:
324,160,74917,1,8,0:2:0:0:
324,160,75024,1,8,0:2:0:0:
432,319,75239,5,8,0:2:0:0:
324,160,75453,2,0,L|324:211,1,51.999997619629,8|8,0:2|0:2,0:0:0:0:
444,55,75667,2,0,L|442:108,1,51.999997619629,8|8,0:2|0:2,0:0:0:0:
189,167,75881,6,0,P|183:80|271:27,1,191.999994140625,6|8,0:0|0:0,0:0:0:0:
261,115,76524,1,0,0:0:0:0:
223,127,76631,1,8,0:0:0:0:
183,124,76738,1,2,0:0:0:0:
148,107,76845,1,0,0:0:0:0:
122,76,76952,1,2,0:0:0:0:
115,242,77167,1,8,0:0:0:0:
183,124,77381,1,2,0:0:0:0:
221,112,77488,1,2,0:0:0:0:
261,115,77596,6,0,P|291:176|314:186,1,95.9999970703126,2|0,0:0|0:0,0:0:0:0:
248,39,78024,1,8,0:0:0:0:
334,118,78239,2,0,L|340:70,1,47.9999985351563,0|8,0:0|0:0,0:0:0:0:
183,124,78453,2,0,L|189:172,1,47.9999985351563,2|8,0:0|0:0,0:0:0:0:
298,260,78667,1,2,0:0:0:0:
104,138,78881,2,0,L|110:186,3,47.9999985351563,10|0|0|0,0:0|0:0|0:0|0:0,0:0:0:0:
129,258,79310,53,2,0:0:0:0:
296,204,79524,1,0,0:0:0:0:
161,313,79739,1,8,0:0:0:0:
250,162,79953,1,8,0:0:0:0:
250,162,80060,1,8,0:0:0:0:
250,162,80167,1,2,0:0:0:0:
230,331,80381,1,2,0:0:0:0:
182,173,80596,1,8,0:0:0:0:
298,320,80810,1,8,0:0:0:0:
298,320,80917,1,8,0:0:0:0:
298,320,81024,6,0,P|341:350|341:262,1,191.999994140625,6|8,0:0|0:0,0:0:0:0:
443,334,81667,2,0,P|427:243|343:199,1,191.999994140625,4|2,0:0|0:0,0:0:0:0:
445,149,82310,1,8,0:2:0:0:
413,125,82417,1,8,0:2:0:0:
374,117,82524,1,8,0:2:0:0:
336,127,82631,1,8,0:2:0:0:
305,152,82739,6,0,P|373:127|341:34,1,191.999994140625,6|8,0:0|0:0,0:0:0:0:
215,141,83381,1,0,0:0:0:0:
215,141,83489,1,10,0:0:0:0:
215,141,83596,1,2,0:0:0:0:
118,218,83810,1,2,0:0:0:0:
232,127,84024,1,8,0:0:0:0:
34,64,84239,1,0,0:0:0:0:
249,113,84453,86,0,L|353:150,1,80,8|0,0:0|0:0,0:0:0:0:
418,188,84774,2,0,L|314:225,1,80,0|0,0:0|0:0,0:0:0:0:
249,263,85096,1,0,0:0:0:0:
286,276,85203,1,0,0:0:0:0:
324,289,85310,1,0,0:0:0:0:
324,139,85524,1,0,0:0:0:0:
191,217,85739,6,0,B|167:238|132:231|132:231|128:246|116:254|116:254|82:241|49:274,1,160,0|14,0:0|0:0,0:0:0:0:
256,192,86274,12,0,93024,0:0:0:0:
