osu file format v14

[General]
AudioFilename: audio.mp3
AudioLeadIn: 0
PreviewTime: 48346
Countdown: 0
SampleSet: Soft
StackLeniency: 0.7
Mode: 0
LetterboxInBreaks: 0
WidescreenStoryboard: 1

[Editor]
Bookmarks: 239,93024
DistanceSpacing: 1.4
BeatDivisor: 8
GridSize: 4
TimelineZoom: 2

[Metadata]
Title:again
TitleUnicode:again
Artist:YUI
ArtistUnicode:YUI
Creator:FoxyGrandpa
Version:Gero's Insane
Source:鋼の錬金術師 FULLMETAL ALCHEMIST
Tags:full metal alchemist brotherhood osuskrub finshie kkipalt asaiga cheesecake rizen aqpw sulfur su1fu7 zero zer0- 0 underforest gero TV size opening
BeatmapID:1397973
BeatmapSetID:623911

[Difficulty]
HPDrainRate:6
CircleSize:4.5
OverallDifficulty:8.8
ApproachRate:9
SliderMultiplier:1.99999990463257
SliderTickRate:1

[Events]
//Background and Video events
0,0,"73729.jpg",0,0
Video,-320,"Fullmetal Alchemist Brotherhood Opening 1 HD.flv"
//Break Periods
//Storyboard Layer 0 (Background)
//Storyboard Layer 1 (Fail)
//Storyboard Layer 2 (Pass)
//Storyboard Layer 3 (Foreground)
//Storyboard Sound Samples

[TimingPoints]
-1261,428.571428571429,4,2,0,40,1,0
-404,-133.333333333333,4,2,20,50,0,0
12024,-181.818181818181,4,2,5,55,0,0
12346,-181.818181818181,4,2,5,5,0,0
12453,-111.111111111111,4,2,5,65,0,0
19310,-111.111111111111,4,2,5,45,0,0
21024,-133.333333333333,4,2,6,40,0,0
34739,-117.647058823529,4,2,6,30,0,0
34846,-117.647058823529,4,2,6,50,0,0
47167,-117.647058823529,4,2,6,40,0,0
47596,-117.647058823529,4,2,6,50,0,0
48024,-117.647058823529,4,2,5,55,0,0
48453,-105.263157894737,4,2,6,60,0,0
61096,-105.263157894737,4,2,6,20,0,0
61310,-105.263157894737,4,2,5,30,0,0
61524,-105.263157894737,4,2,5,40,0,0
61739,-105.263157894737,4,2,5,50,0,0
61953,-105.263157894737,4,2,5,60,0,0
62167,-100,4,1,5,60,0,1
73953,-100,4,1,5,30,0,1
74596,-100,4,1,5,40,0,1
75453,-100,4,1,5,50,0,0
75881,-100,4,1,5,60,0,1
84453,-100,4,1,5,60,0,0
84560,-100,4,2,1,50,0,0
86167,-100,4,2,1,40,0,0
87024,-100,4,2,1,30,0,0
87881,-100,4,2,1,20,0,0
88739,-100,4,2,1,10,0,0
89274,-100,4,2,1,5,0,0

[Colours]
Combo1 : 219,36,118
Combo2 : 199,107,228
Combo3 : 120,222,95
Combo4 : 237,230,84
Combo5 : 166,166,166
Combo6 : 207,142,95
Combo7 : 72,113,206
Combo8 : 255,45,45
SliderBorder : 189,163,15
SliderTrackOverride : 184,37,37

[HitObjects]
256,192,239,37,0,0:0:0:0:
184,288,453,2,0,P|256:306|328:288,1,150.000005722046,2|0,0:0|0:0,0:0:0:0:
256,192,1096,2,0,P|184:174|112:192,1,150.000005722046,2|0,0:0|0:0,0:0:0:0:
44,292,1739,1,2,0:0:0:0:
112,192,1953,1,0,0:0:0:0:
44,92,2167,6,0,B|34:56|34:56|44:20,2,75.0000028610231,2|0|0,0:0|0:0|0:0,0:0:0:0:
160,60,2810,2,0,B|196:24|244:24|244:24|316:24,1,150.000005722046,2|0,0:0|0:0,0:0:0:0:
384,112,3453,1,2,0:0:0:0:
472,192,3667,1,0,0:0:0:0:
472,192,3774,1,0,0:0:0:0:
472,192,3881,102,0,B|472:220|472:220|468:228|468:228|476:228|476:228|472:236|472:236|472:260,1,75.0000028610231,2|0,0:0|0:0,0:0:0:0:
384,112,4310,2,0,B|384:84|384:84|380:76|380:76|388:76|388:76|384:68|384:68|384:44,1,75.0000028610231,0|2,0:0|0:0,0:0:0:0:
304,192,4739,2,0,B|304:220|304:220|300:228|300:228|308:228|308:228|304:236|304:236|304:260,1,75.0000028610231,0|0,0:0|0:0,0:0:0:0:
204,324,5167,2,0,B|136:324|136:324|120:328|120:328|48:328,1,150.000005722046,2|2,0:0|0:0,0:0:0:0:
304,257,5810,6,0,L|392:257,1,75.0000028610231,2|0,0:0|0:0,0:0:0:0:
204,324,6239,2,0,P|177:256|204:188,1,150.000005722046,2|2,0:0|0:0,0:0:0:0:
304,257,6881,1,0,0:0:0:0:
100,372,7096,1,0,0:0:0:0:
100,372,7203,1,0,0:0:0:0:
100,372,7310,102,0,B|72:296,1,75.0000028610231,2|0,0:0|0:0,0:0:0:0:
124,192,7739,2,0,B|98:121,1,75.0000028610231,0|2,0:0|0:0,0:0:0:0:
52,84,8060,2,0,P|108:84|152:40,1,112.500004291535
292,144,8596,2,0,P|255:134|219:143,1,75.0000028610231
372,260,9024,6,0,B|372:196|372:196|380:176|380:176|380:108,1,150.000005722046,2|0,0:0|0:0,0:0:0:0:
485,225,9667,2,0,B|485:289|485:289|477:309|477:309|477:377,1,150.000005722046,2|0,0:0|0:0,0:0:0:0:
372,260,10310,2,0,L|372:184,1,75.0000028610231,2|0,0:0|0:0,0:0:0:0:
292,32,10739,102,0,L|292:148,1,112.500004291535,2|0,0:0|0:0,0:0:0:0:
256,192,11167,1,0,0:0:0:0:
176,280,11381,2,0,B|140:304|108:310|108:310|76:304|40:280,1,150.000005722046,2|0,0:0|0:0,0:0:0:0:
108,116,12024,86,0,P|116:156|108:196,1,82.5000025177003,8|0,1:2|0:0,0:0:0:0:
80,228,12453,6,0,P|52:144|80:60,1,179.999994506836,4|8,0:0|0:0,0:0:0:0:
264,144,13096,1,0,0:0:0:0:
264,144,13203,1,8,0:0:0:0:
264,144,13310,2,0,L|174:144,1,89.9999972534181,0|0,0:0|3:0,0:0:0:0:
80,60,13739,1,8,0:0:0:0:
216,24,13953,102,0,B|296:24|296:24|316:32|316:32|400:32,1,179.999994506836,4|0,0:0|3:0,0:0:0:0:
487,116,14596,1,8,0:0:0:0:
394,199,14810,1,0,0:0:0:0:
374,160,14917,1,8,0:0:0:0:
367,115,15024,1,0,0:0:0:0:
374,71,15131,1,8,0:0:0:0:
395,32,15238,1,0,0:0:0:0:
487,116,15453,2,0,L|487:148,7,22.4999993133545,8|0|0|0|0|0|0|0,0:0|0:0|0:0|0:0|0:0|0:0|0:0|0:0,0:0:0:0:
468,160,15881,6,0,B|468:228|468:228|452:264|452:264|452:340,1,179.999994506836,4|8,0:0|0:0,0:0:0:0:
332,377,16524,1,0,0:0:0:0:
332,377,16631,1,8,0:0:0:0:
332,377,16739,1,0,0:0:0:0:
488,206,16953,2,0,L|488:116,1,89.9999972534181,0|8,3:0|0:0,0:0:0:0:
332,200,17381,102,0,B|306:288|358:288|332:376,1,179.999994506836,4|4,0:0|0:3,0:0:0:0:
216,328,18024,2,0,B|188:308|160:308|160:308|124:308,1,89.9999972534181,4|4,0:3|0:3,0:0:0:0:
246,180,18453,2,0,B|274:200|302:200|302:200|332:200,1,89.9999972534181,4|4,0:3|0:3,0:0:0:0:
416,104,18881,1,4,0:3:0:0:
131,308,19096,1,4,0:3:0:0:
408,318,19310,5,8,0:0:0:0:
412,315,19417,1,8,0:0:0:0:
416,312,19524,1,8,0:0:0:0:
216,328,19739,1,8,0:0:0:0:
480,212,19953,101,8,0:0:0:0:
484,209,20060,1,8,0:0:0:0:
488,206,20167,1,8,0:0:0:0:
288,222,20382,1,8,0:0:0:0:
416,104,20596,5,8,0:0:0:0:
412,107,20703,1,8,0:0:0:0:
408,110,20810,1,8,0:0:0:0:
404,113,20917,1,8,0:0:0:0:
401,115,21024,38,0,B|336:108|336:108|316:112|316:112|248:104,1,150.000005722046,12|0,0:0|0:0,0:0:0:0:
160,16,21667,2,0,B|225:23|225:23|245:19|245:19|313:27,1,150.000005722046,8|0,0:0|0:0,0:0:0:0:
240,178,22310,2,0,L|252:104,1,75.0000028610231,8|0,0:0|0:0,0:0:0:0:
352,192,22739,6,0,L|340:266,1,75.0000028610231,8|0,0:0|0:0,0:0:0:0:
256,332,23167,1,0,0:0:0:0:
436,232,23381,2,0,L|458:83,1,150.000005722046,8|0,0:0|0:0,0:0:0:0:
380,12,24024,1,8,0:0:0:0:
293,70,24239,1,0,0:0:0:0:
293,70,24346,1,0,0:0:0:0:
293,70,24453,102,0,B|256:78|256:78|219:70,1,75.0000028610231,8|0,0:0|0:0,0:0:0:0:
132,12,24881,1,0,0:0:0:0:
328,160,25096,2,0,P|256:177|184:160,1,150.000005722046,8|0,0:0|0:0,0:0:0:0:
88,112,25739,1,8,0:0:0:0:
256,208,25953,1,0,0:0:0:0:
256,208,26060,1,0,0:0:0:0:
256,208,26167,6,0,L|248:292,1,75.0000028610231,8|0,0:0|0:0,0:0:0:0:
360,140,26596,2,0,L|367:65,1,75.0000028610231,0|8,0:0|0:0,0:0:0:0:
220,224,27024,2,0,L|204:376,1,150.000005722046,0|8,0:0|0:0,0:0:0:0:
112,324,27667,1,0,0:0:0:0:
112,324,27774,1,0,0:0:0:0:
112,324,27881,102,0,P|75:315|39:323,2,75.0000028610231,8|0|0,0:0|0:0|0:0,0:0:0:0:
188,252,28524,2,0,P|256:279|324:252,1,150.000005722046,8|0,0:0|0:0,0:0:0:0:
392,172,29167,1,8,0:0:0:0:
452,256,29381,1,0,0:0:0:0:
452,256,29489,1,0,0:0:0:0:
452,256,29596,6,0,L|428:340,1,75.0000028610231,8|0,0:0|0:0,0:0:0:0:
392,172,30024,2,0,L|416:256,1,75.0000028610231,0|8,0:0|0:0,0:0:0:0:
468,88,30453,2,0,L|444:172,1,75.0000028610231,0|0,0:0|0:0,0:0:0:0:
396,8,30881,1,8,0:0:0:0:
452,256,31096,101,0,0:0:0:0:
452,256,31203,1,0,0:0:0:0:
452,256,31310,2,0,L|428:340,1,75.0000028610231,8|0,0:0|0:0,0:0:0:0:
340,380,31739,1,0,0:0:0:0:
248,328,31953,2,0,B|248:288|215:264|215:264|248:240|248:200,1,150.000005722046,8|0,0:0|0:0,0:0:0:0:
328,268,32596,1,8,0:0:0:0:
124,304,32810,1,0,0:0:0:0:
124,304,32917,1,0,0:0:0:0:
124,304,33024,6,0,P|116:268|124:232,1,75.0000028610231,8|0,0:0|0:0,0:0:0:0:
249,127,33453,2,0,P|257:163|249:199,1,75.0000028610231,0|8,0:0|0:0,0:0:0:0:
108,272,33881,102,0,P|100:236|108:200,1,75.0000028610231
233,95,34310,1,8,0:0:0:0:
80,240,34524,1,0,0:0:0:0:
80,240,34631,1,2,0:0:0:0:
80,240,34739,86,0,P|68:200|80:160,1,85.0000016212464,12|0,0:0|0:0,0:0:0:0:
208,60,35167,2,0,P|220:100|208:140,1,85.0000016212464,0|10,0:0|0:0,0:0:0:0:
168,184,35489,2,0,P|208:171|248:183,1,85.0000016212464
280,200,35810,1,0,0:0:0:0:
312,208,35917,1,0,0:0:0:0:
344,200,36024,1,10,0:0:0:0:
460,172,36239,1,8,0:0:0:0:
380,84,36453,102,0,B|370:43|370:43|380:2,1,85.0000016212464,10|0,0:0|0:0,0:0:0:0:
460,172,36881,2,0,B|470:213|470:213|460:254,1,85.0000016212464,0|10,0:0|0:0,0:0:0:0:
360,320,37310,1,0,0:0:0:0:
256,376,37524,1,0,0:0:0:0:
256,376,37631,1,0,0:0:0:0:
256,376,37739,2,0,B|224:376|224:376|216:372|216:372|216:380|216:380|208:376|208:376|176:376,1,85.0000016212464,10|8,0:0|0:0,0:0:0:0:
360,320,38167,6,0,B|392:320|392:320|400:324|400:324|400:316|400:316|408:320|408:320|440:320,2,85.0000016212464,10|0|0,0:0|0:0|0:0,0:0:0:0:
256,264,38810,2,0,P|232:184|256:104,1,170.000003242493,10|0,0:0|0:0,0:0:0:0:
256,103,39346,1,0,0:0:0:0:
256,103,39453,1,10,0:0:0:0:
344,184,39667,1,8,0:0:0:0:
256,264,39881,102,0,B|180:264|180:264|164:272|164:272|88:272,1,170.000003242493,10|0,0:0|0:0,0:0:0:0:
204,356,40524,2,0,B|280:356|280:356|296:348|296:348|372:348,1,170.000003242493,10|0,0:0|0:0,0:0:0:0:
468,276,41167,1,10,0:0:0:0:
376,204,41381,1,0,0:0:0:0:
376,204,41489,1,0,0:0:0:0:
376,204,41596,6,0,P|364:164|376:124,1,85.0000016212464,14|0,0:0|0:0,0:0:0:0:
468,276,42024,2,0,P|480:316|468:356,1,85.0000016212464,0|10,0:0|0:0,0:0:0:0:
432,372,42346,1,0,0:0:0:0:
392,372,42453,1,0,0:0:0:0:
360,352,42560,1,0,0:0:0:0:
324,340,42667,1,0,0:0:0:0:
288,344,42774,1,0,0:0:0:0:
256,364,42881,2,0,B|224:364|224:364|216:368|216:368|216:360|216:360|208:364|208:364|180:364,1,85.0000016212464,10|8,0:0|0:0,0:0:0:0:
252,244,43310,102,0,B|284:244|284:244|292:240|292:240|292:248|292:248|300:244|300:244|328:244,1,85.0000016212464,10|0,0:0|0:0,0:0:0:0:
392,144,43739,1,0,0:0:0:0:
332,44,43953,2,0,B|272:44|272:44|264:48|264:48|204:48,1,127.50000243187,10|0,0:0|0:0,0:0:0:0:
168,36,44381,1,0,0:0:0:0:
128,44,44489,1,0,0:0:0:0:
100,72,44596,2,0,P|88:112|100:152,1,85.0000016212464,10|8,0:0|0:0,0:0:0:0:
132,328,45024,6,0,P|144:288|132:248,1,85.0000016212464,10|0,0:0|0:0,0:0:0:0:
20,288,45453,1,0,0:0:0:0:
236,364,45667,2,0,B|276:376|316:360|316:360|316:372|316:372|348:356|392:364,1,170.000003242493,10|0,0:0|0:0,0:0:0:0:
472,276,46310,1,10,0:0:0:0:
388,192,46524,1,0,0:0:0:0:
388,192,46631,1,0,0:0:0:0:
388,192,46739,70,0,L|424:112,1,85.0000016212464,10|8,0:0|0:0,0:0:0:0:
89,114,47167,2,0,L|124:192,1,85.0000016212464,10|8,0:0|0:0,0:0:0:0:
324,92,47596,2,0,P|336:52|324:12,1,85.0000016212464,10|8,0:0|0:0,0:0:0:0:
188,11,48024,2,0,P|176:51|188:92,1,85.0000016212464,12|4,1:2|0:0,0:0:0:0:
168,224,48453,101,0,1:0:0:0:
212,240,48560,1,0,0:0:0:0:
256,260,48667,1,2,1:2:0:0:
300,240,48774,1,0,0:0:0:0:
344,224,48881,1,0,0:0:0:0:
256,124,49096,1,2,0:0:0:0:
156,316,49310,6,0,P|176:328|204:332,1,47.4999987316132
312,332,49524,2,0,P|335:328|356:316,1,47.4999987316132,2|0,0:0|0:0,0:0:0:0:
300,240,49739,2,0,P|256:224|212:240,1,94.9999974632264,0|2,0:0|0:0,0:0:0:0:
52,288,50167,102,0,L|28:244,1,47.4999987316132,0|0,1:0|0:0,0:0:0:0:
132,200,50381,2,0,L|108:156,1,47.4999987316132,2|0,1:2|0:0,0:0:0:0:
184,68,50596,5,0,0:0:0:0:
216,40,50703,1,0,0:0:0:0:
256,32,50810,1,2,0:0:0:0:
296,40,50917,1,0,0:0:0:0:
328,68,51024,1,0,0:0:0:0:
256,236,51239,101,2,0:0:0:0:
256,236,51346,1,0,0:0:0:0:
256,236,51453,2,0,B|240:191|240:191|256:147,1,94.9999974632264,0|2,0:0|0:0,0:0:0:0:
381,316,51881,5,0,1:0:0:0:
352,316,51988,1,0,0:0:0:0:
323,316,52095,1,2,1:2:0:0:
294,316,52202,1,0,0:0:0:0:
266,321,52309,101,0,0:0:0:0:
239,332,52416,1,0,0:0:0:0:
210,332,52523,1,2,0:0:0:0:
181,332,52630,1,0,0:0:0:0:
152,332,52739,5,0,0:0:0:0:
68,244,52953,1,2,0:0:0:0:
68,244,53060,1,0,0:0:0:0:
68,244,53167,2,0,B|104:244|104:244|112:248|112:248|112:240|112:240|120:244|120:244|160:244,1,94.9999974632264,0|2,0:0|0:0,0:0:0:0:
236,160,53489,1,0,0:0:0:0:
236,160,53596,102,0,B|202:160|202:160|194:156|194:156|194:164|194:164|186:160|186:160|150:160,2,94.9999974632264,4|0|0,0:0|0:0|1:0,0:0:0:0:
340,80,54239,2,0,P|378:163|340:247,1,189.999994926453,4|8,0:0|0:0,0:0:0:0:
236,160,54882,1,8,1:2:0:0:
236,160,54989,1,8,1:2:0:0:
236,160,55097,1,8,1:2:0:0:
340,80,55310,6,0,L|376:44,1,47.4999987316132,0|0,1:0|0:0,0:0:0:0:
484,200,55524,2,0,L|448:236,1,47.4999987316132,2|0,1:2|0:0,0:0:0:0:
352,200,55739,102,0,L|388:164,1,47.4999987316132
508,308,55953,2,0,L|472:344,1,47.4999987316132,2|0,0:0|0:0,0:0:0:0:
395,292,56167,5,0,0:0:0:0:
417,269,56274,1,0,0:0:0:0:
439,246,56382,101,2,0:0:0:0:
462,223,56489,1,0,0:0:0:0:
484,200,56596,5,0,0:0:0:0:
476,68,56810,1,2,0:0:0:0:
352,120,57024,101,0,1:0:0:0:
328,146,57131,1,0,0:0:0:0:
304,172,57238,1,2,1:2:0:0:
281,198,57345,1,0,0:0:0:0:
256,224,57453,5,0,0:0:0:0:
230,198,57560,1,0,0:0:0:0:
207,172,57667,1,2,0:0:0:0:
183,146,57774,1,0,0:0:0:0:
160,120,57881,102,0,B|156:96|156:96|160:72,1,47.4999987316132
124,216,58096,2,0,B|128:240|128:240|124:264,1,47.4999987316132,2|0,0:0|0:0,0:0:0:0:
64,140,58310,2,0,P|55:94|64:48,1,94.9999974632264,0|2,0:0|0:0,0:0:0:0:
256,12,58739,6,0,P|265:58|256:104,1,94.9999974632264,0|2,1:0|1:2,0:0:0:0:
232,139,59060,1,0,0:0:0:0:
216,184,59167,1,0,0:0:0:0:
215,231,59274,1,0,0:0:0:0:
232,275,59381,1,2,0:0:0:0:
340,356,59596,101,0,0:0:0:0:
372,322,59703,1,0,0:0:0:0:
384,277,59810,1,2,0:0:0:0:
372,232,59917,1,0,0:0:0:0:
340,198,60024,1,0,0:0:0:0:
232,275,60239,1,2,0:0:0:0:
340,356,60453,6,0,B|428:356|428:356|444:364|444:364|528:364,1,189.999994926453,4|8,0:0|1:2,0:0:0:0:
232,275,61096,1,8,1:2:0:0:
192,264,61203,1,8,1:2:0:0:
152,272,61310,1,8,1:2:0:0:
116,292,61417,101,8,1:2:0:0:
76,300,61524,1,8,1:2:0:0:
36,284,61631,1,8,1:2:0:0:
8,252,61739,5,8,1:2:0:0:
0,208,61846,1,8,1:2:0:0:
16,168,61953,1,8,1:2:0:0:
48,140,62060,1,8,1:2:0:0:
92,136,62167,37,4,0:0:0:0:
208,164,62381,2,0,B|256:178|256:178|304:164,1,100,0|8,0:0|0:2,0:0:0:0:
416,120,62810,1,0,0:0:0:0:
416,120,62917,1,8,0:2:0:0:
416,120,63024,2,0,B|430:168|430:168|416:216,1,100,2|8,0:3|0:2,0:0:0:0:
304,164,63453,2,0,P|284:92|304:20,1,150,8|8,0:2|0:2,0:0:0:0:
344,8,63881,5,2,0:3:0:0:
140,92,64096,2,0,L|240:92,1,100,0|8,0:0|0:2,0:0:0:0:
68,180,64524,1,0,0:0:0:0:
40,138,64631,1,8,0:2:0:0:
28,92,64739,1,2,0:3:0:0:
41,45,64845,1,8,0:2:0:0:
68,3,64952,1,0,0:0:0:0:
140,92,65167,1,8,0:2:0:0:
256,236,65381,69,0,0:0:0:0:
256,236,65489,1,8,0:2:0:0:
256,236,65596,2,0,P|268:284|256:332,1,100,4|0,0:0|0:0,0:0:0:0:
256,147,66024,2,0,P|244:99|256:51,1,100,8|0,0:2|0:0,0:0:0:0:
256,51,66346,1,0,0:0:0:0:
256,51,66453,1,2,0:3:0:0:
352,104,66667,2,0,B|388:104|388:104|396:108|396:108|396:100|396:100|404:104|404:104|444:104,1,100,0|8,0:0|0:2,0:0:0:0:
256,147,67096,5,0,0:0:0:0:
256,147,67203,1,8,0:2:0:0:
256,147,67310,2,0,B|220:147|220:147|212:143|212:143|212:151|212:151|204:147|204:147|164:147,1,100,4|0,0:0|0:0,0:0:0:0:
88,72,67739,1,8,0:2:0:0:
12,152,67953,2,0,P|-21:243|12:335,1,200,4|4,0:0|0:0,0:0:0:0:
212,348,68596,38,0,L|264:340,1,50,8|8,0:2|0:2,0:0:0:0:
316,204,68810,2,0,L|266:211,1,50,8|8,0:2|0:2,0:0:0:0:
184,324,69024,6,0,L|388:292,1,200,4|8,0:0|0:2,0:0:0:0:
432,192,69667,1,0,0:0:0:0:
432,192,69774,1,8,0:2:0:0:
432,192,69881,1,2,0:3:0:0:
380,96,70096,2,0,B|367:48|367:48|380:0,1,100,0|8,0:0|0:2,0:0:0:0:
476,52,70524,1,0,0:0:0:0:
280,100,70739,70,0,P|268:52|280:4,1,100,2|0,0:3|0:0,0:0:0:0:
432,192,71167,2,0,P|444:240|432:288,1,100,8|0,0:2|0:0,0:0:0:0:
488,312,71489,2,0,L|384:324,1,100,8|8,0:2|0:2,0:0:0:0:
344,360,71810,1,0,0:0:0:0:
196,276,72024,1,8,0:2:0:0:
316,276,72239,1,0,0:0:0:0:
168,360,72453,102,0,B|128:324|117:276|117:276|128:228|168:192,1,200,4|8,0:0|0:2,0:0:0:0:
216,80,73096,1,0,0:0:0:0:
216,80,73203,1,8,0:2:0:0:
216,80,73310,2,0,B|168:67|168:67|120:80,1,100,2|0,0:3|0:0,0:0:0:0:
8,128,73739,1,8,0:2:0:0:
288,16,73953,86,0,L|324:52,1,50,8|8,0:2|0:2,0:0:0:0:
392,112,74167,2,0,L|416:64,1,50,12|8,0:2|0:2,0:0:0:0:
316,160,74381,102,0,L|352:196,1,50,8|8,0:2|0:2,0:0:0:0:
420,256,74596,2,0,L|444:208,1,50,8|8,0:2|0:2,0:0:0:0:
344,304,74810,6,0,L|380:340,1,50,12|8,0:2|0:2,0:0:0:0:
256,344,75024,1,8,0:2:0:0:
224,320,75131,1,8,0:2:0:0:
184,312,75239,1,8,0:2:0:0:
144,320,75346,1,8,0:2:0:0:
108,340,75453,101,12,0:2:0:0:
68,344,75560,1,8,0:2:0:0:
32,328,75667,1,8,0:2:0:0:
12,296,75774,1,8,0:2:0:0:
12,256,75881,53,4,0:0:0:0:
76,152,76096,2,0,P|88:104|76:56,1,100,0|8,0:0|0:2,0:0:0:0:
184,192,76524,1,0,0:0:0:0:
184,192,76631,1,8,0:2:0:0:
184,192,76739,2,0,P|172:240|184:288,1,100,2|8,0:3|0:2,0:0:0:0:
256,384,77167,1,8,0:2:0:0:
328,288,77381,5,0,0:0:0:0:
328,288,77488,1,0,0:0:0:0:
328,288,77596,2,0,P|340:240|328:192,1,100,2|0,0:3|0:0,0:0:0:0:
220,240,78024,1,8,0:2:0:0:
424,336,78239,1,0,0:0:0:0:
445,291,78346,1,8,0:2:0:0:
452,241,78453,1,2,0:3:0:0:
445,192,78560,1,8,0:2:0:0:
423,147,78667,1,0,0:0:0:0:
328,238,78881,70,0,B|324:262|324:262|328:288,1,50,8|8,0:2|0:2,0:0:0:0:
423,147,79096,2,0,B|427:123|427:123|423:97,1,50,8|8,0:2|0:2,0:0:0:0:
300,224,79310,6,0,B|291:273|291:273|300:322,1,100,4|0,0:0|0:0,0:0:0:0:
448,168,79739,2,0,B|457:119|457:119|448:70,1,100,8|0,0:2|0:0,0:0:0:0:
428,48,80060,1,8,0:2:0:0:
408,28,80167,2,0,L|512:28,1,100,2|0,0:3|0:0,0:0:0:0:
320,100,80596,37,8,0:2:0:0:
290,100,80703,1,8,0:2:0:0:
260,100,80810,1,8,0:2:0:0:
230,100,80917,1,8,0:2:0:0:
200,100,81024,5,4,0:0:0:0:
88,148,81239,2,0,P|76:100|88:52,1,100,0|8,0:0|0:2,0:0:0:0:
200,100,81667,2,0,B|200:176|200:176|176:220|176:220|176:304,1,200,4|4,0:0|0:0,0:0:0:0:
280,356,82310,6,0,P|308:360|332:356,1,50,8|8,0:2|0:2,0:0:0:0:
360,224,82524,2,0,P|332:220|308:224,1,50,8|8,0:2|0:2,0:0:0:0:
440,312,82739,102,0,P|480:224|440:136,1,200,4|8,0:0|0:2,0:0:0:0:
270,224,83381,1,0,0:0:0:0:
270,224,83489,1,8,0:2:0:0:
271,224,83596,2,0,B|305:224|305:224|313:220|313:220|313:228|313:228|317:224|317:224|361:224,1,100,2|8,0:3|0:2,0:0:0:0:
440,136,84024,2,0,B|405:136|405:136|397:140|397:140|397:132|397:132|393:136|393:136|349:136,1,100,8|0,0:2|0:0,0:0:0:0:
256,268,84453,70,0,B|321:268|321:268|337:264|337:264|405:264,1,150,4|2,0:0|0:0,0:0:0:0:
480,240,84881,70,0,B|484:264|484:264|480:290,1,50,0|2,0:0|0:0,0:0:0:0:
440,136,85096,2,0,B|436:112|436:112|440:86,1,50,2|2,0:0|0:0,0:0:0:0:
340,216,85310,102,0,B|331:265|331:265|340:314,1,100,2|2,0:0|0:0,0:0:0:0:
252,152,85739,2,0,B|261:103|261:103|252:54,1,100,2|0,0:0|0:0,0:0:0:0:
248,50,86060,1,2,0:0:0:0:
244,46,86167,69,4,0:0:0:0:
256,192,86274,12,0,93024,0:0:0:0:
