osu file format v14

[General]
AudioFilename: audio.mp3
AudioLeadIn: 0
PreviewTime: 48346
Countdown: 0
SampleSet: Soft
StackLeniency: 0.7
Mode: 0
LetterboxInBreaks: 0
WidescreenStoryboard: 0

[Editor]
Bookmarks: 48453
DistanceSpacing: 1
BeatDivisor: 4
GridSize: 16
TimelineZoom: 2.5

[Metadata]
Title:again
TitleUnicode:again
Artist:YUI
ArtistUnicode:YUI
Creator:FoxyGrandpa
Version:Foxaiga's Another
Source:鋼の錬金術師 FULLMETAL ALCHEMIST
Tags:full metal alchemist brotherhood osuskrub finshie kkipalt asaiga cheesecake rizen aqpw sulfur su1fu7 zero zer0- 0 underforest gero TV size opening
BeatmapID:1355664
BeatmapSetID:623911

[Difficulty]
HPDrainRate:6
CircleSize:3.8
OverallDifficulty:8.8
ApproachRate:9.2
SliderMultiplier:3.39999990463257
SliderTickRate:1

[Events]
//Background and Video events
0,0,"73729.jpg",0,0
Video,-320,"Fullmetal Alchemist Brotherhood Opening 1 HD.flv"
//Break Periods
//Storyboard Layer 0 (Background)
//Storyboard Layer 1 (Fail)
//Storyboard Layer 2 (Pass)
//Storyboard Layer 3 (Foreground)
//Storyboard Sound Samples

[TimingPoints]
-1261,428.571428571429,4,2,1,40,1,0
453,-142.857142857143,4,2,4,40,0,0
10310,-142.857142857143,4,2,12,40,0,0
10417,-142.857142857143,4,2,4,40,0,0
11810,-142.857142857143,4,2,4,40,0,0
12024,-142.857142857143,4,2,3,40,0,0
12453,-125,4,2,3,50,0,0
21024,-142.857142857143,4,2,3,40,0,0
21131,-142.857142857143,4,2,2,40,0,0
47167,-142.857142857143,4,2,2,40,0,0
47381,-142.857142857143,4,2,2,43,0,0
47596,-142.857142857143,4,2,2,46,0,0
47810,-142.857142857143,4,2,2,49,0,0
48024,-142.857142857143,4,2,3,55,0,0
48453,-125,4,2,7,55,0,0
55096,-125,4,2,3,55,0,0
55310,-125,4,2,7,55,0,0
59381,-125,4,2,13,55,0,0
59489,-125,4,2,7,55,0,0
60453,-100,4,2,3,50,0,1
60774,-100,4,2,3,5,0,1
60881,-100,4,2,3,50,0,1
61310,-100,4,2,3,40,0,0
61417,-100,4,2,3,42,0,0
61524,-100,4,2,3,44,0,0
61631,-100,4,2,3,46,0,0
61739,-100,4,2,3,48,0,0
61846,-100,4,2,3,50,0,0
61953,-100,4,2,3,52,0,0
62060,-100,4,2,3,54,0,0
62167,-100,4,2,3,60,0,1
75239,-100,4,2,3,60,0,0
75881,-100,4,2,3,60,0,1
84346,-100,4,2,3,5,0,1
84453,-100,4,2,3,60,0,0
86167,-100,4,2,3,60,0,1
86274,-100,4,2,3,30,0,0
89596,-100,4,2,1,20,0,0
91310,-100,4,2,1,10,0,0
93024,-100,4,2,1,5,0,0

[Colours]
Combo1 : 244,179,188
Combo2 : 174,207,169
Combo3 : 172,202,213
Combo4 : 196,184,216

[HitObjects]
168,269,239,5,0,0:0:0:0:
168,269,453,2,0,P|185:182|71:229,1,237.999986061097,8|0,0:0|0:0,0:0:0:0:
249,300,1096,2,0,P|275:216|165:77,1,237.999986061097,8|0,0:0|0:0,0:0:0:0:
203,92,1739,1,8,0:0:0:0:
360,245,1953,1,0,0:0:0:0:
360,245,2167,6,0,L|477:271,1,118.999993030548,8|0,0:0|0:0,0:0:0:0:
249,300,2596,1,0,0:0:0:0:
446,345,2810,2,0,L|329:319,1,118.999993030548,8|0,0:0|0:0,0:0:0:0:
168,319,3239,1,0,0:0:0:0:
168,319,3453,2,0,L|52:345,1,118.999993030548,8|0,0:0|0:0,0:0:0:0:
35,271,3774,1,0,0:0:0:0:
35,271,3881,6,0,L|151:245,1,118.999993030548,8|0,0:0|0:0,0:0:0:0:
477,271,4310,2,0,L|360:245,1,118.999993030548,0|8,0:0|0:0,0:0:0:0:
35,113,4739,2,0,L|151:138,1,118.999993030548,0|0,0:0|0:0,0:0:0:0:
477,113,5167,2,0,L|360:138,1,118.999993030548,8|0,0:0|0:0,0:0:0:0:
283,65,5596,5,8,0:0:0:0:
283,65,5810,2,0,P|257:117|275:205,1,118.999993030548,2|2,0:0|0:0,0:0:0:0:
151,138,6239,2,0,P|177:190|31:317,1,237.999986061097,10|2,0:0|0:0,0:0:0:0:
71,212,6881,2,0,P|44:153|51:97,1,118.999993030548,8|0,0:0|0:0,0:0:0:0:
151,138,7203,1,0,0:0:0:0:
151,138,7310,6,0,P|173:77|218:42,1,118.999993030548,8|0,0:0|0:0,0:0:0:0:
214,231,7739,2,0,P|169:192|150:137,1,118.999993030548,0|8,0:0|0:0,0:0:0:0:
200,321,8060,2,0,P|124:289|68:201,1,178.499989545823,0|0,0:0|0:0,0:0:0:0:
150,137,8596,1,8,0:0:0:0:
45,322,8810,1,0,0:0:0:0:
20,77,9024,6,0,P|85:39|99:-1,1,118.999993030548,8|0,0:0|0:0,0:0:0:0:
19,0,9453,1,0,0:0:0:0:
150,137,9667,1,8,0:0:0:0:
150,137,9774,2,0,L|261:227,1,118.999993030548
55,171,10176,6,0,L|298:369,1,312.374981705189,0|8,0:0|0:0,0:0:0:0:
298,369,11167,1,0,0:0:0:0:
134,339,11381,1,8,0:0:0:0:
332,263,11596,1,0,0:0:0:0:
31,266,11810,5,8,0:0:0:0:
469,343,12024,1,8,0:0:0:0:
469,343,12453,6,0,B|435:290|478:248|478:248|451:232|451:232|509:189|459:113,1,271.999992370606,4|8,0:0|0:0,0:0:0:0:
253,45,13096,1,0,0:0:0:0:
187,56,13203,1,0,0:0:0:0:
140,104,13310,1,2,0:0:0:0:
250,282,13524,1,2,0:0:0:0:
313,75,13739,1,8,0:0:0:0:
153,202,13953,6,0,L|23:264,1,135.999996185303,0|2,0:0|0:0,0:0:0:0:
247,141,14381,1,2,0:0:0:0:
127,340,14596,2,0,L|249:281,1,135.999996185303,8|0,0:0|0:0,0:0:0:0:
268,250,14917,5,8,0:0:0:0:
226,247,15024,1,2,0:0:0:0:
343,192,15131,5,8,0:0:0:0:
385,195,15239,1,2,0:0:0:0:
289,359,15453,1,8,0:0:0:0:
247,141,15667,1,2,0:0:0:0:
138,227,15881,6,0,P|196:281|290:258,1,135.999996185303,2|0,0:0|0:0,0:0:0:0:
247,141,16310,1,8,0:0:0:0:
54,178,16524,1,2,0:0:0:0:
50,218,16631,1,2,0:0:0:0:
56,258,16738,1,2,0:0:0:0:
343,192,16953,1,2,0:0:0:0:
151,90,17167,1,8,0:0:0:0:
184,357,17381,5,4,0:0:0:0:
184,357,17810,5,8,0:0:0:0:
301,207,18024,1,8,0:0:0:0:
418,57,18239,1,8,0:0:0:0:
151,90,18453,5,2,0:0:0:0:
226,149,18667,1,2,0:0:0:0:
301,207,18881,1,2,0:0:0:0:
376,265,19096,1,2,0:0:0:0:
135,233,19310,5,8,0:0:0:0:
110,156,19417,1,8,0:0:0:0:
151,90,19524,1,8,0:0:0:0:
213,236,19739,1,8,0:0:0:0:
151,90,19953,5,8,0:0:0:0:
176,167,20060,1,8,0:0:0:0:
135,233,20166,1,8,0:0:0:0:
73,87,20381,1,8,0:0:0:0:
230,106,20596,5,8,0:0:0:0:
256,201,20703,1,8,0:0:0:0:
234,302,20810,1,2,0:0:0:0:
217,318,20917,1,2,0:0:0:0:
155,358,21024,6,0,P|74:302|75:169,1,237.999986061097,4|0,0:0|0:0,0:0:0:0:
337,250,21667,2,0,P|292:288|235:302,1,118.999993030548,8|0,0:0|0:0,0:0:0:0:
266,93,22096,1,0,0:0:0:0:
266,93,22310,2,0,P|321:113|362:155,1,118.999993030548,0|0,0:0|0:0,0:0:0:0:
165,232,22739,5,8,0:0:0:0:
165,232,22953,2,0,P|154:174|170:117,1,118.999993030548,0|0,0:0|0:0,0:0:0:0:
98,287,23381,2,0,P|74:219|81:139,1,118.999993030548,8|0,0:0|0:0,0:0:0:0:
256,190,23810,1,0,0:0:0:0:
98,287,24024,1,0,0:0:0:0:
170,117,24239,1,0,0:0:0:0:
170,117,24346,1,0,0:0:0:0:
169,117,24453,5,8,0:0:0:0:
62,360,24667,1,0,0:0:0:0:
280,304,24881,1,0,0:0:0:0:
73,172,25096,2,0,P|76:231|98:287,1,118.999993030548,8|0,0:0|0:0,0:0:0:0:
280,304,25524,2,0,P|277:244|255:189,1,118.999993030548,0|0,0:0|0:0,0:0:0:0:
98,287,25953,1,0,0:0:0:0:
255,189,26167,5,8,0:0:0:0:
14,151,26381,1,0,0:0:0:0:
98,287,26596,1,0,0:0:0:0:
94,103,26810,1,8,0:0:0:0:
19,336,27024,1,0,0:0:0:0:
177,238,27239,1,0,0:0:0:0:
14,151,27453,1,8,0:0:0:0:
100,378,27667,1,0,0:0:0:0:
100,378,27774,1,0,0:0:0:0:
100,378,27881,6,0,L|253:378,1,118.999993030548,8|0,0:0|0:0,0:0:0:0:
338,378,28310,1,0,0:0:0:0:
177,238,28524,2,0,L|330:238,1,118.999993030548,8|0,0:0|0:0,0:0:0:0:
415,238,28953,1,0,0:0:0:0:
177,146,29167,1,0,0:0:0:0:
415,145,29381,1,0,0:0:0:0:
177,238,29596,5,8,0:0:0:0:
177,238,29810,2,0,P|118:287|44:280,1,118.999993030548,0|0,0:0|0:0,0:0:0:0:
177,146,30239,2,0,P|261:214|210:322,1,237.999986061097,8|0,0:0|0:0,0:0:0:0:
76,117,30881,2,0,P|109:62|202:46,1,118.999993030548
258,70,31203,1,0,0:0:0:0:
258,70,31310,6,0,P|225:125|132:141,1,118.999993030548,8|0,0:0|0:0,0:0:0:0:
157,41,31739,1,0,0:0:0:0:
291,178,31953,2,0,P|322:214|334:297,1,118.999993030548,8|0,0:0|0:0,0:0:0:0:
109,237,32381,2,0,P|124:192|190:140,1,118.999993030548,0|0,0:0|0:0,0:0:0:0:
251,366,32810,6,0,P|204:374|126:343,1,118.999993030548,0|8,0:0|0:0,0:0:0:0:
176,145,33239,1,0,0:0:0:0:
251,366,33453,1,0,0:0:0:0:
109,237,33667,1,8,0:0:0:0:
335,281,33881,2,0,L|476:309,1,118.999993030548,0|0,0:0|0:0,0:0:0:0:
268,131,34310,1,0,0:0:0:0:
375,83,34524,1,2,0:0:0:0:
375,83,34631,1,2,0:0:0:0:
375,83,34739,5,6,0:0:0:0:
268,131,34953,1,0,0:0:0:0:
268,131,35167,2,0,P|267:68|290:18,1,118.999993030548,0|8,0:0|0:0,0:0:0:0:
233,206,35489,2,0,P|234:143|210:93,1,118.999993030548,0|0,0:0|0:0,0:0:0:0:
283,171,35810,1,0,0:0:0:0:
262,284,36024,1,0,0:0:0:0:
356,243,36239,1,8,0:0:0:0:
410,46,36453,5,8,0:0:0:0:
456,217,36667,1,0,0:0:0:0:
283,171,36881,1,0,0:0:0:0:
481,117,37096,5,8,0:0:0:0:
356,243,37310,1,0,0:0:0:0:
311,72,37524,1,0,0:0:0:0:
311,72,37631,1,0,0:0:0:0:
311,72,37739,1,0,0:0:0:0:
455,217,37953,1,8,0:0:0:0:
329,343,38167,5,8,0:0:0:0:
284,171,38381,1,0,0:0:0:0:
455,217,38596,1,0,0:0:0:0:
383,144,38810,1,8,0:0:0:0:
383,144,39238,5,0,0:0:0:0:
383,144,39346,1,0,0:0:0:0:
383,144,39453,1,0,0:0:0:0:
329,343,39667,1,8,0:0:0:0:
284,172,39881,1,8,0:0:0:0:
284,172,40310,1,0,0:0:0:0:
58,196,40524,6,0,B|155:132|182:249|292:165,1,237.999986061097,8|0,0:0|0:0,0:0:0:0:
371,116,41167,2,0,P|284:66|233:81,1,118.999993030548,8|2,0:0|0:0,0:0:0:0:
269,274,41489,1,2,0:0:0:0:
269,274,41596,6,0,P|327:266|373:229,1,118.999993030548,14|0,0:0|0:0,0:0:0:0:
445,152,42024,2,0,P|475:204|464:277,1,118.999993030548,0|8,0:0|0:0,0:0:0:0:
377,93,42453,1,0,0:0:0:0:
388,71,42560,1,0,0:0:0:0:
403,54,42667,1,0,0:0:0:0:
423,40,42774,1,0,0:0:0:0:
445,32,42881,1,8,0:0:0:0:
371,116,43096,1,8,0:0:0:0:
297,32,43310,6,0,P|276:114|286:184,1,118.999993030548,8|0,0:0|0:0,0:0:0:0:
371,116,43739,1,0,0:0:0:0:
220,233,43953,2,0,P|199:151|222:16,1,178.499989545823,8|0,0:0|0:0,0:0:0:0:
352,259,44489,1,0,0:0:0:0:
352,259,44596,2,0,P|314:342|267:372,1,118.999993030548,0|8,0:0|0:0,0:0:0:0:
146,317,45024,6,0,P|125:235|135:165,1,118.999993030548,8|0,0:0|0:0,0:0:0:0:
220,233,45453,1,0,0:0:0:0:
97,63,45667,2,0,P|50:172|55:290,1,237.999986061097,8|0,0:0|0:0,0:0:0:0:
220,233,46310,1,0,0:0:0:0:
55,290,46524,1,8,0:0:0:0:
202,332,46739,1,8,0:0:0:0:
201,332,47167,5,8,0:0:0:0:
55,290,47382,1,8,0:0:0:0:
378,237,47596,1,0,0:0:0:0:
143,384,47811,1,8,0:0:0:0:
117,116,48024,1,8,0:0:0:0:
117,116,48453,5,8,0:0:0:0:
408,42,48667,1,10,0:0:0:0:
206,149,48881,2,0,P|212:113|202:76,1,67.9999980926514,0|0,0:0|0:0,0:0:0:0:
319,193,49096,2,0,P|312:157|322:120,1,67.9999980926514,2|0,0:0|0:0,0:0:0:0:
423,228,49310,5,0,0:0:0:0:
362,277,49417,1,0,0:0:0:0:
277,271,49524,1,2,0:0:0:0:
218,214,49631,1,0,0:0:0:0:
140,185,49739,2,0,P|104:182|62:198,1,67.9999980926514,0|0,0:0|0:0,0:0:0:0:
0,309,49953,2,0,P|32:318|66:314,1,67.9999980926514,2|0,0:0|0:0,0:0:0:0:
74,97,50167,5,8,0:0:0:0:
177,380,50381,1,10,0:0:0:0:
298,173,50596,1,0,0:0:0:0:
298,173,50703,2,0,L|220:180,1,67.9999980926514,0|2,0:0|0:0,0:0:0:0:
324,325,50917,1,0,0:0:0:0:
324,325,51024,1,0,0:0:0:0:
324,325,51131,2,0,L|239:317,1,67.9999980926514,0|2,0:0|0:0,0:0:0:0:
404,277,51346,1,0,0:0:0:0:
404,277,51453,2,0,B|415:310|415:310|410:357,1,67.9999980926514,0|0,0:0|0:0,0:0:0:0:
490,116,51667,2,0,B|479:149|479:149|484:196,1,67.9999980926514,2|0,0:0|0:0,0:0:0:0:
394,27,51881,5,8,0:0:0:0:
485,267,52096,1,10,0:0:0:0:
312,125,52310,2,0,P|359:129|382:122,1,67.9999980926514,0|0,0:0|0:0,0:0:0:0:
262,229,52524,2,0,P|295:222|328:227,1,67.9999980926514,2|0,0:0|0:0,0:0:0:0:
221,108,52739,2,0,L|234:38,1,67.9999980926514,0|0,0:0|0:0,0:0:0:0:
169,229,52953,2,0,L|181:306,1,67.9999980926514,2|0,0:0|0:0,0:0:0:0:
74,95,53167,2,0,P|109:89|159:104,1,67.9999980926514,0|0,0:0|0:0,0:0:0:0:
328,227,53381,5,2,0:0:0:0:
328,227,53489,1,0,0:0:0:0:
328,227,53596,2,0,P|407:250|425:148,1,203.999994277954,12|0,0:0|0:0,0:0:0:0:
349,56,54024,2,0,L|274:62,1,67.9999980926514,8|0,0:0|0:0,0:0:0:0:
134,175,54239,2,0,P|125:100|213:140,1,203.999994277954,4|8,0:0|0:0,0:0:0:0:
251,266,54667,2,0,B|217:272|217:272|176:266,1,67.9999980926514,2|0,0:0|0:0,0:0:0:0:
17,173,54881,2,0,B|47:192|47:192|74:224,1,67.9999980926514,8|8,0:0|0:0,0:0:0:0:
76,384,55096,2,0,B|79:352|79:352|95:307,1,67.9999980926514,2|2,0:0|0:0,0:0:0:0:
277,185,55310,5,12,0:0:0:0:
461,370,55524,1,10,0:0:0:0:
249,333,55739,2,0,P|253:299|248:255,1,67.9999980926514
372,113,55953,1,2,0:0:0:0:
372,113,56060,1,0,0:0:0:0:
372,113,56167,2,0,P|359:179|379:257,1,135.999996185303,0|2,0:0|0:0,0:0:0:0:
209,194,56489,1,0,0:0:0:0:
209,194,56596,2,0,L|289:183,1,67.9999980926514,0|0,0:0|0:0,0:0:0:0:
442,146,56810,2,0,P|436:181|448:221,1,67.9999980926514,2|0,0:0|0:0,0:0:0:0:
398,32,57024,5,8,0:0:0:0:
368,291,57239,1,10,0:0:0:0:
247,50,57453,1,0,0:0:0:0:
206,56,57560,1,0,0:0:0:0:
139,124,57667,1,2,0:0:0:0:
177,139,57774,1,0,0:0:0:0:
252,220,57881,5,0,0:0:0:0:
256,232,57989,1,0,0:0:0:0:
260,244,58096,2,0,L|341:230,1,67.9999980926514,2|0,0:0|0:0,0:0:0:0:
445,162,58310,2,0,P|449:198|465:230,1,67.9999980926514,0|0,0:0|0:0,0:0:0:0:
333,83,58524,2,0,P|330:116|315:151,1,67.9999980926514,2|0,0:0|0:0,0:0:0:0:
221,20,58739,5,8,0:0:0:0:
143,228,58953,1,10,0:0:0:0:
0,54,59167,1,0,0:0:0:0:
0,54,59274,2,0,B|73:28|52:94|133:67,1,135.999996185303,0|0,0:0|0:0,0:0:0:0:
277,17,59596,1,0,0:0:0:0:
229,83,59703,1,0,0:0:0:0:
238,163,59810,1,2,0:0:0:0:
299,216,59917,1,0,0:0:0:0:
379,227,60024,2,0,L|468:209,1,67.9999980926514,0|0,0:0|0:0,0:0:0:0:
340,359,60239,2,0,L|271:354,1,67.9999980926514,2|0,0:0|0:0,0:0:0:0:
114,252,60453,6,0,P|217:271|134:328,1,254.999992847443,4|0,0:0|0:0,0:0:0:0:
22,234,60881,2,0,L|35:139,1,84.9999976158143,8|0,0:0|0:0,0:0:0:0:
138,32,61096,2,0,L|147:125,1,84.9999976158143,4|0,0:0|0:0,0:0:0:0:
266,63,61310,5,8,0:2:0:0:
303,82,61417,1,8,0:2:0:0:
331,131,61524,1,8,0:2:0:0:
312,202,61631,1,8,0:2:0:0:
239,242,61739,5,8,0:2:0:0:
231,328,61846,1,8,0:2:0:0:
311,379,61953,1,8,0:2:0:0:
400,338,62060,1,8,0:2:0:0:
405,244,62167,6,0,B|321:240|321:240|245:271|245:271|147:268,1,254.999992847443,12|0,0:0|0:0,0:0:0:0:
29,356,62596,2,0,P|49:274|-4:209,1,169.999995231629,8|2,0:0|0:0,0:0:0:0:
63,108,62917,1,10,0:0:0:0:
63,108,63024,2,0,P|104:119|156:113,1,84.9999976158143,2|0,0:0|0:0,0:0:0:0:
288,45,63239,2,0,P|232:37|194:45,1,84.9999976158143,2|0,0:0|0:0,0:0:0:0:
290,151,63453,2,0,L|393:143,1,84.9999976158143,8|0,0:0|0:0,0:0:0:0:
167,207,63667,1,2,0:0:0:0:
167,207,63774,1,2,0:0:0:0:
167,207,63881,6,0,P|136:283|177:363,1,169.999995231629,2|2,0:0|0:0,0:0:0:0:
380,283,64203,1,0,0:0:0:0:
380,283,64310,2,0,B|290:247|308:315|203:279,1,169.999995231629,8|0,0:0|0:0,0:0:0:0:
255,203,64631,5,8,0:0:0:0:
244,170,64739,1,2,0:0:0:0:
349,160,64846,5,8,0:0:0:0:
351,125,64953,1,2,0:0:0:0:
51,74,65167,6,0,L|147:65,1,84.9999976158143,8|0,0:0|0:0,0:0:0:0:
341,42,65381,1,0,0:0:0:0:
341,42,65489,1,0,0:0:0:0:
341,42,65596,2,0,P|354:86|349:131,1,84.9999976158143,2|0,0:0|0:0,0:0:0:0:
244,252,65810,6,0,L|334:238,1,84.9999976158143,0|0,0:0|0:0,0:0:0:0:
491,212,66024,2,0,L|401:226,1,84.9999976158143,8|0,0:0|0:0,0:0:0:0:
187,151,66239,6,0,L|277:137,1,84.9999976158143,2|2,0:0|0:0,0:0:0:0:
434,111,66453,2,0,L|344:125,1,84.9999976158143,2|0,0:0|0:0,0:0:0:0:
161,232,66667,2,0,P|159:147|79:106,1,169.999995231629,2|8,0:0|0:0,0:0:0:0:
41,371,67096,5,8,0:0:0:0:
125,367,67203,1,8,0:0:0:0:
209,364,67310,2,0,L|228:220,1,84.9999976158143,14|0,0:0|0:0,0:0:0:0:
92,106,67524,2,0,L|102:197,1,84.9999976158143,0|0,0:0|0:0,0:0:0:0:
327,234,67739,2,0,P|275:206|239:202,1,84.9999976158143,8|0,0:0|0:0,0:0:0:0:
32,33,67953,2,0,B|187:-8|120:101|279:59,1,254.999992847443,6|0,0:0|0:0,0:0:0:0:
429,17,68381,2,0,P|416:54|426:108,1,84.9999976158143,2|0,0:0|0:0,0:0:0:0:
509,233,68596,5,8,0:2:0:0:
440,283,68703,1,8,0:2:0:0:
355,281,68810,1,8,0:2:0:0:
287,230,68917,1,8,0:2:0:0:
236,161,69024,6,0,P|112:140|44:235,1,254.999992847443,6|0,0:0|0:0,0:0:0:0:
132,373,69453,2,0,L|308:366,1,169.999995231629,8|2,0:0|0:0,0:0:0:0:
445,259,69774,1,2,0:0:0:0:
445,259,69881,2,0,L|438:350,1,84.9999976158143,2|0,0:0|0:0,0:0:0:0:
311,278,70096,2,0,P|272:269|223:280,1,84.9999976158143,2|0,0:0|0:0,0:0:0:0:
419,176,70310,2,0,P|472:174|501:191,1,84.9999976158143,8|0,0:0|0:0,0:0:0:0:
276,102,70524,2,0,L|283:186,1,84.9999976158143,2|0,0:0|0:0,0:0:0:0:
109,43,70739,6,0,L|195:36,1,84.9999976158143,2|0,0:0|0:0,0:0:0:0:
384,94,70953,2,0,L|282:87,1,84.9999976158143,2|0,0:0|0:0,0:0:0:0:
137,169,71167,2,0,P|205:213|283:186,1,169.999995231629,8|0,0:0|0:0,0:0:0:0:
384,172,71489,5,8,0:0:0:0:
419,176,71596,1,2,0:0:0:0:
472,269,71703,5,8,0:0:0:0:
438,275,71810,1,2,0:0:0:0:
210,355,72024,6,0,P|310:309|279:184,1,254.999992847443,8|0,0:0|0:0,0:0:0:0:
72,286,72453,6,0,B|125:245|236:271|236:271|196:213|193:184,1,254.999992847443,2|0,0:0|0:0,0:0:0:0:
121,98,72881,2,0,L|227:86,1,84.9999976158143,8|0,0:0|0:0,0:0:0:0:
323,26,73096,1,8,0:0:0:0:
323,26,73203,1,8,0:0:0:0:
323,26,73310,2,0,P|321:69|339:109,1,84.9999976158143,2|0,0:0|0:0,0:0:0:0:
464,182,73524,2,0,P|476:131|472:95,1,84.9999976158143,2|0,0:0|0:0,0:0:0:0:
282,186,73739,2,0,P|248:258|294:337,1,169.999995231629,8|8,0:0|0:0,0:0:0:0:
495,275,74060,5,8,0:2:0:0:
416,243,74167,1,12,0:2:0:0:
332,256,74274,1,8,0:2:0:0:
257,295,74381,1,8,0:2:0:0:
172,306,74489,1,0,0:2:0:0:
97,265,74596,1,8,0:2:0:0:
212,140,74810,5,6,0:2:0:0:
242,219,74917,1,8,0:2:0:0:
157,209,75024,1,8,0:2:0:0:
324,47,75239,5,8,0:2:0:0:
427,313,75453,5,8,0:2:0:0:
342,305,75560,1,8,0:2:0:0:
257,314,75667,1,8,0:2:0:0:
172,306,75774,1,8,0:2:0:0:
87,317,75881,6,0,B|30:228|51:155|51:155|140:171,1,254.999992847443,6|0,0:0|0:0,0:0:0:0:
342,305,76310,2,0,P|404:253|394:165,1,169.999995231629,8|0,0:0|0:0,0:0:0:0:
242,135,76631,1,8,0:0:0:0:
242,135,76739,2,0,P|234:178|244:225,1,84.9999976158143,2|0,0:0|0:0,0:0:0:0:
338,105,76953,2,0,P|343:48|333:11,1,84.9999976158143,2|0,0:0|0:0,0:0:0:0:
156,224,77167,2,0,L|259:216,1,84.9999976158143,8|0,0:0|0:0,0:0:0:0:
433,144,77381,5,2,0:0:0:0:
444,228,77489,1,2,0:0:0:0:
453,312,77596,2,0,B|342:288|400:349|281:328,1,169.999995231629,2|0,0:0|0:0,0:0:0:0:
83,260,77917,1,0,0:0:0:0:
83,260,78024,2,0,B|187:269|138:202|249:218,1,169.999995231629,8|0,0:0|0:0,0:0:0:0:
336,181,78346,5,8,0:0:0:0:
370,185,78453,1,2,0:0:0:0:
441,270,78560,5,8,0:0:0:0:
407,274,78667,1,2,0:0:0:0:
223,375,78881,6,0,L|215:274,1,84.9999976158143,8|0,0:0|0:0,0:0:0:0:
85,29,79096,1,0,0:0:0:0:
56,107,79203,1,0,0:0:0:0:
102,177,79310,2,0,P|147:174|195:146,1,84.9999976158143,2|0,0:0|0:0,0:0:0:0:
310,262,79524,6,0,L|296:172,1,84.9999976158143,0|0,0:0|0:0,0:0:0:0:
270,15,79739,2,0,L|284:105,1,84.9999976158143,8|0,0:0|0:0,0:0:0:0:
209,319,79953,6,0,L|195:229,1,84.9999976158143,8|8,0:0|0:0,0:0:0:0:
169,72,80167,2,0,L|183:162,1,84.9999976158143,2|0,0:0|0:0,0:0:0:0:
0,239,80381,2,0,P|70:237|128:327,1,169.999995231629,2|8,0:0|0:0,0:0:0:0:
362,216,80810,5,8,0:0:0:0:
362,216,80917,1,8,0:0:0:0:
362,216,81024,2,0,L|186:238,1,169.999995231629,6|0,0:0|0:0,0:0:0:0:
432,359,81453,1,8,0:0:0:0:
240,151,81667,2,0,P|131:162|116:298,1,254.999992847443,4|0,0:0|0:0,0:0:0:0:
212,357,82096,2,0,L|301:347,1,84.9999976158143,2|0,0:0|0:0,0:0:0:0:
432,359,82310,5,8,0:2:0:0:
430,274,82417,1,8,0:2:0:0:
451,191,82524,1,8,0:2:0:0:
456,106,82631,1,8,0:2:0:0:
445,20,82739,6,0,B|360:19|360:19|286:59|286:59|191:57,1,254.999992847443,6|0,0:0|0:0,0:0:0:0:
56,0,83167,2,0,P|95:71|54:167,1,169.999995231629,8|0,0:0|0:0,0:0:0:0:
4,248,83489,5,10,0:0:0:0:
38,252,83596,1,2,0:0:0:0:
113,219,83703,5,8,0:0:0:0:
147,223,83810,1,2,0:0:0:0:
296,347,84024,6,0,P|352:255|273:128,1,254.999992847443,8|0,0:0|0:0,0:0:0:0:
200,57,84453,5,8,0:0:0:0:
200,57,86167,5,14,0:0:0:0:
256,192,86274,12,0,93024,0:0:0:0:
