osu file format v14

[General]
AudioFilename: audio.mp3
AudioLeadIn: 0
PreviewTime: 48346
Countdown: 0
SampleSet: Soft
StackLeniency: 0.4
Mode: 0
LetterboxInBreaks: 0
WidescreenStoryboard: 0

[Editor]
DistanceSpacing: 1.3
BeatDivisor: 4
GridSize: 16
TimelineZoom: 1.7

[Metadata]
Title:again
TitleUnicode:again
Artist:YUI
ArtistUnicode:YUI
Creator:FoxyGrandpa
Version:Forest's Hyper
Source:鋼の錬金術師 FULLMETAL ALCHEMIST
Tags:full metal alchemist brotherhood osuskrub finshie kkipalt asaiga cheesecake rizen aqpw sulfur su1fu7 zero zer0- 0 underforest gero TV size opening
BeatmapID:1388106
BeatmapSetID:623911

[Difficulty]
HPDrainRate:5.8
CircleSize:4.2
OverallDifficulty:7
ApproachRate:8.3
SliderMultiplier:1.6
SliderTickRate:1

[Events]
//Background and Video events
0,0,"73729.jpg",0,0
Video,-320,"Fullmetal Alchemist Brotherhood Opening 1 HD.flv"
//Break Periods
//Storyboard Layer 0 (Background)
//Storyboard Layer 1 (Fail)
//Storyboard Layer 2 (Pass)
//Storyboard Layer 3 (Foreground)
//Storyboard Sound Samples

[TimingPoints]
-1261,428.571428571429,4,2,1,40,1,0
239,-125,4,2,1,40,0,0
453,-125,4,2,4,40,0,0
10310,-125,4,2,12,40,0,0
10417,-125,4,2,4,40,0,0
10605,-125,4,2,4,5,0,0
10739,-125,4,2,4,40,0,0
12024,-125,4,2,3,40,0,0
12453,-100,4,2,3,50,0,0
21024,-125,4,2,3,40,0,0
21131,-125,4,2,2,40,0,0
47381,-125,4,2,2,43,0,0
47596,-125,4,2,2,46,0,0
47810,-125,4,2,2,49,0,0
48024,-125,4,2,3,55,0,0
48453,-100,4,2,7,55,0,0
48881,-100,4,2,7,55,0,0
53596,-100,4,2,7,55,0,0
55096,-100,4,2,3,55,0,0
55310,-100,4,2,7,55,0,0
60453,-100,4,2,3,50,0,0
61310,-100,4,2,3,40,0,0
61417,-100,4,2,3,42,0,0
61524,-100,4,2,3,44,0,0
61631,-100,4,2,3,46,0,0
61739,-100,4,2,3,48,0,0
61846,-100,4,2,3,50,0,0
61953,-100,4,2,3,52,0,0
62060,-100,4,2,3,54,0,0
62167,-83.3333333333333,4,2,3,60,0,1
75239,-100,4,2,3,60,0,1
75881,-83.3333333333333,4,2,3,60,0,1
84346,-83.3333333333333,4,2,3,5,0,1
84453,-200,4,2,3,60,0,0
85739,-100,4,2,3,60,0,0
86167,-100,4,2,3,60,0,0
86274,-100,4,2,3,30,0,0
89596,-100,4,2,1,20,0,0
91310,-100,4,2,1,10,0,0
93024,-100,4,2,1,5,0,0

[Colours]
Combo1 : 128,128,128
Combo2 : 255,28,28
Combo3 : 128,0,0
Combo4 : 128,255,128
Combo5 : 128,255,255
Combo6 : 68,68,68
Combo7 : 128,128,192
Combo8 : 187,187,119

[HitObjects]
45,161,239,37,0,0:0:0:0:
45,161,453,2,0,P|75:185|173:164,1,128,8|0,0:0|0:0,0:0:0:0:
236,144,1096,2,0,L|229:276,2,128,8|0|0,0:0|0:0|0:0,0:0:0:0:
312,111,2167,5,8,0:0:0:0:
391,134,2381,1,0,0:0:0:0:
371,52,2596,1,0,0:0:0:0:
338,195,2810,2,0,L|345:327,1,128,8|0,0:0|0:0,0:0:0:0:
179,340,3667,1,0,0:0:0:0:
179,340,3774,1,0,0:0:0:0:
179,340,3881,102,0,P|143:345|91:325,1,64,8|0,0:0|0:0,0:0:0:0:
115,255,4310,2,0,P|146:249|177:254,1,64,0|8,0:0|0:0,0:0:0:0:
246,207,4739,2,0,P|254:155|255:128,1,64,0|0,0:0|0:0,0:0:0:0:
255,60,5167,1,8,0:0:0:0:
255,60,5596,5,8,0:0:0:0:
246,207,5810,1,2,0:0:0:0:
327,122,6024,1,2,0:0:0:0:
332,279,6239,2,0,P|390:301|462:267,1,128,10|2,0:0|0:0,0:0:0:0:
392,204,6881,1,8,0:0:0:0:
326,298,7096,1,0,0:0:0:0:
326,298,7203,1,0,0:0:0:0:
326,298,7310,102,0,L|322:380,1,64,8|0,0:0|0:0,0:0:0:0:
243,337,7739,2,0,L|246:273,1,64,0|8,0:0|0:0,0:0:0:0:
227,235,8060,2,0,P|193:247|125:229,1,96,0|0,0:0|0:0,0:0:0:0:
50,92,8810,1,0,0:0:0:0:
1,159,9024,6,0,L|6:222,1,64,8|0,0:0|0:0,0:0:0:0:
50,92,9453,2,0,L|44:28,1,64,0|8,0:0|0:0,0:0:0:0:
84,17,9774,2,0,P|122:22|166:9,1,64
230,25,10203,2,0,L|236:120,1,96
246,235,10739,101,8,0:0:0:0:
246,235,11167,2,0,L|262:378,1,128
343,372,11810,1,8,0:0:0:0:
172,345,12024,2,0,P|117:351|74:326,1,96,8|0,0:0|0:0,0:0:0:0:
55,288,12453,86,0,L|48:189,1,80,4|0,0:0|0:0,0:0:0:0:
139,107,12881,2,0,L|144:186,1,80,8|0,0:0|0:0,0:0:0:0:
151,216,13203,1,0,0:0:0:0:
151,216,13310,1,2,0:0:0:0:
302,256,13524,1,2,0:0:0:0:
172,345,13739,1,8,0:0:0:0:
271,173,13953,6,0,P|310:171|366:200,1,80,0|2,0:0|0:0,0:0:0:0:
397,355,14381,2,0,P|358:357|302:328,1,80,2|8,0:0|0:0,0:0:0:0:
192,237,14810,1,0,0:0:0:0:
172,238,14917,1,8,0:0:0:0:
152,239,15024,1,2,0:0:0:0:
132,240,15131,1,8,0:0:0:0:
112,241,15238,1,2,0:0:0:0:
153,97,15453,2,0,L|280:89,1,120,8|0,0:0|0:0,0:0:0:0:
301,101,15881,102,0,P|319:134|309:194,1,80,2|0,0:0|0:0,0:0:0:0:
195,236,16310,2,0,P|177:269|187:329,1,80,8|2,0:0|0:0,0:0:0:0:
197,336,16631,1,2,0:0:0:0:
197,336,16739,1,2,0:0:0:0:
281,245,16953,1,2,0:0:0:0:
96,309,17167,1,8,0:0:0:0:
288,338,17381,54,0,L|450:326,1,160,4|8,0:0|0:0,0:0:0:0:
393,200,18024,1,8,0:0:0:0:
482,96,18239,1,8,0:0:0:0:
347,80,18453,2,0,L|241:98,1,80,2|2,0:0|0:0,0:0:0:0:
152,210,18881,2,0,L|231:224,1,80,2|2,0:0|0:0,0:0:0:0:
363,254,19310,53,8,0:0:0:0:
363,254,19417,1,8,0:0:0:0:
363,254,19524,1,8,0:0:0:0:
228,149,19739,1,8,0:0:0:0:
275,312,19953,1,8,0:0:0:0:
275,312,20060,1,8,0:0:0:0:
275,312,20167,1,8,0:0:0:0:
416,184,20381,1,8,0:0:0:0:
357,326,20596,2,0,L|364:381,2,40,8|8|2,0:0|0:0|0:0,0:0:0:0:
287,228,21024,86,0,P|228:209|165:229,1,128,4|0,0:0|0:0,0:0:0:0:
87,201,21667,2,0,P|79:143|98:72,1,128,8|0,0:0|0:0,0:0:0:0:
170,39,22310,1,0,0:0:0:0:
171,122,22524,1,0,0:0:0:0:
243,80,22739,6,0,L|381:65,1,128,8|0,0:0|0:0,0:0:0:0:
446,100,23381,2,0,P|472:146|460:225,1,128,8|0,0:0|0:0,0:0:0:0:
437,297,24024,1,0,0:0:0:0:
358,267,24239,1,0,0:0:0:0:
358,267,24346,1,0,0:0:0:0:
358,267,24453,102,0,L|273:277,1,64,8|0,0:0|0:0,0:0:0:0:
212,286,24881,1,0,0:0:0:0:
183,364,25096,2,0,P|152:342|139:246,2,128,8|0|0,0:0|0:0|0:0,0:0:0:0:
212,286,26167,6,0,L|223:199,1,64,8|0,0:0|0:0,0:0:0:0:
279,163,26596,2,0,L|268:76,1,64,0|8,0:0|0:0,0:0:0:0:
335,47,27024,2,0,B|400:29|393:73|468:54,1,128,0|8,0:0|0:0,0:0:0:0:
495,172,27667,1,0,0:0:0:0:
495,172,27774,1,0,0:0:0:0:
495,172,27881,102,0,L|482:305,1,128,8|0,0:0|0:0,0:0:0:0:
399,301,28524,2,0,P|348:284|270:302,1,128,8|0,0:0|0:0,0:0:0:0:
179,304,29167,1,0,0:0:0:0:
232,367,29381,1,0,0:0:0:0:
225,229,29596,6,0,B|211:167|211:167|229:102,1,128,8|0,0:0|0:0,0:0:0:0:
296,56,30239,2,0,B|358:38|358:38|420:52,1,128,8|0,0:0|0:0,0:0:0:0:
478,112,30881,1,0,0:0:0:0:
443,188,31096,1,0,0:0:0:0:
443,188,31203,1,0,0:0:0:0:
443,188,31310,102,0,L|508:190,2,64,8|0|0,0:0|0:0|0:0,0:0:0:0:
381,244,31953,2,0,P|363:298|413:373,2,128,8|0|0,0:0|0:0|0:0,0:0:0:0:
444,297,33024,2,0,L|243:305,1,192,8|8,0:0|0:0,0:0:0:0:
85,291,34096,1,0,0:0:0:0:
124,217,34310,2,0,P|131:175|114:120,1,96,0|2,0:0|0:0,0:0:0:0:
133,86,34739,102,0,P|192:105|255:85,1,128,6|0,0:0|0:0,0:0:0:0:
328,122,35382,2,0,P|336:180|317:251,1,128,8|0,0:0|0:0,0:0:0:0:
333,328,36025,1,0,0:0:0:0:
256,296,36239,1,8,0:0:0:0:
256,296,36454,6,0,L|118:311,1,128,8|0,0:0|0:0,0:0:0:0:
51,279,37096,2,0,P|25:233|37:154,1,128,8|0,0:0|0:0,0:0:0:0:
42,119,37631,1,0,0:0:0:0:
42,119,37739,1,0,0:0:0:0:
97,56,37954,1,8,0:0:0:0:
154,117,38168,6,0,L|239:107,1,64,8|0,0:0|0:0,0:0:0:0:
300,98,38596,1,0,0:0:0:0:
329,20,38811,2,0,P|360:42|448:47,1,128,8|0,0:0|0:0,0:0:0:0:
485,64,39346,1,0,0:0:0:0:
485,64,39453,1,0,0:0:0:0:
428,124,39667,1,8,0:0:0:0:
344,124,39881,86,0,L|333:211,1,64,8|0,0:0|0:0,0:0:0:0:
281,250,40310,1,0,0:0:0:0:
206,287,40524,2,0,B|141:305|148:261|73:280,1,128,8|0,0:0|0:0,0:0:0:0:
52,199,41167,2,0,L|46:127,1,64,8|2,0:0|0:0,0:0:0:0:
125,108,41596,6,0,L|130:171,1,64,14|0,0:0|0:0,0:0:0:0:
177,240,42024,1,0,0:0:0:0:
243,190,42239,1,8,0:0:0:0:
243,190,42346,1,0,0:0:0:0:
243,190,42453,2,0,L|298:181,3,32,0|0|0|0,0:0|0:0|0:0|0:0,0:0:0:0:
316,185,42881,2,0,P|333:213|332:250,1,64,8|8,0:0|0:0,0:0:0:0:
285,311,43310,6,0,P|324:342|363:353,1,64,8|0,0:0|0:0,0:0:0:0:
417,366,43739,1,0,0:0:0:0:
479,310,43953,1,8,0:0:0:0:
435,191,44274,2,0,L|424:101,1,64
420,86,44596,1,8,0:0:0:0:
340,111,44810,1,8,0:0:0:0:
260,134,45024,86,0,L|192:99,2,64,8|0|0,0:0|0:0|0:0,0:0:0:0:
301,206,45667,2,0,P|317:246|280:320,1,128,8|0,0:0|0:0,0:0:0:0:
200,333,46310,2,0,L|133:343,1,64,0|8,0:0|0:0,0:0:0:0:
69,289,46739,101,8,0:0:0:0:
141,249,46953,1,0,0:0:0:0:
48,370,47167,1,8,0:0:0:0:
7,227,47381,2,0,L|25:80,1,128,8|8,0:0|0:0,0:0:0:0:
103,80,48024,2,0,P|161:62|217:82,1,96,8|0,0:0|0:0,0:0:0:0:
220,85,48453,69,8,0:0:0:0:
272,218,48667,1,10,0:0:0:0:
398,180,50167,37,8,0:0:0:0:
352,315,50381,1,10,0:0:0:0:
274,301,51881,53,8,0:0:0:0:
151,374,52095,1,10,0:0:0:0:
88,321,53596,6,0,L|68:209,1,80,12|0,0:0|0:0,0:0:0:0:
252,235,54024,1,8,0:0:0:0:
155,85,54239,2,0,B|212:76|212:76|250:98|250:98|316:90,1,160,4|2,0:0|0:0,0:0:0:0:
276,16,54881,1,8,0:0:0:0:
186,157,55096,1,2,0:0:0:0:
365,172,55310,101,12,0:0:0:0:
313,305,55524,1,10,0:0:0:0:
288,133,57024,53,8,0:0:0:0:
153,179,57238,1,10,0:0:0:0:
226,344,58739,53,8,0:0:0:0:
118,249,58952,1,10,0:0:0:0:
363,181,60453,6,0,P|314:158|218:213,1,160,4|8,0:0|0:0,0:0:0:0:
285,353,61096,2,0,B|315:290|315:290|296:210,1,120,4|8,0:0|0:2,0:0:0:0:
301,207,61524,1,8,0:2:0:0:
293,168,61631,1,8,0:2:0:0:
281,129,61739,2,0,L|276:62,1,40,8|8,0:2|0:2,0:0:0:0:
190,158,61953,2,0,L|195:91,1,40,8|8,0:2|0:2,0:0:0:0:
98,151,62167,102,0,L|87:249,1,95.9999970703126,12|0,0:0|0:0,0:0:0:0:
185,352,62596,1,8,0:0:0:0:
250,223,62810,2,0,P|297:215|357:230,1,95.9999970703126,2|2,0:0|0:0,0:0:0:0:
496,318,63238,2,0,P|449:327|402:319,1,95.9999970703126,2|8,0:0|0:0,0:0:0:0:
296,305,63667,1,2,0:0:0:0:
451,245,63881,5,2,0:0:0:0:
337,143,64096,2,0,L|312:40,1,95.9999970703126,2|8,0:0|0:0,0:0:0:0:
215,147,64524,2,0,L|190:250,1,95.9999970703126,0|2,0:0|0:0,0:0:0:0:
87,156,64953,2,0,L|62:53,1,95.9999970703126,2|8,0:0|0:0,0:0:0:0:
48,241,65381,1,0,0:0:0:0:
48,241,65489,1,0,0:0:0:0:
48,241,65596,102,0,P|94:247|152:227,1,95.9999970703126,2|0,0:0|0:0,0:0:0:0:
330,264,66024,1,8,0:0:0:0:
167,315,66239,1,2,0:0:0:0:
289,197,66453,1,2,0:0:0:0:
261,354,66667,2,0,L|238:258,1,95.9999970703126,2|8,0:0|0:0,0:0:0:0:
345,137,67096,1,8,0:0:0:0:
345,137,67203,1,8,0:0:0:0:
345,137,67310,5,14,0:0:0:0:
508,118,67524,1,0,0:0:0:0:
404,32,67739,1,8,0:0:0:0:
436,198,67953,2,0,P|389:273|373:208,1,191.999994140625,6|2,0:0|0:0,0:0:0:0:
331,58,68596,1,8,0:2:0:0:
307,58,68703,1,8,0:2:0:0:
283,60,68810,1,8,0:2:0:0:
259,61,68917,1,8,0:2:0:0:
234,63,69024,102,0,L|216:188,1,95.9999970703126,6|0,0:0|0:0,0:0:0:0:
305,324,69453,1,8,0:0:0:0:
438,189,69667,2,0,P|387:186|321:208,1,95.9999970703126,2|2,0:0|0:0,0:0:0:0:
224,281,70096,2,0,P|173:284|107:262,1,95.9999970703126,2|8,0:0|0:0,0:0:0:0:
86,137,70524,1,2,0:0:0:0:
15,262,70739,6,0,L|18:377,1,95.9999970703126,2|2,0:0|0:0,0:0:0:0:
86,137,71167,2,0,L|83:41,1,95.9999970703126,8|0,0:0|0:0,0:0:0:0:
104,28,71489,2,0,P|148:46|232:30,1,95.9999970703126,8|8,0:0|0:0,0:0:0:0:
220,39,71810,1,2,0:0:0:0:
336,128,72024,1,8,0:0:0:0:
192,176,72239,1,0,0:0:0:0:
330,137,72453,101,2,0:0:0:0:
195,185,72667,1,0,0:0:0:0:
346,221,72881,2,0,P|402:182|372:62,2,191.999994140625,8|2|8,0:0|0:0|0:0,0:0:0:0:
236,338,73953,1,8,0:0:0:0:
236,338,74060,1,8,0:2:0:0:
236,338,74167,5,12,0:2:0:0:
242,205,74381,1,8,0:2:0:0:
360,312,74596,1,8,0:2:0:0:
150,263,74810,2,0,L|38:248,1,95.9999970703126,6|0,0:2|0:0,0:0:0:0:
210,196,75239,1,8,0:2:0:0:
218,157,75346,1,0,0:0:0:0:
230,118,75454,2,0,L|235:51,1,40,8|0,0:2|0:0,0:0:0:0:
324,157,75668,2,0,L|319:90,1,40,8|0,0:2|0:0,0:0:0:0:
414,151,75882,6,0,L|425:249,1,95.9999970703126,6|0,0:0|0:0,0:0:0:0:
327,352,76311,1,8,0:0:0:0:
262,223,76525,2,0,P|215:215|155:230,1,95.9999970703126,0|2,0:0|0:0,0:0:0:0:
16,318,76953,2,0,P|63:327|110:319,1,95.9999970703126,2|8,0:0|0:0,0:0:0:0:
216,305,77382,1,2,0:0:0:0:
61,245,77596,5,2,0:0:0:0:
175,143,77811,2,0,L|200:40,1,95.9999970703126,0|0,0:0|0:0,0:0:0:0:
297,147,78239,2,0,L|322:250,1,95.9999970703126,0|2,0:0|0:0,0:0:0:0:
401,145,78668,2,0,L|426:42,1,95.9999970703126,2|0,0:0|0:0,0:0:0:0:
490,109,78989,1,0,0:0:0:0:
502,134,79096,2,0,L|508:187,1,47.9999985351563,0|0,0:0|0:0,0:0:0:0:
460,250,79311,54,0,P|414:256|356:236,1,95.9999970703126,2|0,0:0|0:0,0:0:0:0:
182,264,79739,1,8,0:0:0:0:
345,315,79954,1,8,0:0:0:0:
223,197,80168,1,2,0:0:0:0:
251,354,80382,2,0,L|274:258,1,95.9999970703126,2|8,0:0|0:0,0:0:0:0:
167,137,80811,1,8,0:0:0:0:
167,137,80918,1,8,0:0:0:0:
167,137,81025,5,6,0:0:0:0:
4,118,81239,1,0,0:0:0:0:
108,32,81454,1,8,0:0:0:0:
76,198,81668,2,0,P|123:273|139:208,1,191.999994140625,4|2,0:0|0:0,0:0:0:0:
181,58,82311,1,8,0:2:0:0:
205,58,82418,1,8,0:2:0:0:
229,60,82525,1,8,0:2:0:0:
253,61,82632,1,8,0:2:0:0:
278,63,82739,6,0,L|296:188,1,95.9999970703126,6|0,0:0|0:0,0:0:0:0:
207,324,83168,1,8,0:0:0:0:
74,189,83382,2,0,P|125:186|191:208,1,95.9999970703126,0|2,0:0|0:0,0:0:0:0:
288,281,83811,2,0,P|339:284|405:262,1,95.9999970703126,2|0,0:0|0:0,0:0:0:0:
426,137,84239,1,0,0:0:0:0:
328,186,84453,86,0,B|312:63|312:63|292:94,1,160,8|0,0:0|0:0,0:0:0:0:
215,177,85524,1,0,0:0:0:0:
319,289,85739,2,0,P|393:263|435:197,1,160,0|14,0:0|0:0,0:0:0:0:
256,192,86274,12,0,93024,0:0:0:0:
