osu file format v14

[General]
AudioFilename: audio.mp3
AudioLeadIn: 0
PreviewTime: 48346
Countdown: 0
SampleSet: Soft
StackLeniency: 0.4
Mode: 0
LetterboxInBreaks: 0
WidescreenStoryboard: 1

[Editor]
Bookmarks: 39667,75881
DistanceSpacing: 1.5
BeatDivisor: 4
GridSize: 16
TimelineZoom: 1.7

[Metadata]
Title:again
TitleUnicode:again
Artist:YUI
ArtistUnicode:YUI
Creator:FoxyGrandpa
Version:Finshie's Hard
Source:鋼の錬金術師 FULLMETAL ALCHEMIST
Tags:full metal alchemist brotherhood osuskrub finshie kkipalt asaiga cheesecake rizen aqpw sulfur su1fu7 zero zer0- 0 underforest gero TV size opening
BeatmapID:1345567
BeatmapSetID:623911

[Difficulty]
HPDrainRate:5
CircleSize:4.2
OverallDifficulty:6
ApproachRate:7.5
SliderMultiplier:1.4
SliderTickRate:1

[Events]
//Background and Video events
0,0,"73729.jpg",0,0
Video,-320,"Fullmetal Alchemist Brotherhood Opening 1 HD.flv"
//Break Periods
//Storyboard Layer 0 (Background)
//Storyboard Layer 1 (Fail)
//Storyboard Layer 2 (Pass)
//Storyboard Layer 3 (Foreground)
//Storyboard Sound Samples

[TimingPoints]
-1261,428.571428571429,4,2,1,40,1,0
239,-125,4,2,1,40,0,0
453,-125,4,2,4,40,0,0
10310,-125,4,2,12,40,0,0
10417,-125,4,2,4,40,0,0
10631,-125,4,2,4,5,0,0
10739,-125,4,2,4,40,0,0
12024,-125,4,2,3,40,0,0
12453,-100,4,2,3,50,0,0
21024,-125,4,2,3,40,0,0
21131,-125,4,2,2,40,0,0
47381,-125,4,2,2,43,0,0
47596,-125,4,2,2,46,0,0
47810,-125,4,2,2,49,0,0
48024,-125,4,2,3,55,0,0
48453,-100,4,2,7,55,0,0
55096,-100,4,2,3,55,0,0
55310,-100,4,2,7,55,0,0
60453,-100,4,2,3,50,0,0
61310,-100,4,2,3,40,0,0
61417,-100,4,2,3,42,0,0
61524,-100,4,2,3,44,0,0
61631,-100,4,2,3,46,0,0
61739,-100,4,2,3,48,0,0
61846,-100,4,2,3,50,0,0
61953,-100,4,2,3,52,0,0
62060,-100,4,2,3,54,0,0
62167,-83.3333333333333,4,2,3,60,0,1
75239,-83.3333333333333,4,2,3,60,0,0
75774,-83.3333333333333,4,2,3,60,0,1
84346,-83.3333333333333,4,2,3,5,0,1
84453,-83.3333333333333,4,2,3,60,0,1
86167,-100,4,2,3,60,0,1
86274,-100,4,2,3,30,0,0
89596,-100,4,2,1,20,0,0
91310,-100,4,2,1,10,0,0
93024,-100,4,2,1,5,0,0

[Colours]
Combo1 : 128,128,128
Combo2 : 255,28,28
Combo3 : 128,0,0
Combo4 : 128,255,128
Combo5 : 128,255,255
Combo6 : 68,68,68
Combo7 : 128,128,192
Combo8 : 187,187,119

[HitObjects]
51,54,239,37,0,0:0:0:0:
111,112,453,2,0,P|121:187|105:231,1,112,8|0,0:0|0:0,0:0:0:0:
71,294,1096,2,0,P|111:271|198:284,1,112,8|0,0:0|0:0,0:0:0:0:
249,314,1739,1,8,0:0:0:0:
328,235,1953,1,0,0:0:0:0:
328,235,2167,6,0,L|322:119,1,112,8|0,0:0|0:0,0:0:0:0:
400,92,2810,2,0,L|405:203,1,112,8|0,0:0|0:0,0:0:0:0:
482,171,3453,1,8,0:0:0:0:
444,276,3667,1,0,0:0:0:0:
444,276,3774,1,0,0:0:0:0:
444,276,3881,102,0,P|404:287|370:276,1,56,8|0,0:0|0:0,0:0:0:0:
366,364,4310,2,0,P|329:343|313:311,1,56,0|8,0:0|0:0,0:0:0:0:
248,371,4739,2,0,P|237:331|248:296,1,56,0|0,0:0|0:0,0:0:0:0:
159,292,5167,2,0,P|179:255|211:239,1,56,8|0,0:0|0:0,0:0:0:0:
275,239,5596,5,8,0:0:0:0:
293,155,5810,1,2,0:0:0:0:
218,111,6024,1,2,0:0:0:0:
152,168,6239,2,0,L|31:156,1,112,10|2,0:0|0:0,0:0:0:0:
3,81,6881,1,8,0:0:0:0:
113,40,7096,1,0,0:0:0:0:
113,40,7203,1,0,0:0:0:0:
113,40,7310,102,0,P|147:39|179:46,1,56,8|0,0:0|0:0,0:0:0:0:
218,111,7739,2,0,P|245:115|273:113,1,56,0|8,0:0|0:0,0:0:0:0:
300,108,8060,2,0,L|300:215,1,84,0|0,0:0|0:0,0:0:0:0:
422,307,8810,1,0,0:0:0:0:
341,282,9024,5,8,0:0:0:0:
341,282,9239,2,0,P|282:269|217:292,1,112,0|8,0:0|0:0,0:0:0:0:
209,297,9774,1,0,0:0:0:0:
137,342,9989,1,0,0:0:0:0:
137,342,10176,2,0,L|139:223,1,119
140,201,10739,101,8,0:0:0:0:
140,73,11167,2,0,P|219:54|309:81,1,168,0|8,0:0|0:0,0:0:0:0:
372,120,12024,1,8,0:0:0:0:
380,132,12453,86,0,P|389:191|375:221,1,70,4|0,0:0|0:0,0:0:0:0:
327,258,12881,1,8,0:0:0:0:
327,258,13096,2,0,P|392:232|463:279,1,140,0|2,0:0|0:0,0:0:0:0:
388,317,13739,1,8,0:0:0:0:
278,362,13953,6,0,L|125:354,1,140,0|2,0:0|0:0,0:0:0:0:
77,296,14596,1,8,0:0:0:0:
97,215,14810,1,0,0:0:0:0:
97,215,14917,1,8,0:0:0:0:
97,215,15024,2,0,L|194:220,1,70,2|2,0:0|0:0,0:0:0:0:
237,173,15453,1,8,0:0:0:0:
246,162,15881,102,0,P|250:111|242:82,1,70,2|0,0:0|0:0,0:0:0:0:
181,38,16310,1,8,0:0:0:0:
181,38,16524,2,0,P|255:59|322:29,1,140,2|2,0:0|0:0,0:0:0:0:
388,1,17167,1,8,0:0:0:0:
388,1,17381,6,0,L|381:159,1,140,4|8,0:0|0:0,0:0:0:0:
463,161,18024,2,0,P|453:186|392:225,1,70,8|8,0:0|0:0,0:0:0:0:
466,288,18453,2,0,P|441:298|371:283,1,70,2|2,0:0|0:0,0:0:0:0:
378,379,18881,2,0,P|353:369|313:308,1,70,2|2,0:0|0:0,0:0:0:0:
325,253,19310,101,8,0:0:0:0:
325,253,19417,1,8,0:0:0:0:
325,253,19524,1,8,0:0:0:0:
398,296,19739,1,8,0:0:0:0:
323,338,19953,1,8,0:0:0:0:
323,338,20060,1,8,0:0:0:0:
323,338,20167,2,0,L|228:331,1,70,8|8,0:0|0:0,0:0:0:0:
168,329,20596,1,8,0:0:0:0:
168,329,20703,1,8,0:0:0:0:
168,329,20810,1,2,0:0:0:0:
67,377,21024,86,0,P|53:321|78:256,1,112,4|0,0:0|0:0,0:0:0:0:
121,205,21667,2,0,P|135:151|121:98,1,112,8|0,0:0|0:0,0:0:0:0:
52,50,22310,1,0,0:0:0:0:
52,50,22524,1,0,0:0:0:0:
121,97,22739,6,0,L|198:93,1,56,8|0,0:0|0:0,0:0:0:0:
252,131,23167,1,0,0:0:0:0:
252,131,23381,2,0,L|374:124,1,112,8|0,0:0|0:0,0:0:0:0:
441,93,24024,2,0,P|444:140|432:166,1,56,0|0,0:0|0:0,0:0:0:0:
428,172,24346,1,0,0:0:0:0:
428,172,24453,102,0,P|423:199|429:226,1,56,8|0,0:0|0:0,0:0:0:0:
484,290,24881,1,0,0:0:0:0:
484,290,25096,2,0,P|391:285|366:307,1,112,8|0,0:0|0:0,0:0:0:0:
326,357,25739,1,0,0:0:0:0:
326,357,25953,1,0,0:0:0:0:
270,293,26167,6,0,L|270:212,1,56,8|0,0:0|0:0,0:0:0:0:
206,181,26596,1,0,0:0:0:0:
206,181,26810,2,0,L|206:54,1,112,8|0,0:0|0:0,0:0:0:0:
130,106,27453,2,0,P|102:111|74:106,1,56,8|0,0:0|0:0,0:0:0:0:
47,101,27774,1,0,0:0:0:0:
47,101,27881,102,0,L|47:179,1,56,8|0,0:0|0:0,0:0:0:0:
0,227,28310,1,0,0:0:0:0:
0,227,28524,2,0,P|46:204|121:228,1,112,8|0,0:0|0:0,0:0:0:0:
153,283,29167,1,0,0:0:0:0:
153,283,29381,1,0,0:0:0:0:
202,351,29596,6,0,L|277:347,1,56,8|0,0:0|0:0,0:0:0:0:
323,296,30024,1,0,0:0:0:0:
323,296,30239,2,0,L|443:289,1,112,8|0,0:0|0:0,0:0:0:0:
479,219,30881,2,0,P|480:179|474:156,1,56,0|0,0:0|0:0,0:0:0:0:
455,144,31203,1,0,0:0:0:0:
455,144,31310,102,0,P|450:116|452:88,1,56,8|0,0:0|0:0,0:0:0:0:
495,16,31739,1,0,0:0:0:0:
495,16,31953,2,0,P|443:38|370:18,1,112,8|0,0:0|0:0,0:0:0:0:
308,7,32596,1,0,0:0:0:0:
308,7,32810,1,0,0:0:0:0:
319,90,33024,6,0,L|328:164,1,56,8|0,0:0|0:0,0:0:0:0:
268,207,33453,1,0,0:0:0:0:
268,207,33667,2,0,L|283:332,1,112,8|0,0:0|0:0,0:0:0:0:
363,355,34310,1,0,0:0:0:0:
288,325,34524,1,2,0:0:0:0:
288,325,34631,1,2,0:0:0:0:
288,325,34739,86,4,P|228:311|162:333,1,112,6|0,0:0|0:0,0:0:0:0:
117,378,35381,2,0,P|127:320|102:251,1,112,8|0,0:0|0:0,0:0:0:0:
52,210,36024,1,0,0:0:0:0:
134,134,36239,1,8,0:0:0:0:
134,134,36453,22,0,L|255:128,1,112,8|0,0:0|0:0,0:0:0:0:
301,65,37096,2,0,L|422:59,1,112,8|0,0:0|0:0,0:0:0:0:
496,52,37739,1,0,0:0:0:0:
436,146,37953,1,8,0:0:0:0:
436,146,38167,86,0,P|420:200|435:266,1,112,8|0,0:0|0:0,0:0:0:0:
477,322,38810,2,0,P|418:304|353:322,1,112,8|0,0:0|0:0,0:0:0:0:
295,353,39453,1,0,0:0:0:0:
185,330,39667,1,8,0:0:0:0:
185,330,39881,102,0,L|187:206,1,112,8|0,0:0|0:0,0:0:0:0:
106,193,40524,2,0,L|104:304,1,112,8|0,0:0|0:0,0:0:0:0:
23,278,41167,1,8,0:0:0:0:
23,278,41381,1,2,0:0:0:0:
126,321,41596,6,0,P|221:326|251:312,1,112,14|0,0:0|0:0,0:0:0:0:
301,268,42239,2,0,P|355:256|409:267,1,112,8|0,0:0|0:0,0:0:0:0:
477,321,42881,1,8,0:0:0:0:
472,208,43096,1,8,0:0:0:0:
472,208,43310,22,0,L|465:78,1,112,8|0,0:0|0:0,0:0:0:0:
495,17,43953,2,0,P|432:53|374:45,1,112,8|0,0:0|0:0,0:0:0:0:
314,26,44596,1,0,0:0:0:0:
214,77,44810,1,8,0:0:0:0:
214,77,45024,70,0,L|224:205,1,112,8|0,0:0|0:0,0:0:0:0:
281,248,45667,2,0,P|216:235|161:273,1,112,8|0,0:0|0:0,0:0:0:0:
233,316,46310,1,0,0:0:0:0:
344,302,46524,1,8,0:0:0:0:
344,302,46739,38,0,L|335:190,1,112,8|8,0:0|0:0,0:0:0:0:
392,128,47381,1,8,0:0:0:0:
468,164,47596,1,8,0:0:0:0:
458,248,47811,1,8,0:0:0:0:
376,263,48024,2,0,L|276:258,1,84,8|0,0:0|0:0,0:0:0:0:
256,256,48453,5,8,0:0:0:0:
164,306,48667,1,10,0:0:0:0:
164,306,50167,53,8,0:0:0:0:
88,233,50381,1,10,0:0:0:0:
88,233,51881,53,8,0:0:0:0:
133,138,52096,1,10,0:0:0:0:
133,138,53596,6,0,P|208:121|289:147,1,140,12|8,0:0|0:0,0:0:0:0:
351,200,54239,2,0,L|351:51,1,140,4|2,0:0|0:0,0:0:0:0:
437,0,54881,1,8,0:0:0:0:
437,0,54989,1,8,0:0:0:0:
437,0,55096,1,2,0:0:0:0:
351,60,55310,101,12,0:0:0:0:
446,105,55524,1,10,0:0:0:0:
446,105,57024,53,8,0:0:0:0:
432,209,57238,1,10,0:0:0:0:
432,209,58739,53,8,0:0:0:0:
328,227,58953,1,10,0:0:0:0:
328,227,60453,6,0,P|253:244|172:218,1,140,4|8,0:0|0:0,0:0:0:0:
96,276,61096,2,0,P|84:217|98:182,1,70,4|8,0:0|0:2,0:0:0:0:
161,128,61524,1,8,0:2:0:0:
161,128,61631,1,8,0:2:0:0:
161,128,61739,2,0,P|190:121|253:141,1,70,8|8,0:2|0:2,0:0:0:0:
330,202,62167,102,0,P|338:154|317:91,1,83.9999974365235,12|0,0:0|0:0,0:0:0:0:
270,36,62596,1,8,0:0:0:0:
270,36,62810,2,0,P|309:72|440:58,1,167.999994873047,2|2,0:0|0:0,0:0:0:0:
499,12,63453,1,8,0:0:0:0:
512,118,63667,1,2,0:0:0:0:
512,118,63774,1,2,0:0:0:0:
512,118,63881,6,0,L|509:212,1,83.9999974365235,2|2,0:0|0:0,0:0:0:0:
442,277,64310,1,8,0:0:0:0:
442,277,64524,2,0,P|345:288|280:255,1,167.999994873047,0|2,0:0|0:0,0:0:0:0:
224,176,65167,1,8,0:0:0:0:
291,265,65381,1,0,0:0:0:0:
291,265,65489,1,0,0:0:0:0:
291,265,65596,102,0,L|285:359,1,83.9999974365235,2|0,0:0|0:0,0:0:0:0:
180,278,66024,2,0,L|149:367,1,83.9999974365235,8|2,0:0|0:0,0:0:0:0:
69,261,66453,2,0,L|16:339,1,83.9999974365235,2|2,0:0|0:0,0:0:0:0:
42,176,66881,2,0,P|108:181|145:216,1,83.9999974365235,8|8,0:0|0:0,0:0:0:0:
140,207,67203,1,8,0:0:0:0:
140,207,67310,6,0,L|141:92,1,83.9999974365235,14|0,0:0|0:0,0:0:0:0:
137,21,67739,1,8,0:0:0:0:
234,100,67953,2,0,P|306:119|418:88,1,167.999994873047,6|2,0:0|0:0,0:0:0:0:
479,42,68596,1,8,0:2:0:0:
479,42,68703,1,8,0:2:0:0:
479,42,68810,1,8,0:2:0:0:
478,167,69024,102,0,L|473:338,1,167.999994873047,6|8,0:0|0:0,0:0:0:0:
386,282,69667,2,0,P|300:259|209:306,1,167.999994873047,2|2,0:0|0:0,0:0:0:0:
152,353,70310,1,8,0:0:0:0:
152,353,70524,1,2,0:0:0:0:
229,287,70739,6,0,P|237:204|213:154,1,125.999996154785,2|0,0:0|0:0,0:0:0:0:
200,129,71167,2,0,L|283:129,1,83.9999974365235,8|0,0:0|0:0,0:0:0:0:
320,109,71489,2,0,L|403:109,1,83.9999974365235,8|8,0:0|0:0,0:0:0:0:
445,109,71810,1,2,0:0:0:0:
504,189,72024,2,0,P|519:243|490:343,1,125.999996154785,8|0,0:0|0:0,0:0:0:0:
486,347,72453,102,0,L|311:344,1,167.999994873047,2|8,0:0|0:0,0:0:0:0:
241,278,73096,1,8,0:0:0:0:
241,278,73203,1,8,0:0:0:0:
241,278,73310,1,2,0:0:0:0:
318,212,73524,1,2,0:0:0:0:
241,146,73739,2,0,L|146:142,1,83.9999974365235,8|8,0:0|0:0,0:0:0:0:
131,143,74060,1,8,0:2:0:0:
105,142,74167,1,12,0:2:0:0:
69,47,74381,53,8,0:2:0:0:
69,47,74489,1,0,0:2:0:0:
69,47,74596,1,8,0:2:0:0:
157,142,74810,2,0,P|181:221|159:300,1,167.999994873047,6|8,0:2|0:2,0:0:0:0:
81,365,75453,1,8,0:2:0:0:
166,308,75667,1,8,0:2:0:0:
166,308,75774,1,8,0:2:0:0:
166,308,75881,86,0,P|213:297|275:319,1,83.9999974365235,6|0,0:0|0:0,0:0:0:0:
328,362,76310,1,8,0:0:0:0:
328,362,76524,2,0,P|293:297|335:198,1,167.999994873047,0|2,0:0|0:0,0:0:0:0:
288,115,77167,2,0,P|351:114|384:137,1,83.9999974365235,8|2,0:0|0:0,0:0:0:0:
388,138,77489,1,2,0:0:0:0:
388,138,77596,6,0,L|382:40,1,83.9999974365235,2|0,0:0|0:0,0:0:0:0:
477,87,78024,1,8,0:0:0:0:
477,87,78239,2,0,L|487:260,1,167.999994873047,0|2,0:0|0:0,0:0:0:0:
501,354,78881,1,8,0:0:0:0:
408,317,79096,1,0,0:0:0:0:
408,317,79203,1,0,0:0:0:0:
408,317,79310,6,0,P|345:302|305:315,1,83.9999974365235,2|0,0:0|0:0,0:0:0:0:
381,191,79739,2,0,P|316:192|280:215,1,83.9999974365235,8|0,0:0|0:0,0:0:0:0:
322,76,80167,2,0,P|259:94|231:125,1,83.9999974365235,2|2,0:0|0:0,0:0:0:0:
175,209,80596,2,0,L|64:195,1,83.9999974365235,8|8,0:0|0:0,0:0:0:0:
70,212,80917,1,8,0:0:0:0:
70,212,81024,2,0,P|53:269|70:320,1,83.9999974365235,6|0,0:0|0:0,0:0:0:0:
122,369,81453,1,8,0:0:0:0:
245,345,81667,54,0,P|266:257|246:169,1,167.999994873047,4|2,0:0|0:0,0:0:0:0:
167,125,82310,1,8,0:2:0:0:
167,125,82417,1,8,0:2:0:0:
167,125,82524,1,8,0:2:0:0:
271,196,82739,6,0,P|323:204|376:179,1,83.9999974365235,6|0,0:0|0:0,0:0:0:0:
407,110,83167,1,8,0:0:0:0:
407,110,83381,2,0,L|400:297,1,167.999994873047,0|2,0:0|0:0,0:0:0:0:
404,378,84024,1,8,0:0:0:0:
404,378,84131,1,0,0:0:0:0:
404,378,84239,1,0,0:0:0:0:
284,337,84453,37,8,0:0:0:0:
284,337,86167,21,14,0:0:0:0:
256,192,86274,12,0,93024,0:0:0:0:
