osu file format v14

[General]
AudioFilename: audio.mp3
AudioLeadIn: 0
PreviewTime: 48346
Countdown: 0
SampleSet: Soft
StackLeniency: 0.4
Mode: 0
LetterboxInBreaks: 0
WidescreenStoryboard: 1

[Editor]
DistanceSpacing: 1
BeatDivisor: 4
GridSize: 4
TimelineZoom: 1.2

[Metadata]
Title:again
TitleUnicode:again
Artist:YUI
ArtistUnicode:YUI
Creator:FoxyGrandpa
Version:Cheesecake's Easy
Source:鋼の錬金術師 FULLMETAL ALCHEMIST
Tags:full metal alchemist brotherhood osuskrub finshie kkipalt asaiga cheesecake rizen aqpw sulfur su1fu7 zero zer0- 0 underforest gero TV size opening
BeatmapID:1363553
BeatmapSetID:623911

[Difficulty]
HPDrainRate:3
CircleSize:2.5
OverallDifficulty:3
ApproachRate:4
SliderMultiplier:1
SliderTickRate:1

[Events]
//Background and Video events
0,0,"73729.jpg",0,0
Video,-320,"Fullmetal Alchemist Brotherhood Opening 1 HD.flv"
//Break Periods
//Storyboard Layer 0 (Background)
//Storyboard Layer 1 (Fail)
//Storyboard Layer 2 (Pass)
//Storyboard Layer 3 (Foreground)
//Storyboard Sound Samples

[TimingPoints]
-1261,428.571428571429,4,2,1,40,1,0
453,-100,4,2,4,40,0,0
12024,-100,4,2,3,40,0,0
12453,-100,4,2,3,50,0,0
21024,-100,4,2,3,40,0,0
21131,-100,4,2,2,40,0,0
47381,-100,4,2,2,43,0,0
47596,-100,4,2,2,46,0,0
47810,-100,4,2,2,49,0,0
48024,-100,4,2,3,55,0,0
48453,-100,4,2,7,55,0,0
55096,-100,4,2,3,55,0,0
55310,-100,4,2,7,55,0,0
60453,-100,4,2,3,50,0,0
61310,-100,4,2,3,40,0,0
61417,-100,4,2,3,42,0,0
61524,-100,4,2,3,44,0,0
61631,-100,4,2,3,46,0,0
61739,-100,4,2,3,48,0,0
61846,-100,4,2,3,50,0,0
61953,-100,4,2,3,52,0,0
62060,-100,4,2,3,54,0,0
62167,-100,4,2,3,60,0,1
75239,-100,4,2,3,60,0,0
75881,-100,4,2,3,60,0,1
84346,-100,4,2,3,5,0,1
84453,-100,4,2,3,60,0,0
86167,-100,4,2,3,60,0,1
86274,-100,4,2,3,30,0,0
89596,-100,4,2,1,20,0,0
91310,-100,4,2,1,10,0,0
93024,-100,4,2,1,5,0,0

[Colours]
Combo1 : 128,128,128
Combo2 : 255,28,28
Combo3 : 128,0,0
Combo4 : 128,255,128
Combo5 : 128,255,255
Combo6 : 68,68,68
Combo7 : 128,128,192
Combo8 : 187,187,119

[HitObjects]
257,106,453,38,0,P|329:95|413:113,2,150,8|8|8,0:0|0:0|0:0,0:0:0:0:
169,154,2167,2,0,P|97:143|13:161,2,150,8|8|8,0:0|0:0|0:0,0:0:0:0:
216,241,3881,6,0,P|214:304|216:340,2,100,8|0|0,0:0|0:0|0:0,0:0:0:0:
268,157,5167,1,8,0:0:0:0:
343,222,5596,2,0,B|388:225|437:195|437:195|462:193|492:198,2,150,8|10|8,0:0|0:0|0:0,0:0:0:0:
268,157,7310,102,0,P|197:132|124:142,2,150,8|8|8,0:0|0:0|0:0,0:0:0:0:
343,222,9024,2,0,L|503:213,2,150,8|8|8,0:0|0:0|0:0,0:0:0:0:
248,254,10739,6,0,B|130:276|166:236|40:257,1,200,8|0,0:0|0:0,0:0:0:0:
7,164,12024,1,8,0:0:0:0:
88,106,12453,70,0,B|186:83|186:83|282:101,1,200,4|2,0:0|0:0,0:0:0:0:
380,126,13739,1,8,0:0:0:0:
409,220,14167,2,0,P|412:271|410:321,2,100,2|8|2,0:0|0:0|0:0,0:0:0:0:
311,198,15453,1,8,0:0:0:0:
245,273,15881,6,0,B|191:284|150:252|150:252|99:267|39:263,1,200,2|2,0:0|0:0,0:0:0:0:
33,165,17167,1,8,0:0:0:0:
256,192,17596,12,4,21024,0:0:0:0:
322,279,22739,70,0,P|367:288|474:272,2,150,8|8|0,0:0|0:0|0:0,0:0:0:0:
231,236,24453,6,0,B|156:223|163:244|82:236,1,150,8|8,0:0|0:0,0:0:0:0:
45,143,25524,1,0,0:0:0:0:
185,89,26167,2,0,B|240:75|240:75|286:83|348:85,2,150,8|8|8,0:0|0:0|0:0,0:0:0:0:
110,156,27881,102,0,P|95:220|100:308,1,150,8|8,0:0|0:0,0:0:0:0:
249,307,29167,1,0,0:0:0:0:
342,341,29596,2,0,B|424:345|416:317|408:345|490:341,2,150,8|8|0,0:0|0:0|0:0,0:0:0:0:
325,244,31310,6,0,P|320:181|331:87,1,150,8|8,0:0|0:0,0:0:0:0:
368,2,32381,1,0,0:0:0:0:
226,52,33024,2,0,B|167:57|126:47|126:47|77:56,2,150,8|8|0,0:0|0:0|0:0,0:0:0:0:
324,34,34739,85,6,0:0:0:0:
413,79,35167,2,0,B|517:75|413:75|517:79,2,100,0|0|0,0:0|0:0|0:0,0:0:0:0:
329,133,36453,2,0,B|254:146|261:125|180:132,2,150,8|8|0,0:0|0:0|0:0,0:0:0:0:
418,178,38167,22,0,P|423:256|413:326,1,150,8|8,0:0|0:0,0:0:0:0:
264,311,39453,1,0,0:0:0:0:
230,217,39881,2,0,P|166:215|71:228,2,150,8|8|8,0:0|0:0|0:0,0:0:0:0:
328,234,41596,85,14,0:0:0:0:
384,151,42024,2,0,P|438:157|496:168,2,100,0|0|8,0:0|0:0|0:0,0:0:0:0:
285,145,43310,2,0,B|211:153|219:121|211:153|203:121|211:153|137:145,2,150,8|8|0,0:0|0:0|0:0,0:0:0:0:
340,63,45024,6,0,P|402:51|501:61,1,150,8|8,0:0|0:0,0:0:0:0:
486,207,46310,1,0,0:0:0:0:
422,284,46739,2,0,P|360:296|261:286,1,150,8|8,0:0|0:0,0:0:0:0:
143,214,48024,1,8,0:0:0:0:
108,120,48453,21,8,0:0:0:0:
501,50,50167,1,8,0:0:0:0:
108,120,51881,1,8,0:0:0:0:
501,50,53596,2,0,P|506:131|504:217,2,150,12|4|8,0:0|0:0|0:0,0:0:0:0:
401,36,55310,5,12,0:0:0:0:
8,106,57024,1,8,0:0:0:0:
401,36,58739,1,8,0:0:0:0:
8,106,60453,2,0,B|20:205|20:205|1:272,2,150,4|4|8,0:0|0:0|0:2,0:0:0:0:
96,58,62167,102,0,P|154:58|197:63,2,100,12|8|2,0:0|0:0|0:0,0:0:0:0:
8,106,63453,1,8,0:0:0:0:
92,158,63881,2,0,B|165:146|150:169|181:169|165:146|239:158,2,150,2|0|8,0:0|0:0|0:0,0:0:0:0:
23,230,65596,6,0,P|65:251|120:251,1,100,2|8,0:0|0:0,0:0:0:0:
215,262,66453,2,0,P|265:255|314:260,1,100,2|8,0:0|0:0,0:0:0:0:
385,189,67310,2,0,B|396:105|368:123|382:39,2,150,14|6|8,0:0|0:0|0:2,0:0:0:0:
410,284,69024,102,0,P|472:290|523:286,2,100,6|8|2,0:0|0:0|0:0,0:0:0:0:
315,260,70310,1,8,0:0:0:0:
242,190,70739,2,0,P|192:184|142:186,1,100,2|8,0:0|0:0,0:0:0:0:
106,92,71596,2,0,P|155:86|205:88,1,100,2|8,0:0|0:0,0:0:0:0:
304,101,72453,6,0,B|409:132|450:111,2,150,2|8|8,0:0|0:0|0:0,0:0:0:0:
205,88,74167,2,0,B|105:73|105:73|48:88,2,150,12|6|8,0:2|0:2|0:2,0:0:0:0:
180,185,75881,102,0,P|179:239|183:287,2,100,6|8|2,0:0|0:0|0:0,0:0:0:0:
277,159,77167,1,8,0:0:0:0:
362,211,77596,2,0,P|436:218|521:203,2,150,2|0|8,0:0|0:0|0:0,0:0:0:0:
274,258,79310,6,0,P|221:262|170:257,1,100,2|8,0:0|0:0,0:0:0:0:
115,177,80167,2,0,P|65:172|15:176,1,100,2|8,0:0|0:0,0:0:0:0:
31,78,81024,2,0,B|80:83|127:58|127:58|158:55|198:64,2,150,6|4|8,0:0|0:0|0:2,0:0:0:0:
15,177,82739,102,0,P|11:222|11:282,2,100,6|8|2,0:0|0:0|0:0,0:0:0:0:
113,160,84024,1,8,0:0:0:0:
196,215,84453,53,8,0:0:0:0:
256,192,86167,12,0,93024,0:0:0:0:
