osu file format v14

[General]
AudioFilename: audio.mp3
AudioLeadIn: 0
PreviewTime: 62992
Countdown: 0
SampleSet: Soft
StackLeniency: 0.7
Mode: 0
LetterboxInBreaks: 0
WidescreenStoryboard: 0

[Editor]
Bookmarks: 70632
DistanceSpacing: 0.7
BeatDivisor: 4
GridSize: 32
TimelineZoom: 2.1

[Metadata]
Title:Rolling star (TV Size)
TitleUnicode:Rolling star (TV Size)
Artist:YUI
ArtistUnicode:YUI
Creator:bite you death
Version:days
Source:BLEACH
Tags:byd γƒ–γƒͺーチ opening 5
BeatmapID:1842300
BeatmapSetID:881065

[Difficulty]
HPDrainRate:6
CircleSize:3.6
OverallDifficulty:8
ApproachRate:9.2
SliderMultiplier:1.7
SliderTickRate:1

[Events]
//Background and Video events
0,0,"zeni.png",0,0
//Break Periods
//Storyboard Layer 0 (Background)
//Storyboard Layer 1 (Fail)
//Storyboard Layer 2 (Pass)
//Storyboard Layer 3 (Foreground)
//Storyboard Sound Samples

[TimingPoints]
570,372.670807453416,4,2,2,40,1,0
570,-125,4,2,2,40,0,0
6160,-166.666666666667,4,2,2,50,0,0
6532,-100,4,2,2,60,0,0
13613,-83.3333333333333,4,2,2,60,0,0
13892,-83.3333333333333,4,2,2,5,0,0
13986,-125,4,2,2,45,0,0
24607,-125,4,2,2,5,0,0
24669,-125,4,2,2,45,0,0
24855,-125,4,2,2,5,0,0
24979,-125,4,2,2,45,0,0
25073,-125,4,2,2,5,0,0
25166,-125,4,2,2,45,0,0
25911,-111.111111111111,4,2,2,55,0,0
30383,-166.666666666666,4,2,2,45,0,0
31501,-111.111111111111,4,2,2,55,0,0
31874,-100,4,2,2,65,0,1
43799,-100,4,2,2,60,0,0
49762,-111.111111111111,4,2,2,55,0,0
55725,-111.111111111111,4,2,2,45,0,0
59079,-111.111111111111,4,2,2,48,0,0
59265,-111.111111111111,4,2,2,51,0,0
59451,-111.111111111111,4,2,2,54,0,0
59638,-111.111111111111,4,2,2,57,0,0
59824,-111.111111111111,4,2,2,60,0,0
60010,-111.111111111111,4,2,2,63,0,0
60197,-111.111111111111,4,2,2,65,0,0
62247,-166.666666666666,4,2,2,45,0,0
62899,-166.666666666666,4,2,2,5,0,0
62992,-111.111111111111,4,2,2,55,0,0
63178,-100,4,2,2,70,0,1
75104,-100,4,2,2,65,0,0
88333,-100,4,2,2,45,0,0
90010,-100,4,2,2,5,0,0

[Colours]
Combo1 : 255,106,181
Combo2 : 166,255,188
Combo3 : 226,197,197
Combo4 : 0,187,187

[HitObjects]
168,145,383,5,2,0:0:0:0:
245,213,570,2,0,L|325:196,1,68,2|2,0:0|0:0,0:0:0:0:
221,65,942,2,0,L|141:48,1,68,2|2,0:0|0:0,0:0:0:0:
249,222,1315,2,0,L|329:205,1,68,2|2,0:0|0:0,0:0:0:0:
225,56,1687,2,0,L|145:39,1,68,2|2,0:0|0:0,0:0:0:0:
286,127,2060,5,2,0:0:0:0:
166,194,2246,2,0,P|161:227|170:263,1,68,2|0,0:0|0:0,0:0:0:0:
371,150,2619,2,0,P|373:112|285:40,1,136,2|2,0:0|0:0,0:0:0:0:
286,127,3178,1,2,0:0:0:0:
225,56,3364,1,2,0:0:0:0:
122,170,3551,6,0,L|203:149,1,68,2|2,0:0|0:0,0:0:0:0:
325,242,3923,2,0,L|244:221,1,68,2|2,0:0|0:0,0:0:0:0:
180,254,4203,1,2,0:0:0:0:
180,254,4296,2,0,L|99:275,1,68,2|2,0:0|0:0,0:0:0:0:
267,326,4669,2,0,L|348:347,1,68,2|2,0:0|0:0,0:0:0:0:
259,224,5041,5,2,0:0:0:0:
177,349,5228,1,2,0:0:0:0:
187,152,5414,1,2,0:0:0:0:
267,326,5600,1,2,0:0:0:0:
317,125,5787,1,8,0:0:0:0:
329,103,5880,1,8,0:0:0:0:
349,87,5973,1,8,0:0:0:0:
374,80,6066,1,8,0:0:0:0:
399,84,6160,2,0,L|416:182,1,76.4999976654053,2|0,3:2|0:0,0:0:0:0:
469,234,6532,6,0,P|425:211|343:248,1,127.5,6|0,3:2|0:0,0:0:0:0:
334,262,6905,1,12,0:0:0:0:
173,201,7091,2,0,B|197:190|217:161|217:161|211:222|239:276,1,170
290,350,7650,1,8,0:0:0:0:
334,262,7837,1,0,0:0:0:0:
190,355,8023,6,0,P|122:348|72:265,1,170,0|8,3:0|0:0,0:0:0:0:
218,104,8582,2,0,B|207:171|207:171|179:194|179:194|169:260,1,170
102,110,9141,2,0,L|88:20,1,85,8|0,0:0|0:0,0:0:0:0:
261,238,9514,6,0,P|316:238|366:134,1,170,0|8,3:0|0:0,0:0:0:0:
280,14,10073,2,0,B|240:63|240:63|289:158,1,170
186,293,10632,2,0,P|171:244|181:194,1,85,8|0,0:0|0:0,0:0:0:0:
321,324,11004,5,12,3:2:0:0:
84,356,11191,1,0,0:0:0:0:
253,237,11377,1,0,0:0:0:0:
0,206,11563,5,12,3:2:0:0:
186,293,11750,1,0,0:0:0:0:
42,102,11936,1,0,0:0:0:0:
84,356,12122,6,0,P|125:378|178:383,1,85,12|0,3:2|0:0,0:0:0:0:
254,354,12402,1,8,0:0:0:0:
254,354,12495,5,12,3:2:0:0:
243,93,12681,1,0,0:0:0:0:
186,293,12868,1,0,0:0:0:0:
164,27,13054,5,12,3:2:0:0:
272,264,13240,1,0,0:0:0:0:
147,129,13427,1,0,0:0:0:0:
386,31,13613,6,0,P|450:39|493:128,1,152.999995330811,12|0,3:2|0:0,0:0:0:0:
468,191,13986,5,6,0:0:0:0:
379,306,14172,2,0,L|398:223,1,68,2|0,0:0|0:0,0:0:0:0:
269,188,14545,2,0,L|288:271,1,68,2|0,0:0|0:0,0:0:0:0:
388,310,14917,2,0,L|407:227,1,68,2|0,0:0|0:0,0:0:0:0:
255,358,15290,1,2,0:0:0:0:
152,215,15476,5,2,0:0:0:0:
219,269,15663,2,0,P|254:268|290:249,1,68,2|0,0:0|0:0,0:0:0:0:
164,128,16035,2,0,P|129:129|93:148,1,68,2|0,0:0|0:0,0:0:0:0:
221,277,16408,2,0,P|256:276|292:257,1,68,2|0,0:0|0:0,0:0:0:0:
359,148,16781,1,2,1:2:0:0:
427,260,16967,5,2,0:0:0:0:
449,170,17153,1,2,0:0:0:0:
337,238,17340,1,2,0:0:0:0:
359,148,17526,1,2,0:0:0:0:
427,260,17712,2,0,P|408:300|381:322,1,68,2|2,0:0|0:0,0:0:0:0:
292,144,18085,2,0,P|336:140|368:152,1,68,2|2,0:0|0:0,0:0:0:0:
260,319,18458,5,2,0:0:0:0:
260,319,18644,2,0,P|234:282|229:248,1,68,2|0,0:0|0:0,0:0:0:0:
150,157,19017,2,0,P|140:189|119:216,1,68,2|0,0:0|0:0,0:0:0:0:
123,67,19389,1,0,0:0:0:0:
214,88,19576,1,0,0:0:0:0:
59,136,19762,1,2,1:2:0:0:
216,4,19948,6,0,P|255:13|286:43,1,68,2|2,0:0|0:0,0:0:0:0:
221,153,20321,1,2,0:0:0:0:
221,153,20507,2,0,P|209:114|219:72,1,68,2|0,0:0|0:0,0:0:0:0:
347,75,20880,6,0,P|319:104|278:116,1,68,2|0,0:0|0:0,0:0:0:0:
388,0,21253,1,2,0:0:0:0:
433,74,21439,5,2,0:0:0:0:
433,74,21625,2,0,P|446:112|451:154,1,68,2|0,0:0|0:0,0:0:0:0:
310,225,21998,2,0,P|336:194|370:169,1,68,2|0,0:0|0:0,0:0:0:0:
503,257,22371,2,0,P|463:248|424:232,1,68,2|0,0:0|0:0,0:0:0:0:
358,177,22743,1,2,0:0:0:0:
450,139,22930,5,2,0:0:0:0:
372,79,23116,2,0,P|333:81|288:108,1,68,2|0,0:0|0:0,0:0:0:0:
337,240,23489,1,2,0:0:0:0:
337,240,23675,2,0,P|354:205|353:152,1,68,2|2,0:0|0:0,0:0:0:0:
215,129,24048,2,0,P|236:161|282:187,1,68,2|2,1:2|0:0,0:0:0:0:
239,36,24420,6,0,P|195:35|161:51,1,68,2|0,1:2|0:0,0:0:0:0:
152,21,24669,2,0,P|120:51|107:86,1,68,2|0,0:0|0:0,0:0:0:0:
79,70,24979,2,0,P|78:103|90:129,1,34,2|0,0:0|0:0,0:0:0:0:
152,211,25166,5,0,1:0:0:0:
54,230,25352,1,2,0:0:0:0:
120,305,25538,1,10,1:2:0:0:
86,136,25725,1,2,0:0:0:0:
218,286,25911,6,0,B|305:293|271:234|371:249,1,152.999995330811,6|0,3:2|0:0,0:0:0:0:
466,323,26470,2,0,B|443:282|443:282|466:173,1,152.999995330811,14|8,3:2|0:3,0:0:0:0:
331,122,27029,2,0,L|349:210,1,76.4999976654053,10|0,0:0|0:0,0:0:0:0:
436,33,27402,6,0,B|382:47|382:47|340:27|340:27|276:45,1,152.999995330811,6|8,3:2|0:0,0:0:0:0:
256,139,27961,2,0,L|341:119,1,76.4999976654053,8|0,0:0|0:0,0:0:0:0:
188,59,28333,1,8,0:0:0:0:
153,158,28520,1,8,0:0:0:0:
256,139,28706,1,8,0:0:0:0:
85,78,28892,6,0,P|47:137|71:228,1,152.999995330811,6|0,3:2|0:0,0:0:0:0:
146,313,29451,2,0,P|221:285|312:262,1,152.999995330811,14|0,3:2|0:0,0:0:0:0:
380,372,30010,2,0,P|342:358|296:346,1,76.4999976654053,10|0,0:0|0:0,0:0:0:0:
386,185,30383,6,0,P|443:202|471:258,2,101.999996887207,6|2|2,3:2|0:0|0:0,0:0:0:0:
296,226,31315,5,0,3:0:0:0:
269,61,31501,2,0,P|292:86|305:137,1,76.4999976654053,8|0,0:0|0:0,0:0:0:0:
287,326,31874,5,4,3:2:0:0:
212,135,32060,1,0,0:0:0:0:
85,296,32246,1,8,0:0:0:0:
296,226,32433,1,0,0:0:0:0:
21,143,32619,5,0,3:2:0:0:
186,311,32805,1,0,0:0:0:0:
157,45,32992,1,8,0:0:0:0:
85,296,33178,1,0,0:0:0:0:
40,26,33364,5,2,3:2:0:0:
138,162,33551,2,0,L|240:143,1,85,2|8,0:0|0:0,0:0:0:0:
356,5,33923,2,0,L|321:102,1,85,2|0,0:0|3:0,0:0:0:0:
326,207,34296,1,0,0:0:0:0:
221,146,34482,1,8,0:0:0:0:
327,84,34669,1,0,0:0:0:0:
220,269,34855,5,0,3:2:0:0:
416,255,35041,1,0,0:0:0:0:
221,146,35228,1,8,0:0:0:0:
304,329,35414,2,0,L|355:321,1,42.5,0|0,0:0|0:0,0:0:0:0:
491,298,35600,5,0,3:2:0:0:
220,269,35787,1,0,0:0:0:0:
448,373,35973,1,8,0:0:0:0:
326,207,36160,1,0,0:0:0:0:
171,378,36346,5,0,3:2:0:0:
221,146,36532,1,0,0:0:0:0:
304,329,36719,1,8,0:0:0:0:
124,181,36905,2,0,B|112:137|112:137|130:102,1,85,0|0,0:0|3:0,0:0:0:0:
385,48,37278,2,0,B|397:92|397:92|378:126,1,85,0|8,0:0|0:0,0:0:0:0:
240,12,37650,2,0,L|230:77,1,42.5,2|2,0:0|0:0,0:0:0:0:
197,285,37837,5,6,3:2:0:0:
130,101,38023,1,0,0:0:0:0:
310,193,38209,1,8,0:0:0:0:
97,219,38396,1,0,0:0:0:0:
377,126,38582,5,0,3:2:0:0:
278,329,38768,1,0,0:0:0:0:
233,54,38955,1,8,0:0:0:0:
90,339,39141,1,0,0:0:0:0:
130,101,39327,5,2,3:2:0:0:
202,165,39514,2,0,P|250:156|296:117,1,85,2|8,0:0|0:0,0:0:0:0:
415,320,39886,2,0,P|383:282|326:262,1,85,2|0,0:0|3:0,0:0:0:0:
171,282,40259,1,0,0:0:0:0:
364,173,40445,1,8,0:0:0:0:
227,357,40632,1,0,0:0:0:0:
279,136,40818,5,0,3:2:0:0:
415,320,41004,1,0,0:0:0:0:
353,80,41191,1,8,0:0:0:0:
264,272,41377,1,0,0:0:0:0:
438,117,41563,2,0,P|447:68|428:21,1,85,0|0,3:2|0:0,0:0:0:0:
170,200,41936,2,0,P|161:249|180:296,1,85,8|0,0:0|0:0,0:0:0:0:
263,48,42309,5,14,3:2:0:0:
57,166,42495,1,0,0:0:0:0:
264,272,42681,1,2,0:0:0:0:
17,294,42868,5,14,3:2:0:0:
254,78,43054,1,0,0:0:0:0:
313,367,43240,1,2,0:0:0:0:
57,166,43427,5,10,0:0:0:0:
61,134,43520,1,8,0:0:0:0:
76,106,43613,1,8,0:0:0:0:
100,86,43706,1,8,0:0:0:0:
130,75,43799,6,0,P|149:118|160:162,1,85,0|0,3:2|0:0,0:0:0:0:
188,273,44172,2,0,P|216:233|248:202,1,85,8|0,0:0|0:0,0:0:0:0:
332,124,44545,2,0,P|283:118|240:105,1,85,0|0,3:0|0:0,0:0:0:0:
359,245,44917,2,0,P|400:234|442:229,1,85,8|0,0:0|0:0,0:0:0:0:
268,329,45290,5,0,3:0:0:0:
241,207,45476,1,0,0:0:0:0:
359,245,45663,1,8,0:0:0:0:
150,291,45849,2,0,P|102:280|55:259,1,85,0|0,0:0|3:0,0:0:0:0:
160,60,46222,1,0,0:0:0:0:
221,124,46408,2,0,P|235:169|240:222,1,85,8|0,0:0|0:0,0:0:0:0:
328,6,46781,5,4,3:2:0:0:
135,144,46967,2,0,P|87:133|40:112,1,85,0|8,0:0|0:0,0:0:0:0:
296,21,47340,5,4,3:2:0:0:
197,237,47526,2,0,P|151:251|98:256,1,85,0|0,0:0|3:0,0:0:0:0:
320,110,47899,2,0,P|362:116|402:129,1,85,8|0,0:0|0:0,0:0:0:0:
171,17,48271,5,12,3:2:0:0:
293,208,48458,1,8,0:0:0:0:
298,239,48551,1,8,0:0:0:0:
293,270,48644,1,8,0:0:0:0:
278,298,48737,1,8,0:0:0:0:
255,320,48830,6,0,P|172:333|99:247,1,170,4|2,3:2|0:0,0:0:0:0:
181,103,49389,1,8,0:0:0:0:
186,135,49482,1,8,0:0:0:0:
190,166,49576,1,10,0:0:0:0:
195,198,49669,1,8,0:0:0:0:
200,230,49762,6,0,P|240:209|283:203,1,76.4999976654053,6|2,3:2|0:0,0:0:0:0:
420,238,50135,1,0,3:0:0:0:
358,173,50321,2,0,P|374:98|411:11,1,152.999995330811,8|10,0:0|0:3,0:0:0:0:
289,79,50880,2,0,P|252:90|205:96,1,76.4999976654053,10|0,0:3|0:0,0:0:0:0:
39,37,51253,6,0,P|92:55|115:151,1,152.999995330811,4|0,3:2|3:0,0:0:0:0:
37,256,51812,2,0,B|82:219|82:219|184:250,1,152.999995330811,8|0,0:0|3:0,0:0:0:0:
255,337,52371,2,0,L|168:362,1,76.4999976654053,8|0,0:0|0:0,0:0:0:0:
262,182,52743,6,0,B|349:189|304:243|408:243,1,152.999995330811,6|2,3:2|0:0,0:0:0:0:
499,115,53302,2,0,P|450:96|391:186,1,152.999995330811,10|2,0:0|0:0,0:0:0:0:
456,312,53861,2,0,P|481:274|488:215,1,76.4999976654053,8|2,0:0|0:0,0:0:0:0:
365,328,54234,5,12,3:2:0:0:
396,242,54420,1,0,3:0:0:0:
274,344,54607,1,0,3:0:0:0:
245,188,54793,5,12,3:2:0:0:
305,258,54979,1,2,3:0:0:0:
276,102,55166,1,0,3:0:0:0:
214,274,55352,2,0,L|126:254,1,76.4999976654053,14|0,3:2|0:0,0:0:0:0:
27,231,55725,1,6,3:2:0:0:
27,231,55911,6,0,P|83:256|86:366,2,152.999995330811,2|8|8,0:0|0:0|0:3,0:0:0:0:
21,316,56843,1,8,0:3:0:0:
33,146,57029,1,0,0:0:0:0:
101,339,57215,6,0,B|186:350|161:286|257:305,1,152.999995330811,4|10,3:2|0:0,0:0:0:0:
380,375,57774,1,8,0:0:0:0:
337,291,57961,1,2,0:0:0:0:
337,291,58147,2,0,P|338:251|366:193,1,76.4999976654053,10|8,0:0|0:0,0:0:0:0:
481,116,58520,1,2,3:2:0:0:
481,116,58613,1,0,3:0:0:0:
481,116,58706,2,0,P|445:135|381:139,1,76.4999976654053,2|0,3:2|3:0,0:0:0:0:
238,83,59079,1,2,3:2:0:0:
393,53,59265,5,10,0:0:0:0:
161,140,59451,1,8,0:0:0:0:
324,112,59638,5,8,0:0:0:0:
150,44,59824,1,10,0:0:0:0:
410,141,60010,5,8,0:0:0:0:
154,287,60197,2,0,P|102:273|69:232,1,76.4999976654053,12|0,3:2|0:0,0:0:0:0:
374,146,60569,5,0,0:0:0:0:
104,307,60756,2,0,P|65:268|57:216,1,76.4999976654053,12|0,3:2|0:0,0:0:0:0:
338,151,61128,5,0,0:0:0:0:
50,299,61315,2,0,P|36:246|55:197,1,76.4999976654053,12|0,3:2|0:0,0:0:0:0:
302,156,61687,5,12,3:2:0:0:
366,365,61874,1,8,0:0:0:0:
394,368,61967,1,8,0:0:0:0:
421,359,62060,1,8,0:0:0:0:
440,339,62153,1,8,0:0:0:0:
449,312,62247,6,0,P|427:223|403:108,1,203.999993774414,2|2,3:2|0:0,0:0:0:0:
234,224,63178,5,4,3:2:0:0:
458,318,63364,1,0,0:0:0:0:
181,318,63551,1,8,0:0:0:0:
405,224,63737,1,0,0:0:0:0:
179,131,63923,5,0,3:2:0:0:
319,372,64110,1,0,0:0:0:0:
317,77,64296,1,8,0:0:0:0:
181,318,64482,1,0,0:0:0:0:
113,51,64669,5,2,3:2:0:0:
245,211,64855,2,0,L|336:192,1,85,2|8,0:0|0:0,0:0:0:0:
101,42,65228,2,0,L|10:61,1,85,2|0,0:0|3:0,0:0:0:0:
179,131,65600,1,0,0:0:0:0:
218,19,65787,1,8,0:0:0:0:
62,154,65973,1,0,0:0:0:0:
258,221,66160,5,0,3:2:0:0:
101,42,66346,1,0,0:0:0:0:
140,244,66532,1,8,0:0:0:0:
218,19,66719,1,0,0:0:0:0:
375,197,66905,5,0,3:2:0:0:
179,131,67091,1,0,0:0:0:0:
413,83,67278,1,8,0:0:0:0:
337,311,67464,1,0,0:0:0:0:
296,108,67650,5,0,3:2:0:0:
455,287,67837,1,0,0:0:0:0:
258,221,68023,1,8,0:0:0:0:
413,83,68209,2,0,L|517:104,1,85,0|0,0:0|3:0,0:0:0:0:
249,228,68582,2,0,L|145:207,1,85,0|8,0:0|0:0,0:0:0:0:
287,66,68955,2,0,L|298:117,1,42.5,2|2,0:0|0:0,0:0:0:0:
339,315,69141,5,6,3:2:0:0:
388,132,69327,1,0,0:0:0:0:
431,340,69514,1,8,0:0:0:0:
296,107,69700,1,0,0:0:0:0:
272,383,69886,5,0,3:2:0:0:
412,224,70073,1,0,0:0:0:0:
228,175,70259,1,8,0:0:0:0:
431,340,70445,1,0,0:0:0:0:
413,40,70632,5,2,3:2:0:0:
388,132,70818,2,0,P|348:157|301:162,1,85,2|8,0:0|0:0,0:0:0:0:
161,29,71191,2,0,P|202:51|230:89,1,85,2|0,0:0|3:0,0:0:0:0:
197,196,71563,1,0,0:0:0:0:
225,80,71750,1,8,0:0:0:0:
283,279,71936,1,0,0:0:0:0:
342,47,72122,5,0,3:2:0:0:
111,112,72309,1,0,0:0:0:0:
312,164,72495,1,8,0:0:0:0:
82,228,72681,1,0,0:0:0:0:
342,47,72868,6,0,P|389:46|431:71,1,85,0|0,3:2|0:0,0:0:0:0:
283,279,73240,2,0,P|236:280|194:255,1,85,8|0,0:0|0:0,0:0:0:0:
249,60,73613,5,14,3:2:0:0:
398,247,73799,1,0,0:0:0:0:
164,187,73986,1,2,0:0:0:0:
490,152,74172,5,14,3:2:0:0:
272,288,74358,1,0,0:0:0:0:
342,47,74545,1,2,0:0:0:0:
314,366,74731,5,10,0:0:0:0:
283,376,74824,1,8,0:0:0:0:
252,375,74917,1,8,0:0:0:0:
222,363,75010,1,8,0:0:0:0:
199,342,75104,6,0,B|132:335|132:335|107:361|107:361|23:350,1,170,6|8,3:2|0:0,0:0:0:0:
47,109,75663,2,0,P|126:176|212:164,1,170,6|0,3:2|3:0,0:0:0:0:
375,45,76222,1,8,0:0:0:0:
329,222,76408,1,8,0:0:0:0:
329,222,76501,1,8,0:0:0:0:
329,222,76594,6,0,P|349:297|397:382,1,170,6|8,3:2|0:0,0:0:0:0:
238,245,77153,2,0,B|141:243|183:305|67:295,1,170,6|0,3:2|3:0,0:0:0:0:
33,163,77712,2,0,P|73:175|103:218,1,85,8|0,0:0|0:0,0:0:0:0:
160,380,78085,6,0,P|238:351|324:332,1,170,6|8,3:2|0:0,0:0:0:0:
469,366,78644,2,0,B|425:327|425:327|459:210,1,170,6|2,3:2|3:0,0:0:0:0:
489,126,79203,1,10,0:0:0:0:
353,259,79389,1,2,0:0:0:0:
305,74,79576,5,2,3:2:0:0:
405,144,79762,2,0,L|501:123,1,85,2|8,0:0|0:0,0:0:0:0:
416,23,80135,1,6,3:2:0:0:
294,195,80321,1,2,0:0:0:0:
218,21,80507,1,8,0:0:0:0:
197,16,80600,1,8,0:0:0:0:
176,17,80694,1,8,0:0:0:0:
155,23,80787,1,8,0:0:0:0:
137,34,80880,1,10,0:0:0:0:
122,49,80973,1,8,0:0:0:0:
112,68,81066,6,0,L|132:175,1,85,4|0,3:2|0:0,0:0:0:0:
278,278,81439,2,0,L|297:171,1,85,8|0,0:0|0:0,0:0:0:0:
99,74,81812,2,0,L|118:180,1,85,0|0,3:0|0:0,0:0:0:0:
307,104,82184,1,8,0:0:0:0:
130,247,82371,1,2,0:0:0:0:
346,341,82557,6,0,B|391:348|391:348|424:327,1,85,4|0,3:2|0:0,0:0:0:0:
307,104,82930,2,0,B|262:97|262:97|228:117,1,85,8|0,0:0|0:0,0:0:0:0:
349,349,83302,2,0,B|394:356|394:356|427:335,1,85,0|0,3:0|0:0,0:0:0:0:
285,188,83675,1,8,0:0:0:0:
227,370,83861,1,2,0:0:0:0:
150,140,84048,6,0,P|191:116|249:126,1,85,4|0,3:2|0:0,0:0:0:0:
300,279,84420,2,0,P|257:278|221:256,1,85,10|0,0:0|0:0,0:0:0:0:
227,36,84793,2,0,P|272:49|307:96,1,85,0|0,3:0|0:0,0:0:0:0:
176,325,85166,2,0,P|146:294|136:253,1,85,10|0,0:0|0:0,0:0:0:0:
386,143,85538,5,6,3:2:0:0:
221,256,85725,1,2,0:0:0:0:
298,75,85911,1,2,0:0:0:0:
367,334,86097,5,14,3:2:0:0:
125,271,86284,1,8,0:0:0:0:
94,242,86377,1,8,0:0:0:0:
84,200,86470,1,8,0:0:0:0:
96,159,86563,1,8,0:0:0:0:
120,124,86656,6,0,L|183:109,1,42.5,8|8,0:0|0:0,0:0:0:0:
280,315,86843,2,0,L|217:300,1,42.5,8|8,0:0|0:0,0:0:0:0:
386,143,87029,5,14,3:2:0:0:
454,353,87215,1,0,3:0:0:0:
398,129,87402,1,0,3:0:0:0:
280,315,87588,5,14,3:2:0:0:
489,232,87774,1,0,3:0:0:0:
242,215,87961,5,8,3:2:0:0:
464,365,88147,1,8,3:2:0:0:
410,115,88333,1,6,3:2:0:0:
256,192,88427,12,0,90010,0:0:0:0:
