osu file format v14

[General]
AudioFilename: audio.mp3
AudioLeadIn: 0
PreviewTime: 31698
Countdown: 0
SampleSet: Soft
StackLeniency: 0.3
Mode: 2
LetterboxInBreaks: 0
WidescreenStoryboard: 1

[Editor]
Bookmarks: 3810,6512,15270,17972,31882
DistanceSpacing: 0.8
BeatDivisor: 4
GridSize: 32
TimelineZoom: 2.7

[Metadata]
Title:Rolling star (TV Size)
TitleUnicode:Rolling star (TV Size)
Artist:YUI
ArtistUnicode:YUI
Creator:Secre
Version:Cup
Source:BLEACH
Tags:chickenbible γƒ–γƒͺーチ opening 5 anime japanese rock jrock j-rock
BeatmapID:3690906
BeatmapSetID:1618776

[Difficulty]
HPDrainRate:2
CircleSize:2.4
OverallDifficulty:5.6
ApproachRate:5.6
SliderMultiplier:1.34
SliderTickRate:0.5

[Events]
//Background and Video events
Video,-190,"video.avi"
0,0,"rushias hell butterfly.jpg",0,0
//Break Periods
//Storyboard Layer 0 (Background)
//Storyboard Layer 1 (Fail)
//Storyboard Layer 2 (Pass)
//Storyboard Layer 3 (Foreground)
//Storyboard Layer 4 (Overlay)
//Storyboard Sound Samples

[TimingPoints]
580,372.670807453416,4,2,1,40,1,0
580,-100,4,2,1,40,0,0
5797,-100,4,2,1,40,0,0
6542,-100,4,2,1,70,0,0
13996,-100,4,2,1,40,0,0
24430,-100,4,2,1,60,0,0
24679,-100,4,2,1,60,0,0
24989,-100,4,2,1,60,0,0
25362,-100,4,2,1,60,0,0
26853,-100,4,2,1,60,0,0
27784,-100,4,2,1,60,0,0
31511,-100,4,2,1,60,0,0
31884,-100,4,2,1,90,0,1
32257,-100,4,2,1,90,0,1
32629,-100,4,2,1,90,0,1
33002,-100,4,2,1,90,0,1
33375,-100,4,2,1,90,0,1
38219,-100,4,2,1,90,0,1
38591,-100,4,2,1,90,0,1
38964,-100,4,2,1,90,0,1
39337,-100,4,2,1,90,0,1
43809,-100,4,2,1,70,0,0
46791,-100,4,2,1,70,0,0
47350,-100,4,2,1,70,0,0
47909,-100,4,2,1,70,0,0
48794,-100,4,2,1,70,0,0
49772,-100,4,2,1,70,0,0
50704,-100,4,2,1,70,0,0
51263,-100,4,2,1,70,0,0
52381,-100,4,2,1,70,0,0
52753,-100,4,2,1,70,0,0
53685,-100,4,2,1,70,0,0
53871,-100,4,2,1,70,0,0
54244,-100,4,2,1,70,0,0
54803,-100,4,2,1,70,0,0
55735,-100,4,2,1,70,0,0
59275,-100,4,2,1,70,0,0
62257,-100,4,2,1,70,0,0
63188,-100,4,2,1,90,0,1
63561,-100,4,2,1,90,0,1
63933,-100,4,2,1,90,0,1
64306,-100,4,2,1,90,0,1
64679,-100,4,2,1,90,0,1
66542,-100,4,2,1,90,0,1
66914,-100,4,2,1,90,0,1
67287,-100,4,2,1,90,0,1
67660,-100,4,2,1,90,0,1
68219,-100,4,2,1,90,0,1
69151,-100,4,2,1,90,0,1
69523,-100,4,2,1,90,0,1
69895,-100,4,2,1,90,0,1
70268,-100,4,2,1,90,0,1
70641,-100,4,2,1,90,0,1
72132,-100,4,2,1,90,0,1
72504,-100,4,2,1,90,0,1
72877,-100,4,2,1,90,0,1
73250,-100,4,2,1,90,0,1
73623,-100,4,2,1,90,0,1
74182,-100,4,2,1,90,0,1
75114,-100,4,2,1,70,0,0
77722,-100,4,2,1,70,0,0
78095,-100,4,2,1,70,0,0
81076,-100,4,2,1,100,0,1
82194,-100,4,2,1,100,0,1
82567,-100,4,2,1,100,0,1
85548,-100,4,2,1,100,0,1
87039,-100,4,2,1,100,0,1
87598,-100,4,2,1,100,0,1
88343,-100,4,2,1,100,0,0

[Colours]
Combo1 : 109,194,245
Combo2 : 101,116,252
Combo3 : 141,254,251
Combo4 : 60,99,255

[HitObjects]
167,119,580,6,0,P|264:128|309:270,2,201,2|0|0,0:0|0:0|0:0,0:0:0:0:
292,124,2070,6,0,P|382:153|421:265,1,201,2|0,0:0|0:0,0:0:0:0:
229,241,3188,1,0,0:0:0:0:
376,187,3561,6,0,P|451:140|357:119,1,201,2|0,0:0|0:0,0:0:0:0:
200,90,4679,1,0,0:0:0:0:
74,190,5052,6,0,P|55:119|97:60,1,134,2|0,0:0|0:0,0:0:0:0:
216,114,5797,1,8,0:0:0:0:
149,113,5983,1,8,0:0:0:0:
82,113,6169,1,8,0:0:0:0:
226,133,6542,6,0,P|305:150|364:303,2,201,4|0|8,0:0|0:0|0:0,0:0:0:0:
370,172,8033,6,0,L|373:-37,1,201,0|0,3:0|0:0,0:0:0:0:
190,80,9151,1,8,0:0:0:0:
322,177,9524,6,0,P|418:198|461:292,2,201,0|0|8,3:0|0:0|0:0,0:0:0:0:
178,185,11014,6,0,P|110:156|103:84,1,134,8|0,0:0|0:0,0:0:0:0:
167,86,11573,2,0,L|405:85,1,201,8|8,0:0|0:0,0:0:0:0:
231,201,12505,6,0,L|231:107,1,67,8|0,0:0|3:0,0:0:0:0:
303,105,12878,1,0,3:0:0:0:
377,99,13064,2,0,L|377:282,1,134,8|0,0:0|3:0,0:0:0:0:
305,264,13623,1,8,0:0:0:0:
166,207,13996,5,2,0:0:0:0:
356,135,15486,5,2,0:0:0:0:
132,110,16977,5,2,0:0:0:0:
358,69,18468,5,2,0:0:0:0:
116,198,19958,6,0,P|70:147|131:125,1,134,2|0,0:0|0:0,0:0:0:0:
177,103,20517,1,0,0:0:0:0:
325,107,20890,1,0,0:0:0:0:
177,103,21263,6,0,L|99:107,2,67,0|2|0,0:0|0:0|0:0,0:0:0:0:
316,123,22008,2,0,L|319:289,1,134
116,272,22940,6,0,L|201:268,1,67,2|0,0:0|0:0,0:0:0:0:
311,178,23499,1,0,0:0:0:0:
380,174,23685,2,0,L|390:94,1,67
319,87,24058,1,4,0:0:0:0:
177,143,24430,5,4,0:0:0:0:
77,144,24710,1,0,0:0:0:0:
177,143,24989,1,0,0:0:0:0:
311,144,25362,1,0,0:0:0:0:
244,143,25548,1,8,0:0:0:0:
177,143,25734,1,0,0:0:0:0:
244,143,25921,6,0,L|245:304,1,134,2|0,0:0|0:0,0:0:0:0:
174,282,26480,1,2,0:0:0:0:
42,187,26853,2,0,L|40:94,1,67,8|8,3:0|3:0,0:0:0:0:
177,96,27412,6,0,L|335:97,1,134,2|8,0:0|0:0,0:0:0:0:
310,96,27971,1,8,0:0:0:0:
185,196,28343,2,0,L|87:190,1,67,8|8,0:0|0:0,0:0:0:0:
255,94,28902,6,0,L|255:253,1,134,2|0,0:0|0:0,0:0:0:0:
189,251,29461,1,2,0:0:0:0:
326,162,29834,2,0,L|412:159,1,67,0|8,0:0|3:0,0:0:0:0:
262,89,30393,5,2,0:0:0:0:
364,46,30766,2,0,L|370:202,1,134
240,189,31511,1,8,0:0:0:0:
381,192,31884,5,4,0:0:0:0:
451,180,32070,1,0,0:0:0:0:
450,179,32256,1,8,0:0:0:0:
381,192,32443,1,0,0:0:0:0:
315,192,32629,2,0,L|313:95,1,67,0|0,3:0|3:0,0:0:0:0:
381,192,33002,1,8,0:0:0:0:
246,116,33375,6,0,L|152:112,1,67,8|0,0:0|0:0,0:0:0:0:
318,86,33934,2,0,P|372:95|416:186,1,134,0|0,3:0|3:0,0:0:0:0:
349,185,34493,1,8,0:0:0:0:
211,126,34865,6,0,L|135:125,2,67,0|0|8,3:0|0:0|0:0,0:0:0:0:
350,137,35611,2,0,L|349:281,1,134,0|8,3:0|0:0,0:0:0:0:
279,298,36170,1,0,0:0:0:0:
205,248,36356,6,0,L|117:243,2,67,0|0|8,3:0|0:0|0:0,0:0:0:0:
276,187,36915,1,0,3:0:0:0:
147,133,37288,2,0,L|142:42,1,67,0|8,3:0|0:0,0:0:0:0:
272,58,37847,6,0,L|108:57,1,134,4|8,0:0|0:0,0:0:0:0:
205,126,38406,1,0,0:0:0:0:
275,124,38592,2,0,L|282:37,1,67,0|0,3:0|3:0,0:0:0:0:
207,44,38965,2,0,L|205:-39,1,67,8|0,0:0|0:0,0:0:0:0:
274,18,39337,6,0,L|357:18,1,67,0|0,3:0|0:0,0:0:0:0:
216,157,39896,2,0,L|53:157,1,134,0|0,3:0|3:0,0:0:0:0:
147,225,40455,1,8,0:0:0:0:
214,227,40642,1,0,0:0:0:0:
281,211,40828,6,0,L|290:129,1,67,0|0,3:0|0:0,0:0:0:0:
220,118,41201,2,0,L|221:28,1,67,8|0,0:0|0:0,0:0:0:0:
296,27,41573,1,0,3:0:0:0:
436,37,41946,2,0,L|444:121,1,67,8|0,0:0|3:0,0:0:0:0:
374,146,42319,6,0,L|228:147,1,134,8|0,0:0|0:0,0:0:0:0:
316,238,42878,2,0,P|360:221|314:165,1,134,8|0,0:0|0:0,0:0:0:0:
256,147,43437,1,8,0:0:0:0:
105,149,43809,6,0,L|103:60,1,67,4|0,0:0|0:0,0:0:0:0:
289,66,44555,2,0,L|373:67,1,67,0|0,3:0|3:0,0:0:0:0:
231,187,45114,6,0,L|152:187,2,67,0|0|0,0:0|3:0|0:0,0:0:0:0:
303,152,45673,2,0,L|306:74,1,67,8|0,0:0|3:0,0:0:0:0:
119,87,46418,1,8,0:0:0:0:
249,57,46791,5,4,0:0:0:0:
316,57,46977,1,0,0:0:0:0:
383,57,47163,1,8,0:0:0:0:
316,57,47350,2,0,L|318:203,1,134,4|0,0:0|0:0,0:0:0:0:
385,197,47909,1,0,3:0:0:0:
254,129,48281,6,0,L|181:129,2,67,8|8|8,0:0|0:0|0:0,0:0:0:0:
324,132,48840,2,0,L|333:282,1,134,4|0,0:0|0:0,0:0:0:0:
263,270,49399,2,0,L|261:193,1,67,8|8,0:0|0:0,0:0:0:0:
332,179,49772,6,0,L|494:173,1,134,4|0,0:0|0:0,0:0:0:0:
465,174,50331,1,8,0:0:0:0:
330,115,50704,2,0,L|326:24,1,67,8|8,3:0|3:0,0:0:0:0:
462,37,51263,6,0,L|302:34,1,134,4|0,0:0|0:0,0:0:0:0:
328,34,51822,1,8,0:0:0:0:
461,103,52194,2,0,L|465:181,1,67,0|8,3:0|3:0,0:0:0:0:
327,203,52753,6,0,L|184:203,1,134,4|0,0:0|0:0,0:0:0:0:
263,139,53312,2,0,L|265:52,1,67,8|0,0:0|0:0,0:0:0:0:
191,52,53685,2,0,L|104:56,2,67,0|8|0,0:0|3:0|0:0,0:0:0:0:
273,52,54244,6,0,L|375:52,2,100.5,8|0|8,0:0|0:0|0:0,0:0:0:0:
142,162,55176,2,0,L|63:157,1,67,0|8,3:0|0:0,0:0:0:0:
207,123,55735,6,0,L|346:125,1,134,4|0,0:0|0:0,0:0:0:0:
275,168,56294,2,0,P|239:186|282:256,1,134,8|8,0:0|3:0,0:0:0:0:
336,261,56853,1,8,3:0:0:0:
201,171,57225,6,0,L|49:168,1,134,4|8,0:0|0:0,0:0:0:0:
134,235,57784,1,8,0:0:0:0:
278,180,58157,2,0,L|286:101,1,67,8|8,0:0|0:0,0:0:0:0:
151,98,58716,6,0,L|306:103,1,134,0|0,3:0|3:0,0:0:0:0:
215,183,59275,2,0,P|177:201|218:268,1,134,8|8,3:0|3:0,0:0:0:0:
283,260,59834,2,0,L|287:177,1,67,8|8,0:0|0:0,0:0:0:0:
216,162,60207,6,0,L|69:159,1,134,4|2,0:0|0:0,0:0:0:0:
82,159,60766,1,8,0:0:0:0:
216,103,61139,2,0,L|306:105,1,67,2|8,0:0|0:0,0:0:0:0:
149,210,61698,6,0,L|145:122,1,67,8|8,0:0|0:0,0:0:0:0:
214,104,62070,1,8,0:0:0:0:
286,98,62257,2,0,P|341:104|281:186,1,201,4|0,0:0|0:0,0:0:0:0:
131,192,63188,5,4,0:0:0:0:
61,180,63374,1,0,0:0:0:0:
62,179,63560,1,8,0:0:0:0:
131,192,63747,1,0,0:0:0:0:
197,192,63933,2,0,L|199:95,1,67,0|0,3:0|3:0,0:0:0:0:
131,192,64306,1,8,0:0:0:0:
266,116,64679,6,0,L|360:112,1,67,8|0,0:0|0:0,0:0:0:0:
194,86,65238,2,0,P|140:95|96:186,1,134,0|0,3:0|3:0,0:0:0:0:
163,185,65797,1,8,0:0:0:0:
231,168,65983,1,0,0:0:0:0:
301,126,66169,6,0,L|377:125,2,67,0|0|8,3:0|0:0|0:0,0:0:0:0:
162,137,66915,2,0,L|163:281,1,134,0|8,3:0|0:0,0:0:0:0:
233,298,67474,1,0,0:0:0:0:
307,248,67660,6,0,L|395:243,2,67,0|0|8,3:0|0:0|0:0,0:0:0:0:
236,187,68219,1,0,3:0:0:0:
365,133,68592,2,0,L|370:42,1,67,0|8,3:0|0:0,0:0:0:0:
240,58,69151,6,0,L|404:57,1,134,4|8,0:0|0:0,0:0:0:0:
307,126,69710,1,0,0:0:0:0:
237,124,69896,2,0,L|230:37,1,67,0|0,3:0|3:0,0:0:0:0:
305,44,70269,2,0,L|307:-39,1,67,8|0,0:0|0:0,0:0:0:0:
238,18,70641,6,0,L|155:18,1,67,0|0,3:0|0:0,0:0:0:0:
296,157,71200,2,0,L|459:157,1,134,0|0,3:0|3:0,0:0:0:0:
365,225,71759,1,8,0:0:0:0:
298,227,71946,1,0,0:0:0:0:
231,211,72132,6,0,L|222:129,1,67,0|0,3:0|0:0,0:0:0:0:
292,118,72505,2,0,L|291:28,1,67,8|0,0:0|0:0,0:0:0:0:
216,27,72877,1,0,3:0:0:0:
76,37,73250,2,0,L|68:121,1,67,8|0,0:0|3:0,0:0:0:0:
138,146,73623,6,0,L|284:147,1,134,8|0,0:0|0:0,0:0:0:0:
196,238,74182,2,0,P|152:221|198:165,1,134,8|0,0:0|0:0,0:0:0:0:
256,147,74741,1,8,0:0:0:0:
407,149,75113,6,0,L|409:60,1,67,4|0,0:0|3:0,0:0:0:0:
266,77,75673,2,0,L|122:77,1,134,4|0,0:0|3:0,0:0:0:0:
132,77,76232,1,8,0:0:0:0:
269,104,76604,6,0,L|351:104,2,67,0|0|0,3:0|3:0|3:0,0:0:0:0:
194,185,77163,2,0,P|147:163|207:121,1,134,4|8,0:0|3:0,0:0:0:0:
260,92,77722,1,8,0:0:0:0:
406,94,78095,6,0,L|412:175,1,67,0|0,3:0|3:0,0:0:0:0:
342,182,78468,1,0,3:0:0:0:
278,190,78654,2,0,L|128:187,1,134,4|0,0:0|0:0,0:0:0:0:
211,122,79213,2,0,L|212:43,1,67,8|0,0:0|3:0,0:0:0:0:
143,53,79586,6,0,L|48:53,1,67,0|0,3:0|3:0,0:0:0:0:
211,167,80145,2,0,L|302:169,2,67,4|0|0,0:0|0:0|0:0,0:0:0:0:
141,128,80704,2,0,L|136:42,1,67,8|8,0:0|0:0,0:0:0:0:
213,34,81076,6,0,L|377:32,1,134,4|8,0:0|0:0,0:0:0:0:
217,144,81822,2,0,L|149:145,2,67,0|0|8,3:0|3:0|0:0,0:0:0:0:
354,162,82567,6,0,L|361:16,1,134,0|8,3:0|0:0,0:0:0:0:
289,12,83126,1,2,0:0:0:0:
155,151,83499,2,0,L|153:73,1,67,0|8,0:0|0:0,0:0:0:0:
292,77,84058,6,0,L|446:71,1,134,0|8,3:0|0:0,0:0:0:0:
293,78,84803,2,0,L|291:-8,1,67,0|0,3:0|3:0,0:0:0:0:
366,35,85176,2,0,L|367:-40,1,67,8|0,0:0|0:0,0:0:0:0:
291,72,85548,5,8,0:0:0:0:
220,93,85734,1,0,3:0:0:0:
222,155,85920,1,0,3:0:0:0:
286,178,86107,1,8,0:0:0:0:
356,183,86294,2,0,L|358:105,1,67,8|8,0:0|0:0,0:0:0:0:
286,178,86666,2,0,L|203:181,1,67,8|8,0:0|0:0,0:0:0:0:
286,178,87039,6,0,L|442:179,1,134,0|0,3:0|3:0,0:0:0:0:
420,178,87598,1,8,0:0:0:0:
288,128,87971,2,0,L|204:127,1,67,8|8,0:0|0:0,0:0:0:0:
288,128,88343,6,0,P|371:135|429:242,1,201,12|0,0:0|0:0,0:0:0:0:
