osu file format v14

[General]
AudioFilename: YUI - Rolling star.mp3
AudioLeadIn: 0
PreviewTime: 32158
Countdown: 0
SampleSet: Normal
StackLeniency: 0.2
Mode: 0
LetterboxInBreaks: 0
CountdownOffset: 1
WidescreenStoryboard: 1

[Editor]
Bookmarks: 11568,41009,70729,133711
DistanceSpacing: 0.65
BeatDivisor: 4
GridSize: 4
TimelineZoom: 2.400001

[Metadata]
Title:Rolling star
TitleUnicode:Rolling star
Artist:YUI
ArtistUnicode:YUI
Creator:Avishay
Version:LONELY DAYS
Source:BLEACH
Tags:sky opening full deejaydray -Nya- Can't Buy My Love tokido haku hoaxtory
BeatmapID:1115577
BeatmapSetID:129259

[Difficulty]
HPDrainRate:5
CircleSize:4
OverallDifficulty:9
ApproachRate:9.4
SliderMultiplier:1.8
SliderTickRate:2

[Events]
//Background and Video events
0,0,"b2.jpg",0,0
//Break Periods
//Storyboard Layer 0 (Background)
//Storyboard Layer 1 (Fail)
//Storyboard Layer 2 (Pass)
//Storyboard Layer 3 (Foreground)
//Storyboard Sound Samples

[TimingPoints]
-357,372.670807453416,4,1,1,60,1,0
388,-83.3333333333333,4,1,1,60,0,0
761,-166.666666666667,4,1,1,60,0,0
1040,-166.666666666667,4,1,1,5,0,0
1133,-83.3333333333333,4,1,1,60,0,0
1413,-100,4,1,1,5,0,0
1506,-100,4,1,1,60,0,0
1785,-100,4,1,1,5,0,0
1879,-100,4,1,1,60,0,0
1972,-100,4,1,1,5,0,0
2065,-100,4,1,1,60,0,0
2158,-100,4,1,1,5,0,0
2251,-71.4285714285714,4,1,1,60,0,0
2531,-83.3333333333333,4,1,1,5,0,0
2624,-83.3333333333333,4,1,1,60,0,0
2903,-100,4,1,1,5,0,0
2997,-100,4,1,1,60,0,0
3276,-100,4,1,1,5,0,0
3369,-100,4,1,1,60,0,0
3462,-100,4,1,1,5,0,0
3556,-100,4,1,1,60,0,0
3649,-100,4,1,1,5,0,0
3742,-71.4285714285714,4,1,1,60,0,0
4021,-100,4,1,1,5,0,0
4115,-83.3333333333333,4,1,1,60,0,0
4394,-100,4,1,1,5,0,0
4487,-100,4,1,1,60,0,0
4767,-100,4,1,1,5,0,0
4860,-100,4,1,1,60,0,0
4953,-100,4,1,1,5,0,0
5046,-100,4,1,1,60,0,0
5139,-100,4,1,1,5,0,0
5233,-66.6666666666667,4,1,1,60,0,0
5605,-57.1428571428571,4,1,1,60,0,0
5885,-57.1428571428571,4,1,1,5,0,0
5978,-57.1428571428571,4,1,1,60,0,0
6723,-100,4,1,1,60,0,0
7096,-83.3333333333333,4,1,1,60,0,0
7375,-100,4,1,1,5,0,0
7469,-100,4,1,1,60,0,0
7748,-100,4,1,1,5,0,0
7841,-100,4,1,1,60,0,0
7934,-100,4,1,1,5,0,0
8028,-100,4,1,1,60,0,0
8121,-100,4,1,1,5,0,0
8214,-71.4285714285714,4,1,1,60,0,0
8493,-71.4285714285714,4,1,1,5,0,0
8587,-83.3333333333333,4,1,1,60,0,0
8866,-100,4,1,1,5,0,0
8959,-100,4,1,1,60,0,0
9239,-100,4,1,1,5,0,0
9332,-100,4,1,1,60,0,0
9425,-100,4,1,1,5,0,0
9518,-100,4,1,1,60,0,0
9611,-100,4,1,1,5,0,0
9705,-71.4285714285714,4,1,1,60,0,0
9984,-71.4285714285714,4,1,1,5,0,0
10077,-83.3333333333333,4,1,1,60,0,0
10357,-100,4,1,1,5,0,0
10450,-100,4,1,1,60,0,0
10729,-100,4,1,1,5,0,0
10823,-100,4,1,1,60,0,0
10916,-100,4,1,1,5,0,0
11009,-100,4,1,1,60,0,0
11102,-100,4,1,1,5,0,0
11195,-66.6666666666667,4,1,1,60,0,0
11568,-57.1428571428571,4,1,1,60,0,0
11847,-57.1428571428571,4,1,1,5,0,0
11941,-57.1428571428571,4,1,1,60,0,0
12686,-100,4,1,1,60,0,0
13059,-71.4285714285714,4,1,1,60,0,0
14177,-57.1428571428571,4,1,1,60,0,0
14456,-66.6666666666667,4,1,1,5,0,0
14549,-100,4,1,1,45,0,0
16320,-100,4,1,1,5,0,0
16413,-100,4,1,1,45,0,0
21351,-100,4,1,1,5,0,0
21444,-100,4,1,1,45,0,0
22189,-100,4,1,1,35,0,0
22282,-100,4,1,1,45,0,0
22469,-100,4,1,1,15,0,0
22562,-100,4,1,1,45,0,0
23214,-100,4,1,1,5,0,0
23307,-100,4,1,1,45,0,0
24611,-100,4,1,1,35,0,0
24984,-100,4,1,1,50,0,0
25357,-100,4,1,1,65,0,0
25729,-100,4,1,1,80,0,0
26102,-58.8235294117647,4,1,1,70,0,0
26475,-100,4,1,1,45,0,0
26847,-100,4,1,1,10,0,0
27034,-76.9230769230769,4,1,1,60,0,0
27313,-76.9230769230769,4,1,1,5,0,0
27406,-76.9230769230769,4,1,1,60,0,0
28245,-76.9230769230769,4,1,1,5,0,0
28338,-100,4,1,1,50,0,0
29829,-100,4,1,1,10,0,0
30015,-76.9230769230769,4,1,1,60,0,0
30295,-76.9230769230769,4,1,1,5,0,0
30388,-76.9230769230769,4,1,1,45,0,0
30574,-76.9230769230769,4,1,1,60,0,0
31226,-76.9230769230769,4,1,1,15,0,0
31320,-76.9230769230769,4,1,1,45,0,0
32344,-76.9230769230769,4,1,1,5,0,0
32438,-60.6060606060606,4,1,1,70,0,1
34394,-60.6060606060606,4,1,1,5,0,1
34487,-60.6060606060606,4,1,1,70,0,1
34767,-60.6060606060606,4,1,1,5,0,1
34860,-60.6060606060606,4,1,1,70,0,1
37748,-60.6060606060606,4,1,1,5,0,1
37841,-60.6060606060606,4,1,1,70,0,1
37934,-60.6060606060606,4,1,1,5,0,1
38028,-60.6060606060606,4,1,1,70,0,1
40357,-60.6060606060606,4,1,1,5,0,1
40450,-60.6060606060606,4,1,1,70,0,1
40729,-60.6060606060606,4,1,1,5,0,1
40823,-60.6060606060606,4,1,1,70,0,1
42872,-51.2820512820513,4,1,1,85,0,1
43152,-51.2820512820513,4,1,1,5,0,1
43245,-51.2820512820513,4,1,1,70,0,1
43431,-51.2820512820513,4,1,1,85,0,1
43711,-51.2820512820513,4,1,1,5,0,1
43804,-51.2820512820513,4,1,1,70,0,1
44922,-90.9090909090909,4,1,1,70,0,1
45481,-66.6666666666667,4,1,1,70,0,1
45854,-76.9230769230769,4,1,1,70,0,1
46413,-90.9090909090909,4,1,1,70,0,1
46972,-66.6666666666667,4,1,1,70,0,1
47344,-76.9230769230769,4,1,1,70,0,1
47903,-90.9090909090909,4,1,1,70,0,1
48462,-66.6666666666667,4,1,1,70,0,1
50326,-58.8235294117647,4,1,1,70,0,1
56288,-125,4,1,1,55,0,0
61879,-166.666666666667,4,1,1,55,0,0
62158,-166.666666666667,4,1,1,5,0,0
62251,-125,4,1,1,55,0,0
63742,-133.333333333333,4,1,1,55,0,0
63928,-100,4,1,1,5,0,0
64021,-76.9230769230769,4,1,1,55,0,0
64208,-76.9230769230769,4,1,1,5,0,0
64301,-60.6060606060606,4,1,1,55,0,0
64394,-60.6060606060606,4,1,1,5,0,0
64487,-60.6060606060606,4,1,1,55,0,0
65233,-71.4285714285714,4,1,1,55,0,0
67748,-71.4285714285714,4,1,1,5,0,0
67841,-71.4285714285714,4,1,1,55,0,0
68121,-71.4285714285714,4,1,1,5,0,0
68214,-71.4285714285714,4,1,1,55,0,0
68680,-71.4285714285714,4,1,1,5,0,0
68773,-71.4285714285714,4,1,1,55,0,0
69239,-71.4285714285714,4,1,1,5,0,0
69332,-71.4285714285714,4,1,1,55,0,0
69611,-71.4285714285714,4,1,1,5,0,0
69705,-71.4285714285714,4,1,1,55,0,0
71195,-133.333333333333,4,1,1,40,0,0
71475,-133.333333333333,4,1,1,5,0,0
71568,-133.333333333333,4,1,1,40,0,0
73524,-133.333333333333,4,1,1,5,0,0
73618,-133.333333333333,4,1,1,40,0,0
73897,-133.333333333333,4,1,1,5,0,0
73990,-133.333333333333,4,1,1,40,0,0
74177,-166.666666666667,4,1,1,40,0,0
74456,-166.666666666667,4,1,1,5,0,0
74549,-166.666666666667,4,1,1,40,0,0
75015,-166.666666666667,4,1,1,10,0,0
75108,-166.666666666667,4,1,1,40,0,0
75481,-153.846153846154,4,1,1,40,0,0
75761,-153.846153846154,4,1,1,5,0,0
75854,-142.857142857143,4,1,1,40,0,0
76226,-133.333333333333,4,1,1,40,0,0
78742,-133.333333333333,4,1,1,5,0,0
78835,-133.333333333333,4,1,1,40,0,0
79115,-133.333333333333,4,1,1,5,0,0
79208,-133.333333333333,4,1,1,40,0,0
79487,-133.333333333333,4,1,1,5,0,0
79580,-133.333333333333,4,1,1,40,0,0
80139,-117.647058823529,4,1,1,40,0,0
80698,-100,4,1,1,40,0,0
81257,-100,4,1,1,40,0,0
81537,-100,4,1,1,5,0,0
81630,-83.3333333333333,4,1,1,50,0,0
81910,-83.3333333333333,4,1,1,5,0,0
82003,-71.4285714285714,4,1,1,60,0,0
82282,-71.4285714285714,4,1,1,5,0,0
82375,-62.5,4,1,1,70,0,0
82655,-62.5,4,1,1,5,0,0
82748,-50,4,1,1,85,0,0
82934,-50,4,1,1,40,0,0
83121,-100,4,1,1,55,0,0
83680,-76.9230769230769,4,1,1,55,0,0
83959,-76.9230769230769,4,1,1,5,0,0
84052,-76.9230769230769,4,1,1,55,0,0
84239,-100,4,1,1,55,0,0
84518,-100,4,1,1,5,0,0
84611,-125,4,1,1,55,0,0
84891,-125,4,1,1,10,0,0
84984,-125,4,1,1,55,0,0
85170,-76.9230769230769,4,1,1,55,0,0
85729,-100,4,1,1,55,0,0
86009,-100,4,1,1,5,0,0
86102,-125,4,1,1,55,0,0
86382,-125,4,1,1,5,0,0
86475,-125,4,1,1,55,0,0
86661,-76.9230769230769,4,1,1,55,0,0
86941,-76.9230769230769,4,1,1,5,0,0
87034,-100,4,1,1,55,0,0
87220,-90.9090909090909,4,1,1,55,0,0
87500,-90.9090909090909,4,1,1,5,0,0
87593,-71.4285714285714,4,1,1,55,0,0
87872,-71.4285714285714,4,1,1,5,0,0
87965,-71.4285714285714,4,1,1,55,0,0
88711,-83.3333333333333,4,1,1,55,0,0
88990,-83.3333333333333,4,1,1,5,0,0
89083,-100,4,1,1,55,0,0
89363,-100,4,1,1,5,0,0
89456,-100,4,1,1,55,0,0
89642,-74.0740740740741,4,1,1,55,0,0
89922,-74.0740740740741,4,1,1,5,0,0
90015,-74.0740740740741,4,1,1,55,0,0
90202,-100,4,1,1,55,0,0
90481,-100,4,1,1,5,0,0
90574,-125,4,1,1,55,0,0
90854,-125,4,1,1,5,0,0
90947,-76.9230769230769,4,1,1,55,0,0
93556,-66.6666666666667,4,1,1,55,0,0
94674,-57.1428571428571,4,1,1,55,0,0
94953,-57.1428571428571,4,1,1,5,0,0
95046,-57.1428571428571,4,1,1,55,0,0
95605,-111.111111111111,4,1,1,55,0,0
96444,-111.111111111111,4,1,1,5,0,0
96537,-60.6060606060606,4,1,1,70,0,1
98493,-60.6060606060606,4,1,1,5,0,1
98587,-60.6060606060606,4,1,1,70,0,1
98866,-60.6060606060606,4,1,1,5,0,1
98959,-60.6060606060606,4,1,1,70,0,1
101847,-60.6060606060606,4,1,1,5,0,1
101941,-60.6060606060606,4,1,1,70,0,1
102034,-60.6060606060606,4,1,1,5,0,1
102127,-60.6060606060606,4,1,1,70,0,1
104456,-60.6060606060606,4,1,1,5,0,1
104549,-60.6060606060606,4,1,1,70,0,1
104829,-60.6060606060606,4,1,1,5,0,1
104922,-60.6060606060606,4,1,1,70,0,1
106972,-51.2820512820513,4,1,1,85,0,1
107251,-51.2820512820513,4,1,1,5,0,1
107344,-51.2820512820513,4,1,1,85,0,1
107810,-51.2820512820513,4,1,1,5,0,1
107903,-51.2820512820513,4,1,1,70,0,1
109021,-90.9090909090909,4,1,1,70,0,1
109580,-66.6666666666667,4,1,1,70,0,1
109953,-76.9230769230769,4,1,1,70,0,1
110512,-90.9090909090909,4,1,1,70,0,1
111071,-66.6666666666667,4,1,1,70,0,1
111444,-76.9230769230769,4,1,1,70,0,1
112003,-90.9090909090909,4,1,1,70,0,1
112562,-66.6666666666667,4,1,1,70,0,1
112934,-76.9230769230769,4,1,1,70,0,1
113493,-90.9090909090909,4,1,1,70,0,1
115543,-66.6666666666667,4,1,1,70,0,1
115916,-76.9230769230769,4,1,1,70,0,1
116475,-90.9090909090909,4,1,1,70,0,1
117034,-66.6666666666667,4,1,1,70,0,1
117406,-76.9230769230769,4,1,1,70,0,1
117965,-90.9090909090909,4,1,1,70,0,1
118524,-66.6666666666667,4,1,1,70,0,1
120388,-58.8235294117647,4,1,1,70,0,1
126351,-66.6666666666667,4,1,1,70,0,1
127003,-66.6666666666667,4,1,1,5,0,1
127096,-66.6666666666667,4,1,1,70,0,1
127841,-71.4285714285714,4,1,1,70,0,0
128121,-71.4285714285714,4,1,1,5,0,0
128214,-71.4285714285714,4,1,1,70,0,0
128493,-71.4285714285714,4,1,1,5,0,0
128587,-71.4285714285714,4,1,1,70,0,0
128680,-71.4285714285714,4,1,1,5,0,0
128773,-71.4285714285714,4,1,1,70,0,0
128866,-71.4285714285714,4,1,1,5,0,0
128959,-62.5,4,1,1,70,0,0
129239,-62.5,4,1,1,5,0,0
129332,-71.4285714285714,4,1,1,70,0,0
129611,-71.4285714285714,4,1,1,5,0,0
129705,-71.4285714285714,4,1,1,70,0,0
129984,-71.4285714285714,4,1,1,5,0,0
130077,-71.4285714285714,4,1,1,70,0,0
130170,-71.4285714285714,4,1,1,5,0,0
130264,-71.4285714285714,4,1,1,70,0,0
130357,-71.4285714285714,4,1,1,5,0,0
130450,-62.5,4,1,1,70,0,0
130729,-62.5,4,1,1,5,0,0
130823,-71.4285714285714,4,1,1,70,0,0
131102,-71.4285714285714,4,1,1,5,0,0
131195,-71.4285714285714,4,1,1,70,0,0
131475,-71.4285714285714,4,1,1,5,0,0
131568,-71.4285714285714,4,1,1,70,0,0
131661,-71.4285714285714,4,1,1,5,0,0
131754,-71.4285714285714,4,1,1,70,0,0
131847,-71.4285714285714,4,1,1,5,0,0
131941,-62.5,4,1,1,70,0,0
132220,-62.5,4,1,1,5,0,0
132313,-71.4285714285714,4,1,1,70,0,0
134083,-71.4285714285714,4,1,1,5,0,0
134177,-71.4285714285714,4,1,1,70,0,0
134456,-71.4285714285714,4,1,1,70,0,0
134736,-66.6666666666667,4,1,1,70,0,0
134829,-66.6666666666667,4,1,1,5,0,0
134922,-62.5,4,1,1,70,0,0
135202,-62.5,4,1,1,5,0,0
135295,-71.4285714285714,4,1,1,70,0,0
135574,-71.4285714285714,4,1,1,5,0,0
135667,-71.4285714285714,4,1,1,70,0,0
135947,-71.4285714285714,4,1,1,5,0,0
136040,-71.4285714285714,4,1,1,70,0,0
136133,-71.4285714285714,4,1,1,5,0,0
136226,-71.4285714285714,4,1,1,70,0,0
136320,-71.4285714285714,4,1,1,5,0,0
136413,-62.5,4,1,1,70,0,0
136692,-62.5,4,1,1,5,0,0
136785,-71.4285714285714,4,1,1,70,0,0
137065,-71.4285714285714,4,1,1,5,0,0
137158,-71.4285714285714,4,1,1,70,0,0
137810,-71.4285714285714,4,1,1,5,0,0
137903,-71.4285714285714,4,1,1,70,0,0
138183,-71.4285714285714,4,1,1,5,0,0
138276,-58.8235294117647,4,1,1,70,0,0
138649,-76.9230769230769,4,1,1,70,0,0
139021,-58.8235294117647,4,1,1,70,0,0
139394,-76.9230769230769,4,1,1,70,0,0
139674,-76.9230769230769,4,1,1,5,0,0
139767,-58.8235294117647,4,1,1,70,0,0
140139,-76.9230769230769,4,1,1,70,0,0
141164,-76.9230769230769,4,1,1,5,0,0
141257,-76.9230769230769,4,1,1,70,0,0
142189,-76.9230769230769,4,1,1,81,0,0
142562,-76.9230769230769,4,1,1,90,0,0

[Colours]
Combo1 : 249,204,70
Combo2 : 171,84,84
Combo3 : 24,186,248
Combo4 : 218,48,171

[HitObjects]
310,168,388,6,0,B|305:146|305:146|312:116,1,53.9999983520508,8|8,0:0|0:0,0:0:0:0:
362,40,574,1,8,0:0:0:0:
407,37,667,1,8,0:0:0:0:
452,34,761,6,0,P|468:71|464:111,1,80.9999975280763,8|0,0:0|0:0,0:0:0:0:
262,48,1133,6,0,B|184:64|184:64|104:48,1,161.999995056153,4|0,2:0|0:0,0:0:0:0:
104,48,1506,1,8,0:0:0:0:
56,192,1692,2,0,L|46:256,1,45
161,164,1879,2,0,L|152:229,1,45
267,137,2065,2,0,L|257:201,1,45
416,116,2251,6,0,P|490:95|430:47,1,188.999994232178,8|0,0:0|0:0,0:0:0:0:
336,96,2624,6,0,L|352:264,1,161.999995056153,4|0,2:0|0:0,0:0:0:0:
351,257,2997,1,8,0:0:0:0:
259,80,3183,2,0,P|234:56|212:47,1,45
76,120,3369,2,0,P|61:137|42:148,1,45
241,204,3556,2,0,P|227:187|208:176,1,45
402,150,3742,6,0,P|398:70|475:96,1,188.999994232178,8|0,0:0|0:0,0:0:0:0:
428,232,4115,6,0,B|388:240|352:216|352:216|340:256|295:270,1,161.999995056153,4|0,2:0|0:0,0:0:0:0:
295,269,4487,1,8,0:0:0:0:
115,237,4674,2,0,B|116:269|116:269|98:297,1,45
83,111,4860,2,0,B|54:96|54:96|40:66,1,45
208,146,5046,2,0,B|235:129|235:129|268:131,1,45
32,200,5233,5,8,0:0:0:0:
160,76,5419,1,4,0:0:0:0:
396,228,5605,6,0,B|438:221|480:240|480:240|448:200|456:152,1,157.500001502037,4|0,2:0|0:0,0:0:0:0:
424,331,5978,1,4,0:0:0:0:
256,192,6164,6,0,B|180:208|180:208|100:197,2,157.500001502037,8|0|0,0:0|0:0|0:0,0:0:0:0:
48,104,6723,5,8,0:0:0:0:
124,340,6910,2,0,P|145:335|168:336,1,45,0|8,0:0|0:0,0:0:0:0:
411,322,7096,6,0,P|355:267|276:273,1,161.999995056153,4|0,2:0|0:0,0:0:0:0:
277,274,7469,1,8,0:0:0:0:
168,176,7655,2,0,L|164:128,1,45
80,24,7841,2,0,L|68:80,1,45
52,212,8028,2,0,L|58:256,1,45
256,368,8214,6,0,B|232:248|281:297|256:180,1,188.999994232178,8|0,0:0|0:0,0:0:0:0:
386,109,8587,6,0,P|325:145|375:195,1,161.999995056153,4|0,2:0|0:0,0:0:0:0:
375,195,8959,1,8,0:0:0:0:
68,80,9146,2,0,P|61:102|57:124,1,45
40,352,9332,2,0,P|46:330|50:308,1,45
160,220,9519,2,0,P|182:223|205:220,1,45
375,195,9705,6,0,P|355:130|323:206,1,188.999994232178,8|0,0:0|0:0,0:0:0:0:
352,284,10077,6,0,B|400:292|440:261|440:261|408:288|399:317,1,161.999995056153,4|0,2:0|0:0,0:0:0:0:
399,316,10450,1,8,0:0:0:0:
376,104,10636,2,0,B|358:108|358:108|332:102,1,45,0|0,0:0|0:0,0:0:0:0:
136,48,10823,2,0,B|153:43|153:43|179:49,1,45
236,168,11009,2,0,B|238:180|238:180|234:212,1,45
192,332,11195,5,8,0:0:0:0:
60,136,11382,1,4,0:0:0:0:
488,48,11568,6,0,B|452:120|452:120|468:268,1,157.500001502037,4|0,2:0|0:0,0:0:0:0:
476,336,11941,1,0,0:0:0:0:
256,220,12127,6,0,L|96:204,2,157.500001502037,8|0|0,0:0|0:0|0:0,0:0:0:0:
348,152,12686,1,8,0:0:0:0:
180,312,12872,2,0,L|225:316,1,45,0|8,0:0|0:0,0:0:0:0:
456,144,13059,6,0,B|472:80|472:80|424:36,1,125.999996154785,8|0,0:0|0:0,0:0:0:0:
332,312,13431,1,0,0:0:0:0:
84,39,13618,2,0,B|40:80|40:80|56:144,1,125.999996154785,8|0,0:0|0:0,0:0:0:0:
180,312,13990,1,0,0:0:0:0:
328,56,14177,6,0,B|298:46|258:57|258:57|268:88|304:88|304:88|280:100|280:100|304:112|304:112|288:128|288:128|302:139|302:139|297:149,1,236.250002253056,12|0,0:0|0:0,0:0:0:0:
296,204,14549,5,4,2:0:0:0:
204,200,14736,2,0,L|114:190,1,90,0|4,0:0|0:0,0:0:0:0:
351,131,15108,2,0,L|172:112,2,180
196,212,16040,2,0,P|204:280|180:354,1,135,4|0,0:0|0:0,0:0:0:0:
168,372,16413,1,4,0:0:0:0:
266,342,16599,2,0,P|306:323|351:322,1,90,0|4,0:0|0:0,0:0:0:0:
338,218,16972,2,0,P|382:223|420:246,1,90,0|4,0:0|0:0,0:0:0:0:
458,341,17344,1,0,0:0:0:0:
472,132,17531,5,4,0:0:0:0:
333,152,17717,1,0,0:0:0:0:
480,108,17903,1,4,0:0:0:0:
399,183,18090,1,0,0:0:0:0:
488,84,18276,1,4,0:0:0:0:
368,88,18462,1,0,0:0:0:0:
496,60,18649,1,4,0:0:0:0:
399,183,18835,1,0,0:0:0:0:
399,183,18928,1,0,0:0:0:0:
399,183,19021,6,0,L|407:275,1,90,4|0,0:0|0:0,0:0:0:0:
436,108,19394,1,4,0:0:0:0:
486,177,19580,2,0,L|493:266,1,90,0|2,0:0|0:0,0:0:0:0:
384,344,19953,5,0,0:0:0:0:
268,276,20139,1,2,0:0:0:0:
136,312,20326,1,0,0:0:0:0:
213,199,20512,6,0,P|209:139|173:99,1,90,4|0,0:0|0:0,0:0:0:0:
132,336,20885,1,4,0:0:0:0:
272,252,21071,2,0,P|339:248|394:285,1,135,0|0,0:0|0:0,0:0:0:0:
414,314,21444,1,0,0:0:0:0:
202,285,21630,2,0,P|198:233|218:193,1,90,4|0,0:0|0:0,0:0:0:0:
420,136,22003,6,0,B|376:140|376:140|333:123,1,90,4|0,0:0|0:0,0:0:0:0:
389,55,22375,1,4,0:0:0:0:
496,151,22562,2,0,L|480:244,1,90,0|4,0:0|0:0,0:0:0:0:
347,354,22934,6,0,P|355:295|413:308,1,135,0|0,0:0|0:0,0:0:0:0:
424,341,23307,1,0,0:0:0:0:
240,284,23493,5,4,0:0:0:0:
180,136,23680,1,0,0:0:0:0:
144,296,23866,1,4,0:0:0:0:
180,136,24052,1,0,0:0:0:0:
240,284,24239,1,4,0:0:0:0:
272,116,24425,1,0,0:0:0:0:
115,207,24611,5,2,0:0:0:0:
368,192,24798,1,0,0:0:0:0:
126,116,24984,1,2,0:0:0:0:
328,320,25170,1,0,0:0:0:0:
137,25,25357,1,2,0:0:0:0:
200,360,25543,1,0,0:0:0:0:
56,68,25729,1,2,0:0:0:0:
392,208,25916,1,0,0:0:0:0:
132,320,26102,6,0,B|38:330|38:330|88:300,1,153.000002918243,8|0,0:0|0:0,0:0:0:0:
376,296,26475,6,0,B|400:288|420:300|420:300|444:272|488:260|488:260|472:324,1,180,4|0,0:0|0:0,0:0:0:0:
264,96,27034,6,0,P|258:151|360:176,1,175.499991966248,8|0,0:0|0:0,0:0:0:0:
356,179,27406,1,8,0:0:0:0:
155,179,27593,1,8,0:0:0:0:
155,179,27965,6,0,P|74:182|62:262,1,175.499991966248,4|0,0:0|0:0,0:0:0:0:
62,262,28338,1,8,0:0:0:0:
449,262,28524,1,8,0:0:0:0:
152,76,28897,5,4,0:0:0:0:
376,296,29084,1,8,0:0:0:0:
353,76,29270,1,0,0:0:0:0:
136,296,29456,6,0,B|112:288|92:300|92:300|68:272|24:260|24:260|40:324,1,180,4|0,0:0|0:0,0:0:0:0:
356,224,30015,6,0,B|332:168|332:168|353:52,1,175.499991966248,8|0,0:0|0:0,0:0:0:0:
353,55,30388,1,0,0:0:0:0:
156,224,30574,1,8,0:0:0:0:
156,224,30947,6,0,B|180:168|180:168|158:52,1,175.499991966248,8|0,0:0|0:0,0:0:0:0:
158,55,31320,1,0,0:0:0:0:
256,236,31506,1,0,0:0:0:0:
252,268,31879,1,0,0:0:0:0:
444,76,32065,6,0,B|382:66|382:66|373:127|434:173,1,175.499991966248,8|0,0:0|0:0,0:0:0:0:
464,232,32438,6,0,L|448:384,1,148.500001416206,4|0,2:0|0:0,0:0:0:0:
48,232,32810,2,0,L|63:379,1,148.500001416206,8|0,0:0|0:0,0:0:0:0:
298,257,33183,1,4,0:0:0:0:
154,65,33369,1,0,0:0:0:0:
376,133,33556,1,8,0:0:0:0:
156,214,33742,1,0,0:0:0:0:
294,25,33928,5,4,0:0:0:0:
64,263,34115,2,0,P|143:304|127:216,1,222.75000212431,0|0,0:0|0:0,2:0:0:0:
258,220,34487,2,0,P|249:321|349:343,1,222.75000212431,4|0,0:0|0:0,0:0:0:0:
349,342,34860,1,4,0:0:0:0:
80,120,35046,1,8,0:0:0:0:
184,359,35233,1,0,0:0:0:0:
422,258,35419,6,0,P|450:190|432:120,1,148.500001416206,4|0,0:0|0:0,0:0:0:0:
80,119,35792,2,0,P|61:190|89:258,1,148.500001416206,8|0,0:0|0:0,0:0:0:0:
347,184,36164,1,4,0:0:0:0:
165,184,36351,1,0,0:0:0:0:
288,72,36537,1,8,0:0:0:0:
232,310,36724,1,0,0:0:0:0:
448,116,36910,6,0,B|464:80|460:48|460:48|424:76|364:64,1,148.500001416206,4|0,0:0|0:0,0:0:0:0:
156,48,37282,1,8,0:0:0:0:
345,255,37469,2,0,P|261:228|341:180,1,222.75000212431,4|0,0:0|0:0,0:0:0:0:
358,329,37841,2,0,P|322:339|285:336,1,74.2500007081032,4|0,0:0|0:0,0:0:0:0:
92,236,38028,1,8,0:0:0:0:
92,236,38214,5,0,0:0:0:0:
88,199,38307,1,0,0:0:0:0:
100,164,38400,2,0,B|144:128|192:124|192:124|248:136,1,148.500001416206,4|0,0:0|0:0,0:0:0:0:
412,220,38773,2,0,B|368:256|320:260|320:260|264:248,1,148.500001416206,8|0,0:0|0:0,0:0:0:0:
344,88,39146,1,4,0:0:0:0:
168,296,39332,1,4,0:0:0:0:
212,36,39518,2,0,P|243:102|241:175,1,148.500001416206,8|0,0:0|0:0,0:0:0:0:
192,372,39891,5,4,0:0:0:0:
404,220,40077,2,0,B|412:176|464:112|464:112|396:128|344:116,1,222.75000212431,4|0,0:0|0:0,0:0:0:0:
244,156,40450,2,0,B|180:192|180:192|252:188|252:188|304:196|328:187,1,222.75000212431,4|0,0:0|0:0,0:0:0:0:
497,190,40823,1,4,0:0:0:0:
408,40,41009,1,8,0:0:0:0:
396,312,41195,1,0,0:0:0:0:
248,140,41382,6,0,B|172:157|172:157|76:145,1,148.500001416206,4|0,0:0|0:0,0:0:0:0:
264,244,41754,2,0,B|339:226|339:226|435:238,1,148.500001416206,8|0,0:0|0:0,0:0:0:0:
188,320,42127,1,4,0:0:0:0:
168,76,42313,1,4,0:0:0:0:
320,336,42500,1,8,0:0:0:0:
428,56,42686,1,4,0:0:0:0:
96,19,42872,6,0,P|53:127|166:149,1,263.250001004219,8|0,0:0|0:0,0:0:0:0:
165,149,43245,1,0,0:0:0:0:
415,364,43431,2,0,P|458:256|345:234,1,263.250001004219,8|0,0:0|0:0,0:0:0:0:
345,233,43804,1,0,0:0:0:0:
484,104,43990,1,8,0:0:0:0:
465,45,44083,1,8,0:0:0:0:
404,35,44176,1,8,0:0:0:0:
368,85,44269,1,8,0:0:0:0:
396,140,44362,5,4,0:0:0:0:
465,45,44549,1,4,0:0:0:0:
164,160,44736,1,8,0:0:0:0:
188,309,44922,6,0,B|204:112,1,198.000006042481,2|4,0:0|0:0,0:0:0:0:
313,174,45481,6,0,B|323:309,1,135.000005149842,8|8,0:0|0:0,0:0:0:0:
310,143,45761,1,8,0:0:0:0:
308,112,45854,6,0,L|448:132,1,116.999994644165,4|0,0:0|0:0,0:0:0:0:
256,360,46226,1,8,0:0:0:0:
136,68,46413,6,0,P|101:157|145:243,1,198.000006042481,2|4,0:0|0:0,0:0:0:0:
324,309,46972,6,0,L|458:300,1,135.000005149842,8|4,0:0|0:0,0:0:0:0:
440,72,47344,6,0,P|396:108|393:165,1,116.999994644165,4|0,0:0|0:0,0:0:0:0:
424,376,47717,1,8,0:0:0:0:
166,299,47903,6,0,B|336:284|336:284|324:309,1,198.000006042481,2|4,0:0|0:0,0:0:0:0:
108,360,48462,6,0,P|85:297|111:237,1,135.000005149842,8|0,0:0|0:0,0:0:0:0:
180,80,48835,1,4,0:0:0:0:
192,192,49021,1,0,0:0:0:0:
60,64,49208,1,8,0:0:0:0:
172,108,49394,5,4,0:0:0:0:
184,220,49580,1,4,0:0:0:0:
455,276,49767,1,4,0:0:0:0:
469,270,49860,1,4,0:0:0:0:
484,265,49953,5,8,0:0:0:0:
409,252,50046,1,8,0:0:0:0:
334,242,50139,1,8,0:0:0:0:
260,230,50233,1,8,0:0:0:0:
184,220,50326,5,4,2:0:0:0:
356,128,50512,1,4,0:0:0:0:
256,344,50698,2,0,L|99:327,1,153.000002918243,8|0,0:0|0:0,0:0:0:0:
294,381,51071,1,4,0:0:0:0:
184,220,51257,1,4,0:0:0:0:
468,264,51443,2,0,P|401:233|332:259,1,153.000002918243,8|0,0:0|0:0,0:0:0:0:
188,348,51816,5,4,2:0:0:0:
256,48,52003,1,0,0:0:0:0:
37,206,52189,2,0,B|109:234|109:234|184:220,1,153.000002918243,8|0,0:0|0:0,0:0:0:0:
456,156,52562,1,4,0:0:0:0:
184,40,52748,1,4,0:0:0:0:
352,384,52934,2,0,L|340:224,1,153.000002918243,8|0,0:0|0:0,0:0:0:0:
408,16,53307,5,4,2:0:0:0:
208,340,53493,1,4,0:0:0:0:
47,31,53680,2,0,B|112:68|112:68|190:81,1,153.000002918243,8|0,0:0|0:0,0:0:0:0:
467,133,54052,1,4,0:0:0:0:
72,296,54239,1,4,0:0:0:0:
319,0,54425,2,0,P|274:60|259:135,1,153.000002918243,8|0,0:0|0:0,0:0:0:0:
252,340,54798,5,8,0:0:0:0:
147,19,54984,1,4,0:0:0:0:
472,152,55170,1,4,0:0:0:0:
40,192,55357,1,8,0:0:0:0:
372,336,55543,5,8,0:0:0:0:
396,328,55636,1,8,0:0:0:0:
420,320,55729,5,8,0:0:0:0:
368,287,55822,1,8,0:0:0:0:
338,234,55916,5,8,0:0:0:0:
368,161,56009,1,8,0:0:0:0:
341,87,56102,1,8,0:0:0:0:
271,51,56195,1,8,0:0:0:0:
195,72,56288,6,0,P|128:88|68:28,1,144,4|2,2:0|0:0,0:0:0:0:
146,7,56847,1,2,0:0:0:0:
96,184,57034,2,0,B|104:240|104:240|89:326,1,144,8|0,0:0|0:0,0:0:0:0:
160,364,57593,1,2,0:0:0:0:
232,328,57779,1,0,0:0:0:0:
168,280,57965,1,2,0:0:0:0:
311,317,58152,1,0,0:0:0:0:
176,196,58338,1,2,0:0:0:0:
389,332,58524,5,10,0:0:0:0:
364,232,58711,1,0,0:0:0:0:
376,132,58897,1,0,0:0:0:0:
440,56,59083,1,0,0:0:0:0:
372,348,59270,5,2,0:0:0:0:
294,325,59457,1,0,0:0:0:0:
260,152,59642,1,0,0:0:0:0:
236,244,59829,1,0,0:0:0:0:
60,144,60015,5,10,0:0:0:0:
169,113,60202,1,0,0:0:0:0:
120,348,60388,1,0,0:0:0:0:
38,257,60574,1,0,0:0:0:0:
88,112,60761,5,2,0:0:0:0:
100,32,60947,1,0,0:0:0:0:
136,224,61133,1,2,0:0:0:0:
184,80,61320,1,0,0:0:0:0:
132,368,61506,1,10,0:0:0:0:
256,176,61692,1,0,0:0:0:0:
40,336,61879,6,0,P|59:301|95:281,1,80.9999975280763,4|0,0:0|0:0,0:0:0:0:
208,272,62251,6,0,P|272:312|356:288,1,144,4|2,2:0|0:0,0:0:0:0:
408,256,62810,1,2,0:0:0:0:
309,95,62997,2,0,B|274:184|274:184|284:232,1,144,8|0,0:0|0:0,0:0:0:0:
336,301,63556,1,4,0:0:0:0:
408,240,63742,6,0,L|412:172,1,67.5000025749208,2|0,0:0|0:0,0:0:0:0:
484,79,64021,6,0,L|496:196,1,116.999994644165,2|0,0:0|0:0,0:0:0:0:
419,31,64301,6,0,P|383:31|351:49,1,74.2500007081032,2|0,0:0|0:0,0:0:0:0:
125,189,64487,1,8,0:0:0:0:
36,76,64674,5,8,0:0:0:0:
33,120,64767,1,8,0:0:0:0:
31,164,64860,6,0,B|24:206|24:206|37:234,1,74.2500007081032,8|8,0:0|0:0,0:0:0:0:
264,352,65046,2,0,B|271:310|271:310|257:281,1,74.2500007081032,8|8,0:0|0:0,0:0:0:0:
172,120,65232,5,4,0:0:0:0:
172,120,65419,1,4,0:0:0:0:
393,293,65605,2,0,L|268:304,1,125.999996154785,8|0,0:0|0:0,0:0:0:0:
472,168,65978,1,4,0:0:0:0:
472,168,66164,1,4,0:0:0:0:
304,336,66351,2,0,L|429:325,1,125.999996154785,8|0,0:0|0:0,0:0:0:0:
36,256,66723,1,4,0:0:0:0:
36,256,66910,1,4,0:0:0:0:
357,261,67096,2,0,L|232:272,1,125.999996154785,8|4,0:0|0:0,0:0:0:0:
342,50,67469,6,0,P|306:129|379:176,1,188.999994232178,2|0,0:0|0:0,0:0:0:0:
379,176,67841,1,8,0:0:0:0:
170,151,68028,2,0,P|201:145|232:152,1,62.9999980773926,4|0,0:0|0:0,0:0:0:0:
384,192,68214,5,8,0:0:0:0:
312,340,68400,1,0,0:0:0:0:
108,312,68587,2,0,P|141:284|182:272,1,62.9999980773926,4|0,0:0|0:0,0:0:0:0:
388,207,68773,5,8,0:0:0:0:
60,240,68959,1,0,0:0:0:0:
96,12,69146,2,0,P|148:27|190:61,1,62.9999980773926,4|0,0:0|0:0,0:0:0:0:
392,222,69332,2,0,B|392:300|344:336|344:336|332:272,1,188.999994232178,8|0,0:0|0:0,0:0:0:0:
320,200,69705,5,8,0:0:0:0:
264,116,69891,1,0,0:0:0:0:
232,264,70077,1,0,0:0:0:0:
180,64,70264,1,4,0:0:0:0:
262,24,70450,1,0,0:0:0:0:
264,116,70636,1,0,0:0:0:0:
294,292,70823,1,8,0:0:0:0:
304,200,71009,1,0,0:0:0:0:
175,332,71195,6,0,P|152:284|104:272,1,101.250003862381,4|0,2:0|0:0,0:0:0:0:
109,271,71568,1,2,0:0:0:0:
176,332,71754,1,2,0:0:0:0:
264,308,71941,1,4,0:0:0:0:
352,332,72127,1,0,0:0:0:0:
264,348,72313,1,4,0:0:0:0:
304,264,72500,6,0,L|312:168,1,67.5000025749208,0|4,0:0|0:0,0:0:0:0:
232,152,72872,2,0,L|226:219,1,67.5000025749208,0|2,0:0|0:0,0:0:0:0:
152,272,73245,2,0,P|102:270|61:240,1,101.250003862381,2|0,0:0|0:0,0:0:0:0:
52,196,73618,2,0,B|64:144|64:144|52:80,1,101.250003862381,2|0,0:0|0:0,0:0:0:0:
48,52,73990,5,2,0:0:0:0:
136,76,74177,2,0,L|240:72,1,80.9999975280763,4|0,0:0|0:0,0:0:0:0:
244,72,74549,5,2,0:0:0:0:
272,168,74736,2,0,L|191:171,1,80.9999975280763,2|0,0:0|0:0,0:0:0:0:
164,172,75108,6,0,P|152:228|152:232,1,53.9999983520508,2|0,0:0|0:0,0:0:0:0:
176,336,75481,2,0,P|168:364|156:324,1,87.749995983124,2|0,0:0|0:0,0:0:0:0:
156,300,75854,6,0,P|120:308|88:296,1,62.9999980773926,2|4,0:0|0:0,0:0:0:0:
264,288,76226,2,0,P|256:320|268:368,1,67.5000025749208,2|4,0:0|0:0,0:0:0:0:
372,300,76599,5,2,0:0:0:0:
384,192,76785,1,2,0:0:0:0:
276,180,76972,1,2,0:0:0:0:
264,288,77158,1,2,0:0:0:0:
248,96,77531,5,4,0:0:0:0:
164,132,77717,1,0,0:0:0:0:
80,92,77903,1,4,0:0:0:0:
75,183,78090,2,0,P|75:217|68:250,1,67.5000025749208,2|4,0:0|0:0,0:0:0:0:
196,328,78462,2,0,P|168:280|128:320,1,101.250003862381,2|0,0:0|0:0,0:0:0:0:
272,272,78835,2,0,P|284:352|300:352,1,101.250003862381,2|0,0:0|0:0,0:0:0:0:
196,240,79208,2,0,L|208:128,1,101.250003862381,2|0,0:0|0:0,0:0:0:0:
216,64,79580,2,0,P|272:48|296:56,1,67.5000025749208,2|4,0:0|0:0,0:0:0:0:
364,88,79953,5,0,0:0:0:0:
96,124,80139,2,0,L|4:116,1,76.5000014591217,6|0,0:0|0:0,0:0:0:0:
144,20,80512,5,2,0:0:0:0:
272,232,80698,2,0,P|280:284|260:344,1,90,2|4,0:0|0:0,0:0:0:0:
72,272,81071,5,0,0:0:0:0:
268,60,81257,2,0,B|296:32|336:16|336:16|389:18,1,135
480,64,81630,6,0,L|488:236,1,161.999995056153,6|0,2:0|0:0,0:0:0:0:
412,316,82003,6,0,P|336:340|228:280,1,188.999994232178,6|0,2:0|0:0,0:0:0:0:
128,160,82375,6,0,B|131:155|108:124|54:108|54:108|135:126|179:112,1,216,6|0,2:0|0:0,0:0:0:0:
396,44,82748,6,0,B|404:140|404:140|372:217,1,180,8|0,0:0|0:0,0:0:0:0:
464,352,83121,6,0,P|472:276|484:256,2,90,4|0|0,2:0|0:0|0:0,0:0:0:0:
308,280,83680,6,0,P|246:221|161:232,1,175.499991966248,8|0,0:0|0:0,0:0:0:0:
68,308,84052,2,0,B|100:316|100:316|148:308,1,58.4999973220826,8|0,0:0|0:0,0:0:0:0:
460,168,84239,6,0,P|396:196|320:172,1,135,8|0,0:0|0:0,0:0:0:0:
241,91,84611,6,0,P|286:82|280:128,1,108,4|0,0:0|0:0,0:0:0:0:
216,164,84984,1,8,0:0:0:0:
76,56,85170,6,0,B|96:109|96:109|83:172,2,116.999994644165,8|0|4,0:0|0:0|0:0,0:0:0:0:
224,268,85729,6,0,P|170:265|204:306,1,135,8|0,0:0|0:0,0:0:0:0:
408,328,86102,6,0,L|300:338,1,108,4|0,0:0|0:0,0:0:0:0:
280,336,86475,1,4,0:0:0:0:
408,64,86661,6,0,P|440:104|408:216,1,175.499991966248,8|0,0:0|0:0,0:0:0:0:
312,244,87034,6,0,L|316:188,1,45,4|0,0:0|0:0,0:0:0:0:
240,48,87220,6,0,P|248:112|292:72,1,148.50000453186,8|0,0:0|0:0,0:0:0:0:
144,160,87593,6,0,B|136:32|136:32|100:80,1,188.999994232178,8|0,0:0|0:0,0:0:0:0:
80,112,87965,1,4,0:0:0:0:
260,296,88152,2,0,P|296:284|260:324,2,125.999996154785,8|0|4,0:0|0:0|0:0,0:0:0:0:
444,60,88711,6,0,L|428:252,1,161.999995056153,8|0,0:0|0:0,0:0:0:0:
354,226,89083,6,0,B|362:182|386:162|386:162|330:174|290:170,1,135,4|0,0:0|0:0,0:0:0:0:
208,168,89456,2,0,P|256:196|256:200,1,45,4|0,0:0|0:0,0:0:0:0:
92,328,89642,6,0,B|100:240|100:240|68:151,1,182.250000695229,8|0,0:0|0:0,0:0:0:0:
72,44,90015,2,0,P|97:60|126:65,1,60.7500002317429,8|0,0:0|0:0,0:0:0:0:
420,112,90202,6,0,P|340:96|298:145,1,135,8|0,0:0|0:0,0:0:0:0:
372,266,90574,6,0,P|355:215|369:164,1,108,4|0,2:0|0:0,0:0:0:0:
420,112,90947,5,8,0:0:0:0:
92,112,91133,1,8,0:0:0:0:
208,200,91320,1,0,0:0:0:0:
176,36,91506,1,8,0:0:0:0:
8,176,91692,1,4,0:0:0:0:
189,308,91879,1,4,0:0:0:0:
208,304,91972,2,0,L|204:340,1,29.2499986610413,4|4,0:0|0:0,0:0:0:0:
228,308,92065,6,0,L|376:288,1,116.999994644165,8|4,0:0|0:0,0:0:0:0:
408,140,92438,1,8,0:0:0:0:
464,240,92624,1,4,0:0:0:0:
248,208,92810,1,8,0:0:0:0:
488,356,92997,1,4,0:0:0:0:
476,44,93183,1,4,0:0:0:0:
364,276,93369,1,4,0:0:0:0:
159,43,93556,6,0,P|103:55|56:124,1,135.000005149842,12|0,0:0|0:0,0:0:0:0:
28,260,93928,1,0,0:0:0:0:
352,43,94115,2,0,P|408:55|456:124,1,135.000005149842,12|0,0:0|0:0,0:0:0:0:
484,260,94487,1,0,0:0:0:0:
152,364,94674,6,0,B|120:268|120:268|112:208|176:148,1,236.250002253056,12|0,0:0|0:0,0:0:0:0:
248,84,95046,1,8,0:0:0:0:
308,248,95233,1,8,0:0:0:0:
302,223,95326,1,8,0:0:0:0:
376,192,95419,1,8,0:0:0:0:
377,166,95512,1,8,0:0:0:0:
412,84,95605,6,0,B|228:140|228:28|48:88,1,364.499988876343,4|0,2:0|0:0,0:0:0:0:
32,164,96537,6,0,P|24:248|76:312,1,148.500001416206,4|0,2:0|0:0,0:0:0:0:
454,299,96910,2,0,P|490:236|479:163,1,148.500001416206,8|0,0:0|0:0,0:0:0:0:
207,34,97282,1,4,0:0:0:0:
327,256,97469,1,4,0:0:0:0:
353,76,97655,1,8,0:0:0:0:
135,200,97842,1,0,0:0:0:0:
360,168,98028,5,4,0:0:0:0:
78,47,98214,2,0,B|81:115|81:115|37:182|37:182|40:257,1,222.75000212431,0|8,0:0|0:0,0:0:0:0:
187,277,98587,2,0,P|226:193|134:200,1,222.75000212431,4|0,0:0|0:0,0:0:0:0:
134,200,98959,5,4,0:0:0:0:
180,368,99146,1,8,0:0:0:0:
328,128,99332,1,0,0:0:0:0:
104,32,99518,2,0,L|120:192,1,148.500001416206,4|0,0:0|0:0,0:0:0:0:
408,352,99891,2,0,L|393:204,1,148.500001416206,8|0,0:0|0:0,0:0:0:0:
256,336,100264,1,4,0:0:0:0:
488,264,100450,1,4,0:0:0:0:
220,84,100636,1,8,0:0:0:0:
200,216,100823,1,0,0:0:0:0:
128,8,101009,6,0,B|110:77|110:77|124:156,1,148.500001416206,4|4,0:0|0:0,0:0:0:0:
324,280,101382,1,8,0:0:0:0:
64,228,101568,2,0,P|120:184|16:120,1,222.75000212431,4|0,0:0|0:0,0:0:0:0:
32,296,101941,2,0,P|70:303|110:288,1,74.2500007081032,4|0,0:0|0:0,0:0:0:0:
416,352,102127,1,8,0:0:0:0:
416,352,102313,5,0,0:0:0:0:
424,316,102406,1,0,0:0:0:0:
428,280,102500,2,0,B|416:192|416:192|444:120,1,148.500001416206,4|0,0:0|0:0,0:0:0:0:
84,104,102872,2,0,B|96:192|96:192|68:264,1,148.500001416206,8|0,0:0|0:0,0:0:0:0:
256,336,103245,1,4,0:0:0:0:
332,132,103431,1,4,0:0:0:0:
172,225,103618,2,0,B|225:220|225:220|260:241|260:241|318:236,1,148.500001416206,8|0,0:0|0:0,0:0:0:0:
460,212,103990,5,4,0:0:0:0:
172,324,104177,2,0,B|354:308|354:308|300:346,1,222.75000212431
92,272,104549,2,0,P|5:299|78:353,1,222.75000212431,4|0,0:0|0:0,0:0:0:0:
78,353,104922,1,4,0:0:0:0:
191,191,105108,1,8,0:0:0:0:
48,52,105295,1,0,0:0:0:0:
256,32,105481,6,0,B|376:20|376:20|356:39,1,148.500001416206,4|0,0:0|0:0,0:0:0:0:
256,352,105854,2,0,B|136:364|136:364|155:344,1,148.500001416206,8|0,0:0|0:0,0:0:0:0:
336,188,106226,1,4,0:0:0:0:
152,192,106413,1,4,0:0:0:0:
368,348,106599,1,8,0:0:0:0:
512,124,106785,1,4,0:0:0:0:
192,84,106972,6,0,B|140:108|152:192|152:192|72:164|88:76,1,263.250001004219,12|0,0:0|0:0,0:0:0:0:
92,48,107344,1,0,0:0:0:0:
320,300,107531,2,0,B|372:276|360:192|360:192|440:220|424:308,1,263.250001004219,8|0,0:0|0:0,0:0:0:0:
420,336,107903,1,0,0:0:0:0:
92,48,108090,1,8,0:0:0:0:
90,113,108183,1,8,0:0:0:0:
88,179,108276,1,8,0:0:0:0:
86,245,108369,1,8,0:0:0:0:
84,311,108462,5,4,0:0:0:0:
16,144,108649,1,0,0:0:0:0:
304,352,108835,1,8,0:0:0:0:
392,144,109021,6,0,B|364:92|364:92|352:236,1,198.000006042481,2|4,0:0|0:0,0:0:0:0:
283,32,109580,6,0,L|271:166,1,135.000005149842,8|8,0:0|0:0,0:0:0:0:
244,32,109860,1,8,0:0:0:0:
208,32,109953,6,0,B|168:48|168:48|68:28,1,116.999994644165,4|0,0:0|0:0,0:0:0:0:
392,8,110326,1,8,0:0:0:0:
364,288,110512,6,0,B|337:177|397:189|361:93,1,198.000006042481,2|4,0:0|0:0,0:0:0:0:
136,104,111071,6,0,B|224:80|224:80|204:148,1,135.000005149842,8|0,0:0|0:0,0:0:0:0:
264,336,111444,6,0,P|252:244|268:212,1,116.999994644165,4|0,0:0|0:0,0:0:0:0:
432,280,111816,1,8,0:0:0:0:
224,80,112003,6,0,B|124:93|124:93|24:64,1,198.000006042481,2|4,0:0|0:0,0:0:0:0:
340,176,112562,6,0,L|473:159,1,135.000005149842,8|0,0:0|0:0,0:0:0:0:
128,112,112934,6,0,P|120:200|56:136,1,175.499991966248,4|0,0:0|0:0,0:0:0:0:
61,181,113307,1,8,0:0:0:0:
156,320,113493,6,0,L|376:304,1,198.000006042481,2|0,0:0|0:0,0:0:0:0:
252,12,114052,5,8,0:0:0:0:
218,63,114145,1,8,0:0:0:0:
208,124,114238,1,8,0:0:0:0:
221,184,114331,1,8,0:0:0:0:
256,234,114424,1,4,0:0:0:0:
218,63,114611,5,0,0:0:0:0:
28,340,114798,1,8,0:0:0:0:
188,316,114984,6,0,P|168:264|144:344,1,198.000006042481,2|4,0:0|0:0,0:0:0:0:
52,56,115543,6,0,P|60:164|24:232,1,135.000005149842,8|8,0:0|0:0,0:0:0:0:
136,72,115823,1,8,0:0:0:0:
160,48,115916,6,0,B|217:64|217:64|264:96,1,116.999994644165,4|0,0:0|0:0,0:0:0:0:
492,280,116288,1,8,0:0:0:0:
400,24,116475,6,0,B|360:80|360:80|373:208,1,198.000006042481,2|4,0:0|0:0,0:0:0:0:
103,352,117034,6,0,P|167:331|212:281,1,135.000005149842,8|4,0:0|0:0,0:0:0:0:
108,120,117406,6,0,B|111:236,1,116.999994644165,4|4,0:0|0:0,0:0:0:0:
36,40,117779,1,8,0:0:0:0:
264,164,117965,6,0,B|424:152|424:152|389:137,1,198.000006042481,2|0,0:0|0:0,0:0:0:0:
492,256,118524,6,0,B|385:265|385:265|404:284,1,135.000005149842,8|0,0:0|0:0,0:0:0:0:
208,288,118897,1,8,0:0:0:0:
452,348,119083,1,0,0:0:0:0:
316,368,119270,1,0,0:0:0:0:
476,128,119456,5,8,0:0:0:0:
208,320,119642,1,0,0:0:0:0:
356,252,119829,1,4,0:0:0:0:
367,245,119922,1,4,0:0:0:0:
376,236,120015,5,8,0:0:0:0:
302,244,120108,1,8,0:0:0:0:
237,207,120201,1,8,0:0:0:0:
208,139,120294,1,8,0:0:0:0:
224,67,120388,5,4,0:0:0:0:
176,312,120574,1,4,0:0:0:0:
484,44,120761,2,0,B|404:28|404:28|333:41,1,153.000002918243,8|0,0:0|0:0,0:0:0:0:
408,312,121133,1,4,0:0:0:0:
88,136,121320,1,4,0:0:0:0:
255,376,121506,2,0,P|281:306|246:240,1,153.000002918243,8|0,0:0|0:0,0:0:0:0:
36,40,121879,5,4,0:0:0:0:
160,356,122065,1,4,0:0:0:0:
452,184,122251,2,0,L|464:24,1,153.000002918243,8|0,0:0|0:0,0:0:0:0:
476,352,122624,1,4,0:0:0:0:
280,24,122810,1,4,0:0:0:0:
48,332,122997,2,0,B|104:292|104:292|187:298,1,153.000002918243,8|0,0:0|0:0,0:0:0:0:
492,340,123369,5,4,0:0:0:0:
132,196,123556,1,4,0:0:0:0:
472,36,123742,1,8,0:0:0:0:
420,244,123928,1,0,0:0:0:0:
280,80,124115,1,4,0:0:0:0:
500,152,124301,1,4,0:0:0:0:
308,196,124487,1,8,0:0:0:0:
364,0,124674,1,4,0:0:0:0:
420,244,124860,5,8,0:0:0:0:
88,56,125046,1,0,0:0:0:0:
220,272,125233,1,0,0:0:0:0:
464,48,125419,1,8,0:0:0:0:
124,249,125605,5,4,0:0:0:0:
364,0,125792,1,4,0:0:0:0:
317,343,125978,1,8,0:0:0:0:
154,37,126164,1,4,0:0:0:0:
463,187,126351,6,0,P|490:260|483:338,1,135.000005149842,8|0,0:0|0:0,0:0:0:0:
496,48,126723,1,0,0:0:0:0:
317,343,126910,2,0,P|283:328|238:326,1,67.5000025749208,8|0,0:0|0:0,0:0:0:0:
60,324,127096,5,0,0:0:0:0:
90,333,127189,1,8,0:0:0:0:
122,329,127282,1,8,0:0:0:0:
150,313,127375,1,8,0:0:0:0:
169,287,127469,5,8,0:0:0:0:
223,225,127562,1,8,0:0:0:0:
305,223,127655,1,8,0:0:0:0:
362,282,127748,1,8,0:0:0:0:
356,364,127841,6,0,B|288:372|288:372|244:344|244:344|176:355,1,188.999994232178,4|0,2:0|0:0,0:0:0:0:
176,355,128214,1,8,0:0:0:0:
384,200,128400,2,0,P|399:149|391:121,1,62.9999980773926,0|0,0:0|0:0,0:0:0:0:
286,68,128587,2,0,P|276:39|254:17,1,62.9999980773926
125,44,128773,2,0,P|74:29|46:36,1,62.9999980773926
88,340,128959,6,0,B|144:280|124:208|124:208|96:240|52:248,1,216,8|0,0:0|0:0,0:0:0:0:
232,292,129332,6,0,B|376:308|376:308|340:272,1,188.999994232178,4|0,2:0|0:0,0:0:0:0:
344,276,129705,1,8,0:0:0:0:
376,88,129891,2,0,L|368:25,1,62.9999980773926
148,8,130077,2,0,L|154:70,1,62.9999980773926
252,208,130264,2,0,L|261:145,1,62.9999980773926
64,304,130450,6,0,P|132:252|112:344,1,216,8|0,0:0|0:0,0:0:0:0:
2,232,130823,6,0,B|16:204|44:188|44:188|16:36,1,188.999994232178,4|0,2:0|0:0,0:0:0:0:
20,62,131195,1,8,0:0:0:0:
172,152,131382,2,0,L|260:148,1,62.9999980773926,0|0,0:0|0:0,0:0:0:0:
452,44,131568,2,0,P|434:69|427:100,1,62.9999980773926
477,336,131754,2,0,B|444:344|444:344|414:338,1,62.9999980773926
100,328,131941,6,0,P|193:279|296:316,1,216,8|0,0:0|0:0,0:0:0:0:
336,296,132313,1,8,0:0:0:0:
338,261,132406,1,8,0:0:0:0:
341,227,132499,1,8,0:0:0:0:
343,192,132592,1,8,0:0:0:0:
346,158,132685,1,8,0:0:0:0:
52,48,132872,5,8,0:0:0:0:
61,118,132965,1,8,0:0:0:0:
112,167,133058,1,8,0:0:0:0:
182,175,133151,1,8,0:0:0:0:
243,139,133244,1,8,0:0:0:0:
436,36,133431,1,4,0:0:0:0:
288,344,133618,1,0,0:0:0:0:
288,344,133711,1,4,0:0:0:0:
288,344,133804,6,0,B|228:312|228:312|96:332,1,188.999994232178,4|0,2:0|0:0,0:0:0:0:
108,330,134177,1,8,0:0:0:0:
56,68,134363,5,0,0:0:0:0:
64,72,134456,2,0,P|80:108|80:132,1,62.9999980773926,8|4,0:0|0:0,0:0:0:0:
209,243,134736,6,0,P|210:207|233:167,1,67.5000025749208,4|0,0:0|0:0,0:0:0:0:
463,116,134922,2,0,P|393:177|354:93,1,216,8|0,0:0|0:0,0:0:0:0:
313,231,135295,6,0,B|337:279|337:279|329:367|241:351,1,188.999994232178,4|0,2:0|0:0,0:0:0:0:
246,351,135667,1,8,0:0:0:0:
40,128,135854,2,0,L|112:124,1,62.9999980773926,4|0,0:0|0:0,0:0:0:0:
232,324,136040,2,0,B|224:292|224:292|231:263,1,62.9999980773926,4|0,0:0|0:0,0:0:0:0:
348,16,136226,2,0,P|352:56|344:84,1,62.9999980773926,4|0,0:0|0:0,0:0:0:0:
479,363,136413,6,0,P|431:286|476:176,1,216,8|0,0:0|0:0,0:0:0:0:
356,292,136785,6,0,P|292:240|368:224,1,188.999994232178,4|0,2:0|0:0,0:0:0:0:
359,216,137158,1,8,0:0:0:0:
176,360,137344,5,0,0:0:0:0:
168,352,137438,2,0,P|124:352|100:360,1,62.9999980773926,8|4,0:0|0:0,0:0:0:0:
48,68,137717,6,0,B|52:104|52:104|44:144,1,62.9999980773926,4|0,0:0|0:0,0:0:0:0:
144,244,137903,2,0,B|112:232|100:208|100:208|128:184|168:192|168:192|200:212|240:208,1,188.999994232178,8|0,0:0|0:0,0:0:0:0:
308,184,138276,5,8,0:0:0:0:
339,181,138369,1,8,0:0:0:0:
371,178,138462,1,8,0:0:0:0:
403,175,138555,1,8,0:0:0:0:
435,172,138649,2,0,L|431:236,1,58.4999973220826,8|0,0:0|0:0,0:0:0:0:
356,36,138835,6,0,L|352:100,1,58.4999973220826,10|8,0:0|0:0,0:0:0:0:
336,296,139021,1,8,0:0:0:0:
254,286,139115,1,8,0:0:0:0:
174,277,139207,1,8,0:0:0:0:
94,268,139300,1,8,0:0:0:0:
19,261,139394,2,0,B|0:176|0:176|21:90,1,175.499991966248,12|8,2:0|0:0,0:0:0:0:
120,40,139767,5,8,0:0:0:0:
133,80,139860,1,8,0:0:0:0:
165,109,139953,1,8,0:0:0:0:
207,117,140046,1,8,0:0:0:0:
247,102,140139,2,0,P|272:89|301:89,1,58.4999973220826,8|8,0:0|0:0,0:0:0:0:
484,288,140326,6,0,P|483:259|467:234,1,58.4999973220826,10|8,0:0|0:0,0:0:0:0:
339,214,140512,1,8,0:0:0:0:
364,280,140605,1,8,0:0:0:0:
327,340,140698,1,8,0:0:0:0:
256,348,140791,1,8,0:0:0:0:
208,297,140885,2,0,B|184:276|141:271|141:271|73:304|28:252,1,175.499991966248,4|0,2:0|0:0,0:0:0:0:
44,267,141257,5,8,0:0:0:0:
324,352,141444,1,0,0:0:0:0:
93,202,141630,1,0,0:0:0:0:
440,304,141816,1,8,0:0:0:0:
208,164,142003,1,0,0:0:0:0:
468,336,142189,5,12,0:0:0:0:
256,32,142375,1,12,0:0:0:0:
44,336,142562,1,12,2:0:0:0:
