osu file format v14

[General]
AudioFilename: YUI - Rolling star.mp3
AudioLeadIn: 0
PreviewTime: 32158
Countdown: 0
SampleSet: Normal
StackLeniency: 0.5
Mode: 0
LetterboxInBreaks: 1
WidescreenStoryboard: 0

[Editor]
Bookmarks: 86847,118338
DistanceSpacing: 0.81
BeatDivisor: 4
GridSize: 4
TimelineZoom: 2.5

[Metadata]
Title:Rolling star
TitleUnicode:Rolling star
Artist:YUI
ArtistUnicode:YUI
Creator:Avishay
Version:Insane
Source:BLEACH
Tags:sky opening full deejaydray -Nya- Can't Buy My Love tokido haku hoaxtory
BeatmapID:330493
BeatmapSetID:129259

[Difficulty]
HPDrainRate:6
CircleSize:3.3
OverallDifficulty:7
ApproachRate:8
SliderMultiplier:1.4
SliderTickRate:1

[Events]
//Background and Video events
0,0,"b2.jpg",0,0
//Break Periods
2,56488,64483
//Storyboard Layer 0 (Background)
//Storyboard Layer 1 (Fail)
//Storyboard Layer 2 (Pass)
//Storyboard Layer 3 (Foreground)
//Storyboard Sound Samples

[TimingPoints]
-357,372.670807453416,4,1,1,60,1,0
14549,-100,4,1,1,35,0,0
24611,-100,4,1,1,40,0,0
24984,-100,4,1,1,50,0,0
25356,-100,4,1,1,60,0,0
32438,-100,4,1,1,75,0,1
43804,-83.3333333333333,4,1,1,75,0,1
44363,-100,4,1,1,75,0,1
44922,-100,4,1,1,75,0,1
45015,-100,4,1,1,30,0,1
45854,-100,4,1,1,75,0,1
46506,-100,4,1,1,30,0,1
47344,-100,4,1,1,75,0,1
56288,-133.333333333333,4,1,1,60,0,0
71195,-133.333333333333,4,1,1,35,0,0
77530,-100,4,1,1,35,0,0
80139,-100,4,1,1,45,0,0
92065,-66.6666666666667,4,1,1,75,0,0
94674,-76.9230769230769,4,1,1,75,0,0
95232,-86.9565217391304,4,1,1,60,0,0
95605,-133.333333333333,4,1,1,60,0,0
96164,-133.333333333333,4,1,1,5,0,0
96351,-133.333333333333,4,1,1,35,0,0
96537,-66.6666666666667,4,1,1,75,0,1
107530,-80,4,1,1,75,0,1
108835,-100,4,1,1,75,0,1
127841,-100,4,1,1,65,0,0
142562,-100,4,1,1,85,0,0

[Colours]
Combo1 : 249,204,70
Combo2 : 171,84,84
Combo3 : 24,186,248
Combo4 : 218,48,171

[HitObjects]
92,284,7096,5,4,0:0:0:0:
276,192,7469,2,0,P|250:171|216:159,1,70,4|0,2:0|0:0,0:0:0:0:
143,216,7841,2,0,P|170:237|203:249,1,70
360,224,8214,2,0,L|360:148,1,70,8|0,0:0|0:0,0:0:0:0:
423,87,8587,6,0,P|360:60|296:88,1,140,4|8,0:0|0:0,0:0:0:0:
200,108,9146,2,0,L|228:24,2,70
144,256,9705,2,0,P|178:260|213:256,1,70,8|0,0:0|0:0,0:0:0:0:
293,200,10077,5,4,0:0:0:0:
52,252,10450,1,8,0:0:0:0:
150,239,10636,2,0,P|181:166|188:104,1,140,0|4,0:0|0:0,0:0:0:0:
256,36,11195,1,8,0:0:0:0:
256,36,11382,1,0,0:0:0:0:
426,130,11568,6,0,L|400:268,1,140,4|4,2:0|0:0,0:0:0:0:
219,114,12127,2,0,L|352:68,1,140,8|4,0:0|0:0,0:0:0:0:
160,204,12686,1,8,0:0:0:0:
60,184,12872,1,8,0:0:0:0:
60,184,12965,1,8,0:0:0:0:
60,184,13059,5,4,0:0:0:0:
20,104,13245,1,0,0:0:0:0:
20,104,13431,1,0,0:0:0:0:
12,268,13618,5,8,0:0:0:0:
52,348,13804,1,0,0:0:0:0:
52,348,13990,1,0,0:0:0:0:
216,196,14177,1,8,0:0:0:0:
216,196,14549,5,2,2:0:0:0:
152,280,14736,2,0,L|160:352,1,70,0|4,0:0|0:0,0:0:0:0:
256,296,15108,2,0,B|322:318|322:318|406:290,1,140
366,202,15667,1,4,0:0:0:0:
439,139,15854,1,0,0:0:0:0:
417,46,16040,6,0,B|351:24|351:24|285:47,1,140
256,136,16599,1,0,0:0:0:0:
184,80,16785,2,0,L|104:76,2,70,4|0|4,0:0|0:0|0:0,0:0:0:0:
285,47,17344,1,0,0:0:0:0:
256,136,17531,5,4,0:0:0:0:
312,208,17717,1,0,0:0:0:0:
248,272,17903,2,0,P|213:275|179:267,1,70,4|0,0:0|0:0,0:0:0:0:
336,308,18276,1,4,0:0:0:0:
395,240,18462,2,0,P|399:205|391:171,1,70,0|4,0:0|0:0,0:0:0:0:
300,156,18835,1,0,0:0:0:0:
300,156,18928,1,0,0:0:0:0:
300,156,19021,6,0,B|260:160|260:160|231:152,2,70,4|0|4,0:0|0:0|0:0,0:0:0:0:
364,92,19580,2,0,L|362:21,1,70,0|4,0:0|0:0,0:0:0:0:
446,56,19953,1,8,2:0:0:0:
280,32,20139,2,0,P|245:33|211:43,1,70,2|0,2:0|0:0,0:0:0:0:
128,96,20512,5,4,0:0:0:0:
80,180,20698,2,0,P|64:263|92:325,2,140
179,179,21630,2,0,P|208:200|241:211,1,70,4|0,0:0|0:0,0:0:0:0:
336,232,22003,5,0,0:0:0:0:
432,204,22189,2,0,P|448:121|420:59,2,140
336,232,23121,1,4,0:0:0:0:
268,160,23307,1,0,0:0:0:0:
336,88,23493,5,4,0:0:0:0:
336,88,23680,1,0,0:0:0:0:
392,176,23866,2,0,P|382:206|359:236,1,70,4|0,0:0|0:0,0:0:0:0:
200,156,24239,2,0,P|209:125|232:95,1,70,4|0,0:0|0:0,0:0:0:0:
316,247,24611,6,0,L|374:287,1,70,2|0,0:0|0:0,0:0:0:0:
311,131,24984,2,0,L|351:73,1,70,2|0,0:0|0:0,0:0:0:0:
195,136,25357,2,0,L|137:96,1,70,2|0,0:0|0:0,0:0:0:0:
200,252,25729,2,0,L|160:310,1,70,8|8,0:0|0:0,0:0:0:0:
256,192,26102,5,8,3:0:0:0:
256,192,26288,1,0,0:0:0:0:
260,104,26475,2,0,P|344:192|172:164,1,420,4|8,0:0|0:0,0:0:0:0:
68,16,27965,6,0,P|33:21|2:36,1,70,4|0,0:0|0:0,0:0:0:0:
59,109,28338,1,8,0:0:0:0:
144,72,28524,2,0,L|224:68,1,70,10|0,2:0|0:0,0:0:0:0:
196,160,28897,2,0,P|171:183|138:198,2,70,0|10|0,0:0|2:0|0:0,0:0:0:0:
279,128,29456,6,0,P|348:127|402:170,1,140,4|0,0:0|0:0,0:0:0:0:
402,285,30015,2,0,P|348:328|279:327,1,140,8|0,0:0|0:0,0:0:0:0:
216,252,30574,1,8,0:0:0:0:
252,160,30761,1,0,0:0:0:0:
168,108,30947,6,0,B|96:116|96:116|24:108,2,140,8|8|0,0:0|2:0|0:0,0:0:0:0:
364,112,32065,1,8,0:0:0:0:
452,288,32438,5,4,0:0:0:0:
356,308,32624,1,0,0:0:0:0:
264,272,32810,2,0,P|230:282|196:280,1,70,8|0,0:0|0:0,0:0:0:0:
248,92,33183,1,0,0:0:0:0:
221,185,33369,1,0,0:0:0:0:
343,127,33556,2,0,P|376:139|411:137,1,70,8|0,0:0|0:0,0:0:0:0:
368,232,33928,5,4,0:0:0:0:
368,232,34115,2,0,L|360:304,1,70,0|8,0:0|0:0,0:0:0:0:
240,340,34487,2,0,B|252:300|248:284|248:284|208:272|164:288,1,140
88,140,35046,2,0,P|82:109|100:54,1,70,8|0,0:0|0:0,0:0:0:0:
176,112,35419,5,4,0:0:0:0:
240,36,35605,1,0,0:0:0:0:
332,72,35792,2,0,L|424:72,1,70,8|0,0:0|0:0,0:0:0:0:
484,124,36164,1,0,0:0:0:0:
484,124,36351,1,0,0:0:0:0:
432,236,36537,2,0,L|424:308,1,70,8|0,0:0|0:0,0:0:0:0:
328,324,36910,5,0,0:0:0:0:
236,285,37096,1,0,0:0:0:0:
216,188,37282,1,8,0:0:0:0:
216,188,37469,2,0,L|136:184,1,70
64,136,37841,1,0,0:0:0:0:
256,80,38028,1,8,0:0:0:0:
352,112,38214,1,0,0:0:0:0:
352,112,38307,1,0,0:0:0:0:
351,112,38400,6,0,B|384:88|384:88|413:82,1,70
468,164,38773,2,0,L|460:236,1,70,8|0,0:0|0:0,0:0:0:0:
364,252,39146,1,4,0:0:0:0:
304,328,39332,1,0,0:0:0:0:
185,207,39518,2,0,P|152:197|118:193,1,70,8|0,0:0|0:0,0:0:0:0:
32,240,39891,5,4,0:0:0:0:
32,240,40077,2,0,L|41:309,1,70,0|8,0:0|0:0,0:0:0:0:
118,193,40450,2,0,P|155:134|149:65,1,140,0|4,0:0|0:0,0:0:0:0:
244,0,41009,2,0,L|236:69,1,70,8|0,0:0|0:0,0:0:0:0:
344,92,41382,6,0,L|424:108,1,70,4|4,0:0|0:0,0:0:0:0:
436,200,41754,2,0,L|356:184,1,70,8|0,0:0|0:0,0:0:0:0:
288,244,42127,1,4,0:0:0:0:
228,320,42313,1,0,0:0:0:0:
172,240,42500,2,0,B|139:214|107:214,1,70,8|0,0:0|0:0,0:0:0:0:
84,96,42872,5,10,0:0:0:0:
108,184,43059,1,0,0:0:0:0:
76,268,43245,1,0,0:0:0:0:
288,284,43431,5,10,0:0:0:0:
264,196,43618,1,0,0:0:0:0:
296,112,43804,1,0,0:0:0:0:
188,168,43990,6,0,L|184:216,3,41.9999987182618,10|8|8|8,0:0|0:0|0:0|0:0,0:0:0:0:
158,136,44363,6,0,P|91:137|48:80,1,140,4|8,0:0|0:0,0:0:0:0:
126,65,44922,6,0,B|176:32|264:56|264:56|297:88|356:104|416:100|457:62,1,350,4|4,0:0|0:0,0:0:0:0:
396,236,46226,1,8,0:0:0:0:
396,236,46413,2,2,B|376:252|320:254|320:254|272:302|256:326|256:326|240:302|192:254|192:254|136:252|108:232,1,350,4|6,0:0|0:0,0:0:0:0:
36,24,47717,5,0,0:0:0:0:
36,24,47903,1,2,0:0:0:0:
172,116,48276,1,0,0:0:0:0:
248,64,48462,1,8,0:0:0:0:
172,116,48649,1,0,0:0:0:0:
168,212,48835,5,4,0:0:0:0:
228,288,49021,2,0,L|224:364,1,70,0|8,0:0|0:0,0:0:0:0:
316,232,49394,1,0,0:0:0:0:
304,136,49580,1,0,0:0:0:0:
396,168,49767,1,4,0:0:0:0:
364,48,49953,1,8,0:0:0:0:
336,36,50046,1,8,0:0:0:0:
308,32,50139,1,8,0:0:0:0:
280,36,50233,1,0,0:0:0:0:
256,48,50326,5,12,0:0:0:0:
132,36,50512,1,4,0:0:0:0:
226,144,50698,2,0,L|230:232,1,70,8|0,0:0|0:0,0:0:0:0:
336,276,51071,1,4,0:0:0:0:
336,276,51257,1,4,0:0:0:0:
136,248,51444,1,8,0:0:0:0:
208,332,51630,1,0,0:0:0:0:
248,232,51816,6,0,L|240:144,1,70,4|0,0:0|0:0,0:0:0:0:
336,60,52189,2,0,L|342:129,1,70,8|0,0:0|0:0,0:0:0:0:
360,220,52562,1,0,0:0:0:0:
344,312,52748,1,4,0:0:0:0:
268,264,52934,1,8,0:0:0:0:
202,201,53121,6,0,B|200:208|216:144|285:161|285:161|336:200|392:176|392:176|460:232|488:144|488:144|468:101|464:60,1,420,0|4,0:0|0:0,0:0:0:0:
352,83,54425,6,0,P|317:86|284:76,1,70,12|0,0:0|0:0,0:0:0:0:
192,8,54798,1,8,0:0:0:0:
200,97,54984,1,0,0:0:0:0:
144,168,55170,1,0,0:0:0:0:
88,32,55357,1,8,0:0:0:0:
67,225,55543,5,8,0:0:0:0:
90,247,55636,1,8,0:0:0:0:
119,262,55729,1,0,0:0:0:0:
152,266,55823,1,0,0:0:0:0:
185,267,55916,2,0,L|208:298,4,35,8|8|0|8|4,0:0|0:0|0:0|0:0|0:0,0:0:0:0:
256,192,65233,12,2,67469,2:0:0:0:
256,192,67841,5,8,3:0:0:0:
111,106,68214,2,0,B|159:127|159:127|212:124,1,105.000004005432,8|4,0:0|0:0,0:0:0:0:
100,189,68773,2,0,B|53:169|53:169|0:172,1,105.000004005432,8|4,0:0|0:0,0:0:0:0:
192,208,69332,6,0,L|296:201,1,105.000004005432,8|8,0:0|0:0,0:0:0:0:
456,116,70077,1,0,0:0:0:0:
412,200,70264,2,0,L|408:264,2,52.5000020027161,8|0|4,0:0|0:0|0:0,0:0:0:0:
340,140,70823,1,8,0:0:0:0:
320,312,71195,5,4,2:0:0:0:
312,344,71941,1,0,0:0:0:0:
228,300,72127,1,0,0:0:0:0:
144,344,72313,1,4,0:0:0:0:
88,268,72500,1,0,0:0:0:0:
90,258,72593,1,0,0:0:0:0:
92,248,72686,5,0,0:0:0:0:
168,192,72872,2,0,L|160:132,1,52.5000020027161,0|4,0:0|0:0,0:0:0:0:
240,92,73245,2,0,L|221:34,1,52.5000020027161,0|4,0:0|0:0,0:0:0:0:
332,40,73618,2,0,B|384:44|412:32|412:32|403:54,1,105.000004005432
376,168,74177,5,4,0:0:0:0:
376,168,74549,1,0,0:0:0:0:
324,248,74736,1,0,2:0:0:0:
380,324,74922,1,0,0:0:0:0:
268,340,75108,1,0,0:0:0:0:
248,336,75202,1,0,0:0:0:0:
228,331,75295,1,0,0:0:0:0:
116,312,75481,1,0,0:0:0:0:
116,312,75574,1,0,0:0:0:0:
116,312,75667,6,0,L|112:240,1,52.5000020027161,8|2,0:0|2:0,0:0:0:0:
68,112,76040,2,0,L|61:164,1,52.5000020027161,8|2,0:0|2:0,0:0:0:0:
152,180,76413,1,4,0:0:0:0:
182,93,76599,2,0,L|248:80,1,52.5000020027161,2|0,2:0|0:0,0:0:0:0:
152,180,76972,1,4,2:0:0:0:
191,275,77158,5,0,0:0:0:0:
191,275,77531,2,0,B|151:271|151:271|122:277,1,70,8|0,0:0|0:0,0:0:0:0:
122,277,77810,1,0,0:0:0:0:
122,277,77903,1,8,0:0:0:0:
60,188,78090,2,0,L|56:108,1,70
176,80,78462,2,0,L|164:164,1,70
240,232,78835,6,0,P|301:266|370:273,2,140,0|0|4,0:0|2:0|0:0,0:0:0:0:
148,276,79767,2,0,P|133:310|125:342,1,70,4|0,0:0|2:0,0:0:0:0:
40,228,80139,5,4,0:0:0:0:
52,132,80326,1,0,0:0:0:0:
144,164,80512,1,0,0:0:0:0:
236,132,80698,2,0,L|248:48,1,70
420,100,81071,1,0,0:0:0:0:
323,127,81257,1,0,0:0:0:0:
245,62,81444,1,4,0:0:0:0:
143,64,81630,6,0,P|43:154|54:288,1,280,2|0,0:0|0:0,0:0:0:0:
54,289,82562,1,0,0:0:0:0:
167,200,82748,2,0,B|276:192|276:192|244:248,1,140,8|4,0:0|0:0,0:0:0:0:
216,292,83307,5,0,0:0:0:0:
326,360,83680,1,8,0:0:0:0:
420,272,84052,2,0,L|435:192,1,70,8|8,0:0|0:0,0:0:0:0:
344,112,84611,6,4,B|280:88|280:88|228:87|200:123,1,140,4|8,0:0|0:0,0:0:0:0:
155,171,85170,1,8,0:0:0:0:
155,171,85543,2,0,L|168:239,1,70,4|8,0:0|0:0,0:0:0:0:
260,340,86102,6,0,P|314:291|299:209,1,140,4|0,0:0|0:0,0:0:0:0:
171,254,86661,2,0,L|241:263,1,70,8|0,0:0|0:0,0:0:0:0:
132,344,87034,1,0,0:0:0:0:
76,212,87220,2,0,P|64:256|72:292,1,70,8|0,0:0|0:0,0:0:0:0:
40,104,87593,6,8,L|128:108,1,70,12|0,0:0|2:0,0:0:0:0:
212,132,87965,1,0,2:0:0:0:
356,62,88152,2,0,L|343:131,2,70
370,269,88711,6,0,L|344:132,1,140,8|4,0:0|0:0,0:0:0:0:
264,64,89270,2,0,L|250:140,1,70
142,269,89642,6,0,L|168:132,1,140,8|4,0:0|0:0,0:0:0:0:
64,208,90202,2,0,L|76:139,1,70
140,36,90574,5,4,0:0:0:0:
140,36,90947,1,4,0:0:0:0:
84,116,91133,2,0,L|92:196,1,70,8|0,0:0|0:0,0:0:0:0:
196,116,91506,1,4,0:0:0:0:
196,116,91692,2,0,L|188:196,1,70,12|0,0:0|0:0,0:0:0:0:
152,280,92065,6,0,B|203:316|203:316|296:296|360:352,1,210.000008010865,8|0,0:0|0:0,0:0:0:0:
440,240,92624,2,0,B|389:204|389:204|297:224|248:181,1,210.000008010865,8|8,0:0|0:0,0:0:0:0:
164,72,93183,1,8,0:0:0:0:
96,192,93369,1,8,0:0:0:0:
164,310,93556,2,0,P|227:231|208:116,1,210.000008010865
36,84,94115,2,0,P|116:148|216:129,1,210.000008010865,8|0,0:0|0:0,0:0:0:0:
280,60,94674,6,0,P|336:-1|400:40,1,136.499993751526,10|0,0:0|0:0,3:0:0:0:
420,40,95046,1,8,3:0:0:0:
428,176,95233,1,8,0:0:0:0:
428,176,95326,1,8,0:0:0:0:
428,176,95419,1,8,0:0:0:0:
428,176,95512,1,8,0:0:0:0:
428,176,95605,6,0,B|400:252|460:252|428:332,1,157.500006008148,4|0,0:0|0:0,0:0:0:0:
248,336,96351,5,0,0:0:0:0:
260,220,96537,2,0,P|244:170|210:131,1,105.000004005432,4|0,0:0|0:0,0:0:0:0:
68,88,96910,2,0,P|83:137|117:176,1,105.000004005432,8|0,0:0|0:0,0:0:0:0:
160,40,97282,5,4,0:0:0:0:
68,88,97469,1,0,0:0:0:0:
44,192,97655,1,8,0:0:0:0:
88,288,97841,1,0,0:0:0:0:
156,204,98028,5,4,0:0:0:0:
196,336,98214,2,0,B|316:332,1,105.000004005432,0|8,0:0|0:0,0:0:0:0:
428,256,98587,2,0,B|432:184|432:184|380:128|400:20,1,210.000008010865,4|0,0:0|0:0,0:0:0:0:
280,32,99146,2,0,B|228:52|228:52|179:45,1,105.000004005432,8|0,0:0|0:0,0:0:0:0:
68,72,99518,5,0,0:0:0:0:
56,176,99705,1,0,0:0:0:0:
84,276,99891,2,0,B|148:256|148:256|185:257,1,105.000004005432,8|4,0:0|0:0,0:0:0:0:
256,164,100264,2,0,B|241:98|241:98|246:60,1,105.000004005432,0|4,0:0|0:0,0:0:0:0:
327,257,100636,1,8,0:0:0:0:
256,344,100823,1,0,0:0:0:0:
185,257,101009,6,8,B|172:204|172:204|139:165,1,105.000004005432,4|4,0:0|0:0,0:0:0:0:
76,264,101382,1,8,0:0:0:0:
132,340,101568,2,2,P|184:346|236:343,1,105.000004005432,4|0,0:0|0:0,0:0:0:0:
336,304,101941,1,0,0:0:0:0:
192,236,102127,2,2,P|139:238|87:232,1,105.000004005432,8|0,0:0|0:0,0:0:0:0:
87,232,102406,1,8,0:0:0:0:
87,232,102500,6,0,B|111:188|111:188|95:104,1,105.000004005432,4|0,0:0|0:0,0:0:0:0:
32,320,102872,1,0,0:0:0:0:
132,340,103059,1,0,0:0:0:0:
236,320,103245,1,4,0:0:0:0:
288,228,103431,1,0,0:0:0:0:
340,344,103618,2,0,L|448:340,1,105.000004005432,8|0,0:0|0:0,0:0:0:0:
480,208,103990,5,0,0:0:0:0:
472,104,104176,1,0,0:0:0:0:
372,136,104363,1,8,0:0:0:0:
316,48,104549,2,0,B|272:42|238:62|238:62|192:122|112:114,1,210.000008010865,0|4,0:0|0:0,0:0:0:0:
292,130,105108,1,8,0:0:0:0:
167,71,105295,1,0,0:0:0:0:
51,145,105481,6,0,B|56:196|56:196|40:248,1,105.000004005432,4|0,0:0|0:0,0:0:0:0:
72,360,105854,2,0,B|110:321|110:321|129:274,1,105.000004005432,8|0,0:0|0:0,0:0:0:0:
212,340,106226,1,0,0:0:0:0:
312,312,106413,1,0,0:0:0:0:
258,176,106599,2,0,L|151:180,1,105.000004005432,8|0,0:0|0:0,0:0:0:0:
24,28,106972,6,8,B|233:20,1,210.000008010865,10|0,0:0|0:0,0:0:0:0:
74,105,107531,6,0,L|248:98,1,175,10|0,0:0|0:0,0:0:0:0:
364,80,108090,2,0,L|424:92,4,43.75,10|0|0|0|4,0:0|0:0|0:0|0:0|0:0,0:0:0:0:
48,136,108835,5,0,0:0:0:0:
48,136,109021,2,0,B|68:144|80:164|80:164|132:144|132:144|160:152|192:152|192:152|152:188|160:224,1,210,4|8,0:0|0:0,0:0:0:0:
196,300,109767,2,0,L|236:312,2,35,0|0|4,0:0|0:0|0:0,0:0:0:0:
392,176,110326,5,8,0:0:0:0:
392,176,110512,2,0,B|344:176|308:232|308:232|284:180|227:172,1,210,4|8,0:0|0:0,0:0:0:0:
220,265,111257,1,0,0:0:0:0:
220,265,111444,1,0,0:0:0:0:
288,88,111816,5,8,0:0:0:0:
200,116,112003,2,0,B|128:120|128:120|92:62,1,140
36,152,112562,2,0,B|44:200|44:200|40:221,1,70,8|0,0:0|0:0,0:0:0:0:
108,300,112934,6,0,B|156:292|156:292|177:296,1,70,4|0,0:0|0:0,0:0:0:0:
260,360,113307,1,8,0:0:0:0:
348,300,113493,2,0,P|324:220|344:152,1,140
372,68,114052,1,8,0:0:0:0:
372,68,114146,1,8,0:0:0:0:
372,68,114239,1,8,0:0:0:0:
372,68,114332,1,0,0:0:0:0:
372,68,114425,5,4,0:0:0:0:
272,36,114611,1,0,0:0:0:0:
312,200,114798,1,8,0:0:0:0:
224,144,114984,6,0,B|181:152|181:152|89:123,1,140
224,228,115543,1,8,0:0:0:0:
300,300,115729,1,0,0:0:0:0:
296,320,115823,1,0,0:0:0:0:
292,340,115916,5,4,0:0:0:0:
176,308,116102,1,0,0:0:0:0:
200,132,116288,1,8,0:0:0:0:
112,88,116475,2,0,L|120:240,1,140
32,32,117034,1,8,0:0:0:0:
112,88,117220,1,4,0:0:0:0:
32,32,117406,6,0,B|24:108|24:108|27:171,1,140,4|8,0:0|0:0,0:0:0:0:
116,227,117965,2,0,B|120:164|120:164|112:88,1,140,4|0,0:0|0:0,0:0:0:0:
232,40,118524,1,8,0:0:0:0:
212,136,118711,1,0,0:0:0:0:
328,72,118897,1,8,0:0:0:0:
424,96,119084,1,0,0:0:0:0:
424,96,119456,5,8,0:0:0:0:
400,192,119642,1,0,0:0:0:0:
432,284,119829,1,4,0:0:0:0:
324,256,120015,1,8,0:0:0:0:
324,256,120108,1,8,0:0:0:0:
324,256,120202,1,8,0:0:0:0:
236,304,120388,5,10,0:0:0:0:
280,180,120574,1,4,0:0:0:0:
192,220,120761,1,2,0:0:0:0:
228,104,120947,1,0,0:0:0:0:
136,152,121133,1,2,0:0:0:0:
168,40,121320,1,0,0:0:0:0:
76,88,121506,6,0,L|0:84,1,70,2|0,0:0|0:0,0:0:0:0:
113,218,121879,2,0,L|135:152,1,70,2|0,0:0|0:0,0:0:0:0:
332,56,122251,2,0,L|244:72,1,70,2|0,0:0|0:0,0:0:0:0:
364,196,122624,2,0,L|382:129,1,70,2|0,0:0|0:0,0:0:0:0:
432,260,122997,5,10,0:0:0:0:
370,335,123183,2,0,B|312:320|248:336|248:336|156:320|156:320|84:344|84:344|80:284|44:252|44:252|24:264|16:280,1,420,0|4,0:0|0:0,0:0:0:0:
116,148,124487,5,12,0:0:0:0:
204,212,124674,1,0,0:0:0:0:
204,212,124860,2,0,L|296:208,2,70,8|0|4,0:0|0:0|0:0,0:0:0:0:
116,272,125419,2,0,L|24:268,2,70,8|0|4,0:0|0:0|0:0,0:0:0:0:
204,328,125978,1,8,0:0:0:0:
304,300,126164,1,0,0:0:0:0:
424,344,126351,6,0,B|400:320|400:320|412:204,1,140,8|0,0:0|0:0,0:0:0:0:
472,68,126910,1,0,0:0:0:0:
368,56,127096,1,8,0:0:0:0:
340,64,127189,1,8,0:0:0:0:
312,68,127282,1,8,0:0:0:0:
284,64,127375,1,8,0:0:0:0:
259,50,127469,2,8,L|203:54,3,35
208,76,127841,6,0,L|188:164,1,70,10|0,0:0|0:0,0:0:0:0:
64,296,128214,2,0,L|152:268,1,70,8|0,0:0|0:0,0:0:0:0:
220,216,128587,1,4,0:0:0:0:
276,292,128773,1,0,0:0:0:0:
296,144,128959,1,8,0:0:0:0:
296,144,129146,1,0,0:0:0:0:
380,192,129332,6,0,L|352:268,1,70,6|0,0:0|0:0,0:0:0:0:
125,328,129705,2,0,L|205:332,1,70,8|0,0:0|0:0,0:0:0:0:
308,336,130077,1,0,0:0:0:0:
252,250,130263,1,0,0:0:0:0:
224,152,130449,1,8,0:0:0:0:
224,152,130636,1,0,0:0:0:0:
135,234,130823,6,0,L|60:224,1,70,6|0,0:0|0:0,0:0:0:0:
224,152,131195,1,8,0:0:0:0:
212,269,131382,2,0,P|191:297|161:315,1,70,4|0,0:0|0:0,0:0:0:0:
135,234,131754,1,0,0:0:0:0:
248,192,131941,1,8,0:0:0:0:
248,192,132127,1,0,0:0:0:0:
324,240,132313,6,4,L|352:288,4,35,8|8|8|8|4,0:0|0:0|0:0|0:0|0:0,0:0:0:0:
324,144,132872,2,4,L|352:96,4,35,8|8|8|8|4,0:0|0:0|0:0|0:0|0:0,0:0:0:0:
248,192,133431,2,4,L|194:206,3,35
248,192,133804,6,0,L|220:108,1,70,4|0,2:0|0:0,0:0:0:0:
136,304,134177,2,0,P|171:310|206:313,1,70,8|0,0:0|0:0,0:0:0:0:
206,313,134456,1,8,0:0:0:0:
206,313,134549,2,0,L|178:229,1,70,4|0,0:0|0:0,0:0:0:0:
224,104,134922,1,8,0:0:0:0:
136,144,135108,1,0,0:0:0:0:
304,164,135295,6,0,L|292:244,1,70,4|0,0:0|0:0,0:0:0:0:
384,204,135667,1,8,0:0:0:0:
264,56,135854,2,4,L|215:129,1,70,8|4,0:0|0:0,0:0:0:0:
168,184,136226,1,0,0:0:0:0:
136,64,136413,1,8,0:0:0:0:
72,136,136599,1,0,0:0:0:0:
96,232,136785,5,0,0:0:0:0:
96,232,136972,1,0,0:0:0:0:
256,192,137158,2,0,L|340:184,1,70,8|0,0:0|0:0,0:0:0:0:
326,185,137438,1,8,0:0:0:0:
326,185,137531,2,0,P|332:228|328:280,1,70,12|4,0:0|0:0,0:0:0:0:
186,140,137903,2,0,P|180:97|184:45,1,70,8|4,0:0|0:0,0:0:0:0:
116,208,138276,5,6,0:0:0:0:
88,120,138462,1,4,0:0:0:0:
28,188,138649,2,4,L|16:272,1,70,4|10,0:0|0:0,0:0:0:0:
18,257,139208,1,0,0:0:0:0:
60,336,139394,2,4,L|144:332,1,70,2|0,0:0|0:0,0:0:0:0:
256,236,139767,5,2,0:0:0:0:
208,160,139953,1,0,0:0:0:0:
244,76,140139,2,4,P|276:87|311:88,1,70,4|10,0:0|0:0,0:0:0:0:
311,88,140698,1,0,0:0:0:0:
392,132,140885,2,8,B|384:168|384:168|384:208,1,70,2|0,0:0|0:0,0:0:0:0:
304,328,141257,6,0,L|212:324,1,70,10|0,0:0|0:0,0:0:0:0:
168,256,141630,1,0,0:0:0:0:
340,236,141816,2,0,L|248:232,1,70,10|0,0:0|0:0,0:0:0:0:
40,176,142189,1,8,0:0:0:0:
40,176,142375,1,8,0:0:0:0:
304,152,142562,1,14,0:0:0:0:
