osu file format v14

[General]
AudioFilename: audio.mp3
AudioLeadIn: 0
PreviewTime: 53082
Countdown: 0
SampleSet: None
StackLeniency: 0.5
Mode: 0
LetterboxInBreaks: 0
WidescreenStoryboard: 1

[Editor]
Bookmarks: 41088
DistanceSpacing: 0.3
BeatDivisor: 8
GridSize: 32
TimelineZoom: 2.300006

[Metadata]
Title:LIFE (TV Size)
TitleUnicode:LIFE (TV Size)
Artist:YUI
ArtistUnicode:YUI
Creator:-Mikan
Version:Six Princess Shielding Flowers
Source:BLEACH
Tags:synderes frostwich djulus kowari nekroman4ik schoolboy komore japanese anime ed ending 4 jpop pop
BeatmapID:2769279
BeatmapSetID:1175059

[Difficulty]
HPDrainRate:5
CircleSize:4.2
OverallDifficulty:9
ApproachRate:9.2
SliderMultiplier:1.6
SliderTickRate:1

[Events]
//Background and Video events
0,0,"73719952_p0_master1200.jpg",0,0
Video,182,"orihimetitties.mp4"
//Break Periods
//Storyboard Layer 0 (Background)
//Storyboard Layer 1 (Fail)
//Storyboard Layer 2 (Pass)
//Storyboard Layer 3 (Foreground)
//Storyboard Layer 4 (Overlay)
//Storyboard Sound Samples

[TimingPoints]
-651,521.739130434783,4,2,1,50,1,0
1175,-133.333333333333,4,2,1,50,0,0
7696,-111.111111111111,4,2,1,50,0,0
8740,-50,4,2,1,50,0,0
9522,-100,4,2,1,50,0,0
9768,521.739130434783,4,2,1,70,1,0
9768,-40,4,2,1,70,0,1
10289,-50,4,2,1,70,0,1
11333,-40,4,2,1,70,0,1
11854,-50,4,2,1,70,0,1
16044,521.739130434783,4,2,1,60,1,0
16044,-58.8235294117647,4,2,1,60,0,0
17349,-125,4,2,1,60,0,0
17609,-41.6666666666667,4,2,1,60,0,0
18131,-58.8235294117647,4,2,1,60,0,0
19044,-50,4,2,1,60,0,0
19435,-100,4,2,1,60,0,0
20218,-58.8235294117647,4,2,1,60,0,0
21522,-100,4,2,1,60,0,0
21783,-50,4,2,1,60,0,0
22305,-58.8235294117647,4,2,1,60,0,0
22826,-66.6666666666667,4,2,1,60,0,0
23349,-40,4,2,1,60,0,0
24131,-222.222222222221,4,2,1,60,0,0
24392,-66.6666666666667,4,2,1,50,0,0
25696,-100,4,2,1,50,0,0
25957,-66.6666666666667,4,2,1,50,0,0
29870,-100,4,2,1,50,0,0
30131,-66.6666666666667,4,2,1,50,0,0
30653,-50,4,2,1,50,0,0
31696,-66.6666666666667,4,2,1,50,0,0
31957,-100,4,2,1,50,0,0
32740,-66.6666666666667,4,2,1,50,0,0
35088,-100,4,2,1,50,0,0
35349,-50,4,2,1,50,0,0
35870,-66.6666666666667,4,2,1,50,0,0
38218,-100,4,2,1,50,0,0
38479,-66.6666666666667,4,2,1,50,0,0
39000,517.241379310345,4,2,1,50,1,0
39000,-58.8235294117647,4,2,1,50,0,0
41087,521.739130434783,4,2,1,65,1,0
41088,-76.9230769230769,4,2,1,65,0,0
42115,521.739130434783,4,2,1,65,1,0
42115,-76.9230769230769,4,2,1,65,0,0
47347,521.739130434783,4,2,1,65,1,0
47347,-76.9230769230769,4,2,1,65,0,0
47868,-133.333333333333,4,2,1,65,0,0
48129,-50,4,2,1,65,0,0
48651,-66.6666666666667,4,2,1,65,0,0
49433,-50,4,2,1,65,0,0
51522,512.820512820513,4,2,1,65,1,0
51522,-66.6666666666667,4,2,1,65,0,0
51714,-40,4,2,1,65,0,0
52547,535.714285714286,4,2,1,65,1,0
52547,-100,4,2,1,65,0,0
52814,-28.5714285714286,4,2,1,65,0,0
53216,526.315789473684,4,2,1,65,1,0
53609,521.739130434783,4,2,1,70,1,1
53609,-33.3333333333333,4,2,1,70,0,1
55695,-40,4,2,1,70,0,1
57000,-100,4,2,1,70,0,1
57782,-33.3333333333333,4,2,1,70,0,1
58565,-50,4,2,1,70,0,1
59087,-40,4,2,1,70,0,1
59869,-33.3333333333333,4,2,1,70,0,1
60391,-40,4,2,1,70,0,1
60913,-40,4,2,1,70,0,1
62217,-50,4,2,1,70,0,1
62478,-40,4,2,1,70,0,1
63000,-50,4,2,1,70,0,1
63261,-33.3333333333333,4,2,1,70,0,1
63522,-40,4,2,1,70,0,1
63782,-100,4,2,1,70,0,1
64043,-50,4,2,1,70,0,1
64565,-40,4,2,1,70,0,1
65087,-33.3333333333333,4,2,1,70,0,1
65348,-100,4,2,1,70,0,1
66130,-50,4,2,1,70,0,1
67043,-33.3333333333333,4,2,1,70,0,1
67425,521.739130434783,4,2,1,70,1,1
67425,-40,4,2,1,70,0,1
67685,-133.333333333333,4,2,1,70,0,1
67946,-40,4,2,1,70,0,1
68217,521.739130434783,4,2,1,70,1,1
68217,-28.5714285714286,4,2,1,70,0,1
68737,-33.3333333333333,4,2,1,70,0,1
68999,-30.3030303030303,4,2,1,70,0,1
69259,-40,4,2,1,70,0,1
70043,-100,4,2,1,70,0,0
70238,-66.6666666666667,4,2,1,5,0,0
70303,-40,4,2,1,70,0,1
73433,-50,4,2,1,70,0,1
73693,-100,4,2,1,70,0,1
74476,-40,4,2,1,70,0,1
75520,-50,4,2,1,70,0,1
75780,-100,4,2,1,70,0,1
76041,-33.3333333333333,4,2,1,70,0,1
76564,-33.3333333333333,4,2,1,70,0,1
76825,-43.4782608695652,4,2,1,70,0,1
77086,-40,4,2,1,70,0,1
77869,-50,4,2,1,70,0,1
78389,-100,4,2,1,70,0,1
78650,-40,4,2,1,70,0,1
82041,-100,4,2,1,70,0,1
82825,-50,4,2,1,50,0,0

[Colours]
Combo1 : 191,255,255
Combo2 : 255,168,125

[HitObjects]
255,191,1175,5,2,0:0:0:0:
214,116,1435,2,0,P|196:92|197:53,1,60.0000022888184,2|2,0:0|0:0,0:0:0:0:
345,191,1957,2,0,P|374:193|401:181,1,60.0000022888184,2|2,0:0|0:0,0:0:0:0:
203,262,2479,2,0,P|179:277|168:305,2,60.0000022888184,2|2|2,0:0|0:0|0:0,0:0:0:0:
299,384,3262,6,0,L|289:346,1,30.0000011444092,2|0,0:0|0:0,0:0:0:0:
341,297,3522,2,0,P|405:292|461:327,1,120.000004577637,2|0,0:0|0:0,0:0:0:0:
255,191,4305,2,0,L|137:217,1,120.000004577637,2|2,0:0|0:0,0:0:0:0:
137,216,5349,5,2,0:0:0:0:
364,44,5609,2,0,L|354:107,1,60.0000022888184,2|0,0:0|0:0,0:0:0:0:
405,164,6131,1,0,0:0:0:0:
481,146,6392,5,2,0:0:0:0:
330,242,6653,1,2,0:0:0:0:
512,359,6914,2,0,P|448:354|392:389,1,120.000004577637,2|2,0:0|0:0,0:0:0:0:
167,305,7696,6,0,P|132:304|103:283,1,71.9999978027344,2|0,0:0|0:0,0:0:0:0:
108,207,8218,1,2,0:0:0:0:
4,331,8479,2,0,L|-25:339,3,17.9999994506836,8|8|8|8,0:0|0:0|0:0|0:0,0:0:0:0:
62,384,8740,6,0,L|32:212,1,160,8|2,0:0|0:0,0:0:0:0:
195,65,9131,1,8,0:0:0:0:
161,150,9262,1,8,0:0:0:0:
200,50,9392,5,10,0:0:0:0:
294,163,9522,2,0,P|326:174|355:169,1,60,8|0,0:3|0:0,0:0:0:0:
430,199,9768,6,0,B|368:184|323:224|356:247|303:296|238:262,1,200,6|0,1:2|0:0,0:0:0:0:
159,362,10159,1,0,0:0:0:0:
57,263,10289,2,0,P|71:332|73:352,1,80,8|0,0:0|0:0,0:0:0:0:
294,163,10550,5,2,0:0:0:0:
222,110,10680,2,0,P|181:139|140:137,1,80,8|0,0:0|0:0,0:0:0:0:
281,343,10941,5,2,0:0:0:0:
339,281,11072,2,0,P|399:277|447:311,1,120,2|0,1:2|0:0,0:0:0:0:
483,375,11333,6,0,B|495:275|495:275|500:269|500:269|514:163,1,200,8|2,0:0|0:0,0:0:0:0:
512,179,11724,1,2,0:0:0:0:
357,28,11854,6,0,P|330:66|344:116,1,80,2|0,1:2|0:0,0:0:0:0:
410,126,12115,2,0,P|434:95|434:56,1,80,2|0,0:0|0:0,0:0:0:0:
222,110,12376,6,0,B|177:95|136:131|136:131|123:171|85:183,1,160,8|2,0:0|0:0,0:0:0:0:
36,106,12767,1,8,0:0:0:0:
195,217,12898,2,0,L|281:232,1,80,2|2,0:0|0:0,0:0:0:0:
108,363,13159,2,0,P|60:374|-12:321,1,120,0|0,1:0|0:0,0:0:0:0:
0,331,13419,5,10,0:0:0:0:
101,259,13550,2,0,L|93:180,1,80,0|2,1:2|0:0,0:0:0:0:
274,371,13811,5,8,0:0:0:0:
195,217,13941,2,0,L|169:374,1,160,2|2,1:2|0:0,0:0:0:0:
348,212,14333,5,0,1:0:0:0:
296,275,14463,2,0,P|263:296|224:298,1,80,8|0,0:0|0:0,0:0:0:0:
387,123,14724,5,2,1:2:0:0:
387,123,14854,1,2,1:2:0:0:
456,161,14985,6,0,P|491:178|512:212,1,80,8|0,0:0|0:0,0:0:0:0:
277,81,15246,2,0,P|274:41|293:6,1,80,10|0,0:0|0:0,0:0:0:0:
387,123,15506,5,10,0:0:0:0:
296,275,15637,1,10,0:0:0:0:
367,111,15767,5,10,0:0:0:0:
454,362,15898,1,10,0:0:0:0:
502,294,16044,6,0,P|430:282|371:346,1,136.000002593994,6|0,1:2|1:2,0:0:0:0:
307,340,16435,1,2,0:0:0:0:
264,276,16566,2,0,P|242:230|251:200,1,68.0000012969971,8|0,0:0|0:0,0:0:0:0:
171,181,16827,5,2,0:0:0:0:
67,335,16957,2,0,P|60:269|95:212,1,136.000002593994,8|0,0:0|0:0,0:0:0:0:
0,69,17349,2,0,L|12:120,1,48,2|0,1:2|0:0,0:0:0:0:
0,133,17609,6,0,B|57:105|100:151|81:160|124:205|187:176,1,191.999994140625,10|2,0:0|0:0,0:0:0:0:
184,175,18001,1,0,0:0:0:0:
277,81,18131,5,2,1:2:0:0:
213,34,18262,2,0,P|169:46|143:77,1,68.0000012969971,2|0,0:0|1:2,0:0:0:0:
396,127,18522,1,2,0:0:0:0:
280,161,18653,2,0,P|306:181|339:187,1,68.0000012969971,8|0,0:0|0:0,0:0:0:0:
512,99,18914,5,2,0:0:0:0:
457,20,19044,2,0,L|478:178,1,160,8|2,0:0|0:0,0:0:0:0:
334,377,19435,6,0,P|318:351|322:317,1,60,2|0,1:2|0:0,0:0:0:0:
332,308,19696,1,8,0:0:0:0:
412,264,19827,1,2,0:0:0:0:
479,327,19957,1,2,1:2:0:0:
473,336,20088,1,0,0:0:0:0:
267,242,20218,6,0,B|190:265|190:265|182:301|143:316,1,136.000002593994,2|2,1:2|1:2,0:0:0:0:
91,351,20609,1,2,0:0:0:0:
33,298,20740,2,0,L|49:221,1,68.0000012969971,8|0,0:0|0:0,0:0:0:0:
176,87,21001,5,2,0:0:0:0:
136,157,21131,2,0,L|113:14,1,136.000002593994,8|0,0:0|0:0,0:0:0:0:
279,183,21522,2,0,L|265:250,1,60,2|0,1:2|0:0,0:0:0:0:
319,322,21783,6,0,P|371:274|473:313,1,160,10|2,0:0|0:0,0:0:0:0:
461,303,22175,1,8,0:0:0:0:
354,150,22305,5,2,1:2:0:0:
279,183,22435,2,0,P|231:177|208:157,1,68.0000012969971,2|0,0:0|1:2,0:0:0:0:
20,324,22696,5,2,0:0:0:0:
95,291,22826,2,0,P|143:297|166:317,1,60.0000022888184,8|0,0:0|0:0,0:0:0:0:
252,384,23088,5,10,0:0:0:0:
252,384,23153,1,8,0:0:0:0:
252,384,23218,2,0,L|244:341,1,30.0000011444092,8|8,0:0|0:0,0:0:0:0:
411,238,23349,6,0,P|347:271|294:242,1,100,8|2,0:0|0:0,0:0:0:0:
264,56,23609,2,0,P|328:23|381:52,1,100,8|0,0:0|0:0,0:0:0:0:
216,166,23870,5,10,0:0:0:0:
122,149,24001,1,8,0:0:0:0:
26,130,24131,2,0,L|32:163,1,26.9999991760254,8|0,0:3|0:0,0:0:0:0:
59,235,24392,6,0,B|163:227|102:145|234:147,1,180.000006866455,6|0,1:2|0:0,0:0:0:0:
288,201,24914,2,0,P|318:167|319:143,1,60.0000022888184,10|0,0:0|0:0,0:0:0:0:
207,252,25175,1,2,0:0:0:0:
207,252,25305,1,8,0:0:0:0:
207,252,25435,2,0,L|221:328,1,60.0000022888184,2|0,0:0|0:0,0:0:0:0:
341,384,25696,6,0,P|349:341|356:319,1,60,2|0,1:2|0:0,0:0:0:0:
393,254,25957,2,0,P|350:293|294:283,1,120.000004577637,8|2,0:0|1:2,0:0:0:0:
445,174,26349,5,0,1:2:0:0:
454,165,26479,2,0,P|499:168|533:193,1,60.0000022888184,2|0,1:2|0:0,0:0:0:0:
321,65,26740,2,0,P|276:62|242:37,1,60.0000022888184,2|0,1:2|0:0,0:0:0:0:
365,0,27001,6,0,L|386:142,1,120.000004577637,10|2,0:0|0:0,0:0:0:0:
333,201,27392,1,8,0:0:0:0:
323,202,27522,2,0,B|301:175|301:175|310:146,1,60.0000022888184,2|0,0:0|0:0,0:0:0:0:
447,30,27783,2,0,B|466:56|466:56|456:84,1,60.0000022888184,2|0,1:2|0:0,0:0:0:0:
263,55,28044,5,10,0:0:0:0:
195,17,28175,1,0,1:0:0:0:
121,42,28305,1,2,1:2:0:0:
106,70,28435,1,0,1:0:0:0:
112,100,28566,2,0,B|68:92|68:92|32:108|32:108|-24:100,1,120.000004577637,2|0,1:2|1:2,0:0:0:0:
158,214,28957,5,0,0:0:0:0:
89,240,29088,2,0,B|79:206|79:206|103:166,1,60.0000022888184,8|0,0:0|0:0,0:0:0:0:
107,330,29349,1,2,0:0:0:0:
119,341,29479,1,8,0:0:0:0:
116,353,29609,2,0,B|91:378|91:378|44:377,1,60.0000022888184,2|0,0:0|0:0,0:0:0:0:
201,274,29870,2,0,B|235:282|235:282|258:323,1,60.0000022888184,2|0,1:2|0:0,0:0:0:0:
256,325,30131,6,0,B|331:324|296:277|391:276,1,120.000004577637,10|2,0:0|1:2,0:0:0:0:
424,334,30522,1,0,1:0:0:0:
498,296,30653,2,0,B|482:222|482:222|473:211|473:211|457:127,2,160,2|2|10,1:2|1:2|0:0,0:0:0:0:
345,18,31435,5,2,0:0:0:0:
317,7,31566,1,10,0:0:0:0:
291,20,31696,2,0,L|281:97,1,60.0000022888184,2|0,0:0|0:0,0:0:0:0:
158,214,31957,2,0,P|148:181|160:150,1,60,2|0,1:2|0:0,0:0:0:0:
154,157,32218,5,8,0:0:0:0:
236,142,32349,1,8,0:0:0:0:
293,196,32479,1,2,1:2:0:0:
325,221,32609,1,0,1:0:0:0:
361,210,32740,2,0,B|436:210|399:168|487:168,1,120.000004577637,2|0,1:2|1:2,0:0:0:0:
318,340,33131,5,0,0:0:0:0:
309,347,33262,2,0,P|255:333|231:333,1,60.0000022888184,8|0,0:0|0:0,0:0:0:0:
197,283,33522,2,0,L|127:300,1,60.0000022888184,2|8,0:0|0:0,0:0:0:0:
39,365,33783,6,0,B|39:344|53:323|53:323|33:271|-17:291,1,120.000004577637,2|2,0:0|1:2,0:0:0:0:
3,297,34175,1,0,0:0:0:0:
128,290,34305,6,0,P|184:267|197:195,1,120.000004577637,8|2,0:0|1:2,0:0:0:0:
110,140,34696,1,0,1:0:0:0:
101,147,34827,2,0,P|66:140|34:138,1,60.0000022888184,2|0,1:2|0:0,0:0:0:0:
207,55,35088,2,0,L|281:43,1,60,2|0,1:2|0:0,0:0:0:0:
332,0,35349,6,0,B|311:83|311:83|340:122|382:98,1,160,8|2,0:0|0:0,0:0:0:0:
511,231,35740,1,10,0:0:0:0:
503,217,35870,2,0,P|463:204|426:222,1,60.0000022888184,2|0,0:0|0:0,0:0:0:0:
353,190,36131,2,0,P|312:222|305:274,1,90.0000034332277,2|0,1:2|0:0,0:0:0:0:
302,257,36392,5,8,0:0:0:0:
269,334,36522,1,8,0:0:0:0:
189,349,36653,1,2,1:2:0:0:
150,335,36783,1,4,0:3:0:0:
131,297,36914,2,0,L|-6:322,1,120.000004577637,2|2,1:2|1:2,0:0:0:0:
108,148,37305,5,0,0:0:0:0:
110,162,37435,2,0,P|156:202|222:192,1,120.000004577637,8|2,0:0|0:0,0:0:0:0:
269,141,37827,1,8,0:0:0:0:
213,54,37957,2,0,B|190:83|190:83|204:121,1,60.0000022888184,2|0,0:0|0:0,0:0:0:0:
337,240,38218,2,0,B|360:211|360:211|346:173,1,60.0000022888184,2|0,1:2|0:0,0:0:0:0:
345,178,38479,6,0,L|469:188,1,120.000004577637,8|8,0:0|0:0,0:0:0:0:
464,188,38805,1,8,0:0:0:0:
464,188,38870,1,8,0:0:0:0:
286,377,39000,6,0,P|248:333|261:253,1,136.000002593994,2|2,1:2|1:2,0:0:0:0:
269,251,39387,1,0,1:0:0:0:
108,148,39517,5,8,0:0:0:0:
141,279,39646,1,8,0:0:0:0:
105,134,39775,2,0,L|92:87,3,34.0000006484985,2|2|2|2,0:0|0:0|1:2|0:0,0:0:0:0:
62,217,40034,6,0,P|12:241|-24:231,1,68.0000012969971,8|0,0:0|0:0,0:0:0:0:
197,104,40293,2,0,P|230:107|257:127,1,68.0000012969971,8|0,0:0|0:0,0:0:0:0:
47,29,40551,5,8,0:0:0:0:
161,204,40681,1,8,0:0:0:0:
343,88,40810,1,10,0:0:0:0:
351,47,40939,1,2,0:0:0:0:
318,15,41087,5,6,1:2:0:0:
435,128,41347,1,2,0:0:0:0:
470,149,41479,1,2,0:0:0:0:
510,142,41608,5,10,0:2:0:0:
354,187,41870,1,2,0:0:0:0:
318,207,42000,1,10,0:0:0:0:
304,245,42115,6,0,P|303:277|312:303,1,51.999997619629,2|0,1:2|0:0,0:0:0:0:
426,384,42375,2,0,P|426:350|418:326,1,51.999997619629,2|0,0:0|0:0,0:0:0:0:
468,264,42636,5,10,1:2:0:0:
259,370,42897,1,2,0:0:0:0:
217,384,43028,1,0,1:0:0:0:
185,358,43158,2,0,P|138:333|76:359,1,103.999995239258,2|2,1:2|0:0,0:0:0:0:
9,288,43549,1,0,0:0:0:0:
17,280,43680,2,0,P|10:245|-2:215,1,51.999997619629,8|0,0:0|0:0,0:0:0:0:
105,134,43941,5,2,0:0:0:0:
174,188,44071,1,2,0:0:0:0:
259,164,44201,1,0,1:2:0:0:
158,281,44332,5,8,0:0:0:0:
259,370,44462,2,0,P|267:323|282:284,1,77.9999964294435,2|0,0:0|0:0,0:0:0:0:
277,294,44723,5,8,0:0:0:0:
351,255,44854,1,0,0:0:0:0:
423,296,44984,1,2,0:0:0:0:
452,339,45115,1,2,0:0:0:0:
503,341,45245,5,2,1:2:0:0:
276,208,45506,1,2,0:0:0:0:
224,211,45636,1,2,0:0:0:0:
197,254,45767,5,10,0:2:0:0:
425,124,46028,1,2,0:0:0:0:
449,78,46158,1,2,0:0:0:0:
425,33,46288,5,2,1:2:0:0:
349,83,46419,2,0,P|303:104|243:73,1,103.999995239258,8|0,0:0|0:0,0:0:0:0:
407,206,46810,2,0,L|534:228,1,103.999995239258,10|2,1:2|1:2,0:0:0:0:
510,224,47201,1,0,1:0:0:0:
330,365,47347,6,0,P|308:310|338:260,1,103.999995239258,2|2,1:2|0:0,0:0:0:0:
276,208,47738,1,0,1:0:0:0:
214,259,47868,2,0,L|162:268,1,45.0000017166138,8|0,0:0|0:0,0:0:0:0:
29,272,48129,6,0,B|98:236|142:306|142:306|156:382|245:359,1,240,6|0,1:2|0:0,0:0:0:0:
410,252,48651,2,0,B|369:259|369:259|366:264|366:264|307:274,1,90.0000034332277,2|0,1:2|0:0,0:0:0:0:
324,271,48912,5,8,0:0:0:0:
459,346,49042,1,8,0:0:0:0:
369,379,49173,1,8,0:3:0:0:
371,370,49238,1,8,0:3:0:0:
373,361,49303,1,4,0:3:0:0:
238,187,49433,6,0,P|210:227|227:278,1,80,6|0,1:2|0:0,0:0:0:0:
349,149,49694,2,0,B|336:92|336:92|332:89|332:89|318:22,1,120,2|0,1:2|0:0,0:0:0:0:
320,33,49955,6,0,B|420:17|386:93|480:78,1,160,8|0,0:0|1:2,0:0:0:0:
512,19,50347,1,0,1:2:0:0:
349,149,50477,6,0,B|309:164|309:164|245:136,1,80,10|0,0:0|0:0,0:0:0:0:
179,4,50738,2,0,L|163:128,1,120,0|0,1:2|0:0,0:0:0:0:
163,123,50999,6,0,P|100:111|44:200,1,160,10|2,0:0|1:2,0:0:0:0:
94,239,51390,1,2,1:2:0:0:
19,354,51522,6,0,P|8:314|-1:288,1,60.0000022888184,2|0,1:2|0:0,0:0:0:0:
187,209,51778,6,0,P|232:202|285:238,1,100,8|0,0:0|0:0,0:0:0:0:
251,379,52034,2,0,P|206:386|153:350,1,100,8|0,0:0|0:0,0:0:0:0:
220,297,52291,5,2,1:2:0:0:
220,297,52355,1,0,1:0:0:0:
220,297,52419,1,0,1:0:0:0:
334,330,52547,6,0,L|400:322,1,60,6|0,1:2|0:0,0:0:0:0:
484,236,52814,6,0,B|343:341|469:477|563:343|533:292|478:259|374:275|404:149,1,420.000004005432,10|8,0:0|0:0,0:0:0:0:
466,79,53347,5,8,0:0:0:0:
466,79,53479,1,8,0:0:0:0:
358,25,53609,6,0,B|287:9|238:72|281:88|219:166|135:109,1,240.000009155274,6|0,1:2|1:2,0:0:0:0:
1,114,54000,1,0,0:0:0:0:
76,192,54130,2,0,B|136:153|115:51|51:51|51:51|86:74|78:125,1,240.000009155274,10|2,0:0|0:0,0:0:0:0:
162,122,54522,5,8,0:0:0:0:
44,270,54652,2,0,P|92:227|175:280,1,120.000004577637,2|0,1:2|0:0,0:0:0:0:
328,97,54913,2,0,P|270:102|228:61,1,120.000004577637,2|0,1:2|0:0,0:0:0:0:
329,384,55174,6,0,P|427:282|527:330,1,240.000009155274,10|8,0:0|0:3,0:0:0:0:
509,326,55565,1,8,0:3:0:0:
399,179,55695,6,0,B|448:131|448:131|390:331,1,200,2|2,1:2|1:2,0:0:0:0:
164,379,56087,5,0,0:0:0:0:
153,384,56217,2,0,P|121:354|146:291,1,100,10|0,0:0|0:0,0:0:0:0:
167,207,56478,5,0,1:0:0:0:
242,265,56609,1,8,0:0:0:0:
328,220,56739,1,0,1:2:0:0:
20,37,57000,6,0,B|4:66|4:66|24:103,1,60,2|0,1:2|0:0,0:0:0:0:
96,65,57261,5,10,0:0:0:0:
11,172,57391,1,4,0:3:0:0:
147,198,57522,1,4,0:3:0:0:
195,201,57652,1,4,0:3:0:0:
216,151,57782,6,0,B|169:128|103:182|136:194|92:283|7:246,2,240.000009155274,2|0|8,1:2|1:2|0:0,0:0:0:0:
450,379,58565,5,2,0:0:0:0:
395,312,58695,1,10,0:0:0:0:
449,246,58826,2,0,B|485:253|485:253|491:258|491:258|546:270,1,80,2|0,1:2|0:0,0:0:0:0:
358,98,59087,2,0,B|335:117|309:130|309:130|324:180|333:260,1,150,2|0,1:2|0:0,0:0:0:0:
328,220,59348,6,0,P|417:218|451:117,1,200,8|2,0:0|1:2,0:0:0:0:
454,127,59739,1,0,1:0:0:0:
240,251,59869,6,0,L|270:385,1,120.000004577637,2|0,1:2|0:0,0:0:0:0:
77,238,60130,2,0,L|111:51,1,180.000006866455,2|0,1:2|0:0,0:0:0:0:
109,60,60391,6,0,B|238:47|167:145|312:122,1,200,8|2,0:0|0:0,0:0:0:0:
497,308,60782,1,8,0:0:0:0:
449,246,60913,2,0,P|373:257|356:294,1,100,2|0,0:0|0:0,0:0:0:0:
383,41,61174,6,0,P|439:87|512:78,1,150,0|0,1:2|0:0,0:0:0:0:
461,8,61435,1,8,0:0:0:0:
287,124,61565,1,8,0:0:0:0:
449,246,61695,1,8,0:3:0:0:
487,248,61826,1,8,0:3:0:0:
507,212,61956,5,6,1:2:0:0:
341,348,62217,2,0,P|305:354|258:373,1,80,2|0,1:2|0:0,0:0:0:0:
20,250,62478,6,0,B|64:296|62:368|62:368|84:304|161:285,1,250,10|0,0:0|0:0,0:0:0:0:
99,227,62869,1,8,0:0:0:0:
175,85,63000,2,0,B|147:56|147:56|99:67,1,80,2|0,1:2|0:0,0:0:0:0:
117,148,63261,6,0,B|226:146|170:62|294:69,1,180.000006866455,2|0,1:2|0:0,0:0:0:0:
325,6,63522,2,0,L|300:219,1,200,8|2,0:0|0:0,0:0:0:0:
382,313,63913,5,0,0:0:0:0:
492,273,64043,2,0,B|509:234|509:234|479:182,1,80,2|0,1:2|0:0,0:0:0:0:
269,68,64304,2,0,B|252:107|252:107|282:159,1,80,2|0,1:2|0:0,0:0:0:0:
512,44,64565,6,0,B|477:26|412:49|461:84|385:133|323:98,1,200,10|2,0:0|0:0,0:0:0:0:
170,10,64956,5,8,0:0:0:0:
54,222,65087,2,0,P|11:169|35:102,1,120.000004577637,2|0,1:2|0:0,0:0:0:0:
233,292,65348,2,0,L|221:364,1,60,2|0,1:2|0:0,0:0:0:0:
294,382,65609,5,10,0:0:0:0:
425,237,65739,1,10,0:0:0:0:
228,184,65869,1,2,1:2:0:0:
269,250,66000,1,4,1:3:0:0:
335,201,66130,6,0,P|330:157|322:115,1,80,2|0,1:2|0:0,0:0:0:0:
496,294,66391,2,0,P|501:338|509:380,1,80,2|0,1:2|0:0,0:0:0:0:
512,175,66652,6,0,P|424:223|386:205,1,120,8|0,0:0|0:0,0:0:0:0:
437,147,66913,1,8,0:0:0:0:
149,334,67043,2,0,P|228:317|297:406,1,180.000006866455,8|0,0:0|0:0,0:0:0:0:
366,360,67304,1,2,0:0:0:0:
199,111,67425,6,0,P|168:145|99:148,1,100,2|0,1:2|0:0,0:0:0:0:
11,117,67685,2,0,L|18:168,1,45.0000017166138,10|0,0:0|0:0,0:0:0:0:
19,178,67946,5,2,0:2:0:0:
0,30,68077,1,2,0:0:0:0:
32,254,68217,6,0,B|150:247|97:348|236:343,1,210.000002002716,2|0,1:2|0:0,0:0:0:0:
274,299,68477,1,0,1:2:0:0:
206,264,68608,5,2,0:0:0:0:
419,118,68738,2,0,B|447:174|447:174|407:227,1,120.000004577637,8|0,0:0|0:0,0:0:0:0:
349,161,68999,5,2,0:2:0:0:
496,294,69129,1,10,0:2:0:0:
336,145,69260,2,0,B|247:144|284:205|177:195,1,150,0|0,1:2|0:0,0:0:0:0:
199,196,69521,2,0,B|173:150|173:150|199:95,1,100,2|0,1:2|0:0,0:0:0:0:
279,288,69781,5,10,0:0:0:0:
344,31,69912,1,8,0:0:0:0:
279,303,70043,2,0,L|262:366,1,60,8|0,0:3|0:0,0:0:0:0:
263,360,70303,6,0,P|317:367|365:379,1,100,6|0,1:2|0:0,0:0:0:0:
117,195,70564,2,0,P|63:188|15:176,1,100,0|0,1:2|0:0,0:0:0:0:
246,30,70825,2,0,L|219:177,1,150,10|0,0:0|0:0,0:0:0:0:
219,177,71086,1,2,0:0:0:0:
128,74,71216,5,8,0:0:0:0:
287,255,71347,2,0,P|317:210|304:163,1,100,2|0,1:2|0:0,0:0:0:0:
110,281,71608,2,0,P|122:329|136:400,1,100,2|0,1:2|0:0,0:0:0:0:
277,244,71869,6,0,B|393:238|356:323|479:309,1,200,10|8,0:0|0:3,0:0:0:0:
458,310,72195,1,0,1:0:0:0:
458,310,72260,1,0,1:0:0:0:
214,133,72390,2,0,L|6:179,2,200,2|2|10,1:2|1:2|0:0,0:0:0:0:
428,0,73173,5,2,0:0:0:0:
374,67,73303,1,8,0:0:0:0:
433,130,73434,2,0,B|472:122|472:122|474:123|474:123|515:115,1,80,2|0,1:2|0:0,0:0:0:0:
380,257,73694,6,0,P|366:224|375:194,1,60,2|0,1:2|0:0,0:0:0:0:
449,219,73955,5,8,0:0:0:0:
364,350,74086,1,4,0:3:0:0:
223,285,74216,1,4,0:3:0:0:
194,257,74347,1,4,0:3:0:0:
157,269,74477,6,0,B|48:268|101:357|-39:353,1,200,2|2,1:2|1:2,0:0:0:0:
198,117,74999,2,0,B|307:116|254:205|394:201,1,200,10|2,0:0|0:0,0:0:0:0:
440,130,75390,5,10,0:0:0:0:
285,322,75521,2,0,B|259:288|259:288|280:253,1,80,2|0,1:2|0:0,0:0:0:0:
477,368,75781,2,0,L|419:379,1,60,2|0,1:2|0:0,0:0:0:0:
418,379,76042,6,0,L|454:126,1,240.000009155274,8|2,0:0|1:2,0:0:0:0:
337,39,76434,5,0,1:0:0:0:
248,101,76564,2,0,B|148:102|205:186|59:178,1,180.000006866455,2|0,1:2|0:0,0:0:0:0:
93,178,76825,6,0,P|53:140|69:85,1,92.0000017547608,2|0,1:2|0:0,0:0:0:0:
231,192,77086,2,0,L|203:391,1,200,10|2,0:0|0:0,0:0:0:0:
125,291,77477,5,8,0:0:0:0:
337,194,77608,1,2,1:2:0:0:
337,194,77869,6,0,P|405:205|439:220,1,80,0|0,1:2|0:0,0:0:0:0:
191,38,78129,5,8,0:0:0:0:
243,179,78260,1,10,0:0:0:0:
186,20,78390,2,0,P|144:39|117:45,1,60,8|0,0:3|0:0,0:0:0:0:
0,67,78651,6,0,B|52:32|109:87|109:87|128:142|186:127,1,200,6|2,1:2|1:2,0:0:0:0:
276,58,79042,1,0,0:0:0:0:
337,194,79173,2,0,P|370:153|340:81,1,100,10|0,0:0|0:0,0:0:0:0:
125,291,79434,5,2,0:0:0:0:
181,238,79564,2,0,P|235:240|270:290,1,100,8|0,0:0|1:2,0:0:0:0:
505,88,79825,5,0,0:0:0:0:
449,141,79955,2,0,P|395:139|360:89,1,100,2|0,1:2|0:0,0:0:0:0:
512,279,80216,6,0,P|436:269|358:397,1,200,8|2,0:0|0:0,0:0:0:0:
356,352,80608,1,2,0:0:0:0:
206,193,80738,6,0,P|136:214|91:218,1,100,2|0,1:2|0:0,0:0:0:0:
153,384,80999,2,0,P|223:363|268:359,1,100,2|0,1:2|0:0,0:0:0:0:
180,288,81260,6,0,B|74:303|108:192|-14:223,1,200,10|2,0:0|0:0,0:0:0:0:
153,91,81651,1,8,0:0:0:0:
54,35,81781,2,0,P|75:105|79:150,1,100,2|0,1:2|0:0,0:0:0:0:
240,217,82042,2,0,P|253:151|257:141,1,60,2|0,1:2|0:0,0:0:0:0:
301,105,82303,5,10,0:0:0:0:
189,301,82434,1,0,1:0:0:0:
353,258,82564,5,8,0:3:0:0:
427,317,82694,1,8,0:3:0:0:
512,279,82825,5,2,1:2:0:0:
256,192,82890,12,2,86738,0:0:0:0:
