osu file format v14

[General]
AudioFilename: audio.mp3
AudioLeadIn: 0
PreviewTime: 53082
Countdown: 0
SampleSet: Soft
StackLeniency: 0.9
Mode: 0
LetterboxInBreaks: 0
WidescreenStoryboard: 1

[Editor]
Bookmarks: 41088
DistanceSpacing: 0.3
BeatDivisor: 8
GridSize: 32
TimelineZoom: 3.200005

[Metadata]
Title:LIFE (TV Size)
TitleUnicode:LIFE (TV Size)
Artist:YUI
ArtistUnicode:YUI
Creator:-Mikan
Version:Kowari's Hard
Source:BLEACH
Tags:synderes frostwich djulus kowari nekroman4ik schoolboy komore japanese anime ed ending 4 jpop pop
BeatmapID:2548155
BeatmapSetID:1175059

[Difficulty]
HPDrainRate:5
CircleSize:4
OverallDifficulty:7
ApproachRate:8
SliderMultiplier:1.6
SliderTickRate:1

[Events]
//Background and Video events
0,0,"73719952_p0_master1200.jpg",0,0
Video,182,"orihimetitties.mp4"
//Break Periods
//Storyboard Layer 0 (Background)
//Storyboard Layer 1 (Fail)
//Storyboard Layer 2 (Pass)
//Storyboard Layer 3 (Foreground)
//Storyboard Layer 4 (Overlay)
//Storyboard Sound Samples

[TimingPoints]
-651,521.739130434783,4,2,1,50,1,0
1175,-125,4,2,1,50,0,0
8740,-100,4,2,1,50,0,0
9768,521.739130434783,4,2,1,70,1,0
9768,-100,4,2,1,70,0,0
16044,521.739130434783,4,2,1,60,1,0
16044,-100,4,2,1,60,0,0
24392,-100,4,2,1,50,0,0
39000,517.241379310345,4,2,1,50,1,0
41087,521.739130434783,4,2,1,65,1,0
41088,-100,4,2,1,65,0,0
42115,521.739130434783,4,2,1,65,1,0
47347,521.739130434783,4,2,1,65,1,0
51522,512.820512820513,4,2,1,65,1,0
52547,535.714285714286,4,2,1,65,1,0
52814,-99.502487562189,4,2,1,65,0,0
53216,526.315789473684,4,2,1,65,1,0
53609,521.739130434783,4,2,1,70,1,1
53609,-83.3333333333333,4,2,1,70,0,1
67043,-81.3008130081301,4,2,1,70,0,1
67425,521.739130434783,4,2,1,70,1,1
67685,-83.3333333333333,4,2,1,70,0,1
68217,521.739130434783,4,2,1,70,1,1
68217,-83.3333333333333,4,2,1,70,0,1
82825,-50,4,2,1,50,0,0

[Colours]
Combo1 : 191,255,255
Combo2 : 255,168,125

[HitObjects]
11,265,1435,6,0,B|94:261|45:306|152:299,1,128,2|2,0:0|0:0,0:0:0:0:
199,248,2218,1,2,0:0:0:0:
499,349,3522,6,0,P|444:339|366:318,1,128,2|0,0:0|0:0,0:0:0:0:
320,264,4305,1,2,0:0:0:0:
315,259,4827,1,2,0:0:0:0:
436,74,5609,6,0,B|435:117|417:100|418:152,2,64,2|0|0,0:0|0:0|0:0,0:0:0:0:
497,18,6392,2,0,P|456:42|386:1,1,128,2|2,0:0|0:0,0:0:0:0:
128,10,7696,6,0,L|138:81,1,64,2|0,0:0|0:0,0:0:0:0:
91,136,8218,1,2,0:0:0:0:
163,210,8479,2,0,L|205:190,2,32,8|8|8,0:0|0:0|0:0,0:0:0:0:
94,287,9001,5,2,0:0:0:0:
86,294,9131,1,8,0:0:0:0:
83,301,9262,2,0,P|88:334|100:350,2,40,8|10|8,0:0|0:0|0:3,0:0:0:0:
20,367,9768,6,0,P|63:319|189:321,1,160,6|8,1:2|0:0,0:0:0:0:
252,206,10550,1,2,0:0:0:0:
245,192,10680,2,0,P|213:159|125:153,1,120,8|2,0:0|1:2,0:0:0:0:
64,210,11333,1,8,0:0:0:0:
134,134,11593,1,2,0:0:0:0:
168,252,11854,6,0,B|266:280|199:302|314:327,1,160,2|8,1:2|0:0,0:0:0:0:
431,380,12637,1,2,0:0:0:0:
430,362,12767,2,0,P|461:288|486:243,1,120,8|0,0:0|1:0,0:0:0:0:
391,100,13420,2,0,L|400:149,3,40,10|0|2|8,0:0|1:2|0:0|0:0,0:0:0:0:
407,179,13941,5,2,1:2:0:0:
299,244,14202,2,0,L|282:296,2,40,2|0|8,0:0|1:0|0:0,0:0:0:0:
218,126,14724,1,2,1:2:0:0:
216,118,14854,1,2,1:2:0:0:
208,114,14985,1,8,0:0:0:0:
133,232,15246,1,10,0:0:0:0:
59,151,15506,5,10,0:0:0:0:
59,170,15637,1,10,0:0:0:0:
39,166,15767,1,10,0:0:0:0:
32,174,15898,1,10,0:0:0:0:
11,185,16044,6,0,B|-19:227|-2:278|-2:278|12:238|52:230,1,160,6|8,1:2|0:0,0:0:0:0:
161,236,16827,1,2,0:0:0:0:
173,242,16957,2,0,P|198:282|174:355,1,120,8|2,0:0|1:2,0:0:0:0:
53,363,17609,2,0,P|63:326|100:295,1,80,10|2,0:0|0:0,0:0:0:0:
264,242,18131,6,0,B|351:265|351:265|318:197,1,160,2|8,1:2|0:0,0:0:0:0:
245,113,18914,1,2,0:0:0:0:
234,116,19044,2,0,L|106:142,1,120,8|2,0:0|1:2,0:0:0:0:
52,39,19696,2,0,L|62:-6,2,40,8|2|2,0:0|0:0|1:2,0:0:0:0:
0,136,20218,6,0,B|57:153|57:153|116:215|69:246,1,160,2|8,1:2|0:0,0:0:0:0:
14,355,21001,1,2,0:0:0:0:
25,349,21131,2,0,L|167:317,1,120,8|2,0:0|1:2,0:0:0:0:
264,271,21783,2,0,L|365:290,1,80,10|2,0:0|0:0,0:0:0:0:
342,285,22175,1,8,0:0:0:0:
342,285,22305,6,0,B|377:200|377:200|311:143,1,160,2|8,1:2|0:0,0:0:0:0:
216,92,23088,1,10,0:0:0:0:
210,83,23218,1,8,0:0:0:0:
211,71,23349,1,8,0:0:0:0:
330,10,23609,1,8,0:0:0:0:
404,118,23870,5,10,0:0:0:0:
412,122,24001,1,8,0:0:0:0:
422,123,24131,2,0,P|445:117|465:99,1,40,8|0,0:3|0:0,0:0:0:0:
508,187,24392,6,0,P|465:163|419:166,1,80,6|2,1:2|1:2,0:0:0:0:
389,227,24914,2,0,P|362:265|365:308,1,80,10|2,0:0|0:0,0:0:0:0:
464,360,25435,1,2,0:0:0:0:
350,323,25696,2,0,B|263:313|316:276|191:272,1,160,2|2,1:2|1:2,0:0:0:0:
201,272,26349,1,0,1:2:0:0:
201,272,26479,6,0,L|217:185,1,80,2|2,1:2|1:2,0:0:0:0:
161,134,27001,2,0,L|145:47,1,80,10|2,0:0|0:0,0:0:0:0:
146,55,27392,1,8,0:0:0:0:
146,55,27522,2,0,B|184:37|184:37|236:43,1,80,2|2,0:0|1:2,0:0:0:0:
79,143,28044,2,0,L|36:132,3,40,10|0|2|0,0:0|1:0|1:2|1:0,0:0:0:0:
4,66,28566,6,0,P|21:128|29:168,1,80,2|0,1:2|1:2,0:0:0:0:
0,253,29088,1,8,0:0:0:0:
99,276,29349,1,2,0:0:0:0:
114,282,29479,2,0,B|175:293|175:293|140:236,1,120,8|2,0:0|1:2,0:0:0:0:
120,144,30131,1,10,0:0:0:0:
195,69,30392,5,2,1:2:0:0:
203,64,30522,1,0,1:0:0:0:
216,60,30653,2,0,P|259:75|277:111,1,80,2|2,1:2|1:2,0:0:0:0:
340,152,31175,2,0,P|329:195|295:213,1,80,10|2,0:0|0:0,0:0:0:0:
186,183,31696,1,2,0:0:0:0:
296,234,31957,2,0,P|373:179|358:113,1,160,2|2,1:2|1:2,0:0:0:0:
433,22,32740,6,0,B|480:17|464:-1|528:-1,2,80,2|0|8,1:2|1:2|0:0,0:0:0:0:
292,90,33522,2,0,L|278:31,2,40,2|8|2,0:0|0:0|0:0,0:0:0:0:
217,11,34044,2,0,P|263:17|371:79,1,160,2|2,1:2|1:2,0:0:0:0:
361,70,34696,1,0,1:0:0:0:
361,70,34827,6,0,P|348:130|346:162,1,80,2|2,1:2|1:2,0:0:0:0:
458,215,35349,1,8,0:0:0:0:
357,165,35609,2,0,P|345:216|244:226,1,160,2|2,0:0|1:2,0:0:0:0:
119,158,36392,2,0,L|170:141,3,40,8|8|2|4,0:0|0:0|1:2|0:3,0:0:0:0:
216,92,36914,6,0,L|191:179,1,80,2|2,1:2|1:2,0:0:0:0:
141,38,37435,2,0,L|38:17,1,80,8|2,0:0|0:0,0:0:0:0:
62,22,37827,1,8,0:0:0:0:
62,22,37957,2,0,P|56:69|81:98,1,80,2|2,0:0|1:2,0:0:0:0:
50,222,38479,2,0,P|96:217|129:186,1,80,8|8,0:0|0:0,0:0:0:0:
121,196,38870,1,8,0:0:0:0:
121,196,39000,6,0,P|153:241|133:315,1,120,2|0,1:2|1:0,0:0:0:0:
118,324,39517,2,0,L|79:309,2,40,8|8|2,0:0|0:0|0:0,0:0:0:0:
218,384,40034,1,8,0:0:0:0:
290,268,40293,1,8,0:0:0:0:
381,339,40551,1,8,0:0:0:0:
395,328,40681,1,8,0:0:0:0:
402,335,40810,1,10,0:0:0:0:
408,331,40939,1,2,0:0:0:0:
414,334,41088,5,6,1:2:0:0:
469,240,41347,2,0,P|479:222|500:198,2,40,2|2|10,0:0|0:0|0:2,0:0:0:0:
353,175,41869,2,0,P|343:157|322:133,1,40,2|10,0:0|0:0,0:0:0:0:
294,134,42115,1,2,1:2:0:0:
432,74,42375,5,2,0:0:0:0:
421,28,42636,1,10,1:2:0:0:
367,5,42897,1,2,0:0:0:0:
305,62,43158,6,0,B|189:72|266:99|144:113,1,160,2|8,1:2|0:0,0:0:0:0:
18,39,43940,2,0,L|4:-12,2,40,2|10|0,1:2|0:0|1:2,0:0:0:0:
27,74,44332,1,8,0:0:0:0:
112,236,44723,1,8,0:0:0:0:
88,251,44853,1,0,1:0:0:0:
99,263,44984,1,2,1:2:0:0:
87,268,45114,1,2,0:0:0:0:
89,277,45245,5,2,1:2:0:0:
168,341,45506,2,0,L|214:381,2,40,2|2|10,0:0|0:0|0:2,0:0:0:0:
268,269,46027,2,0,L|319:241,2,40,2|2|2,0:0|0:0|1:2,0:0:0:0:
352,352,46549,5,2,0:0:0:0:
397,372,46810,1,10,1:2:0:0:
447,341,47071,1,2,1:2:0:0:
457,253,47347,6,0,L|430:157,1,80,2|2,1:2|0:0,0:0:0:0:
439,160,47738,1,0,1:0:0:0:
442,150,47868,1,8,0:0:0:0:
341,218,48129,2,0,B|276:250|276:250|296:151,1,160,6|2,1:2|1:2,0:0:0:0:
321,17,48912,2,0,L|334:62,3,40,8|8|8|4,0:0|0:0|0:3|0:3,0:0:0:0:
342,85,49433,5,6,1:2:0:0:
275,149,49694,1,2,1:2:0:0:
159,102,49955,2,0,P|140:55|149:19,1,80,8|0,0:0|1:2,0:0:0:0:
151,20,50347,1,0,1:2:0:0:
165,11,50477,1,10,0:0:0:0:
254,73,50738,1,0,1:2:0:0:
185,184,50999,2,0,L|94:208,1,80,10|2,0:0|1:2,0:0:0:0:
83,212,51390,1,2,1:2:0:0:
73,215,51522,5,2,1:2:0:0:
152,326,51778,1,8,0:0:0:0:
254,239,52034,1,8,0:0:0:0:
318,309,52291,6,0,L|365:324,2,40,2|0|6,1:2|1:0|1:2,0:0:0:0:
192,199,52814,2,0,B|134:203|108:260|108:260|99:196|171:171,1,200,10|8,0:0|0:0,0:0:0:0:
184,115,53609,6,0,L|298:139,1,95.9999970703126,6|0,1:2|1:2,0:0:0:0:
392,56,54130,1,10,0:0:0:0:
425,162,54392,2,0,L|444:219,2,47.9999985351563,2|8|2,0:0|0:0|1:2,0:0:0:0:
350,238,54914,2,0,B|329:290|358:292|333:350,1,95.9999970703126,2|10,1:2|0:0,0:0:0:0:
207,355,55435,5,8,0:3:0:0:
185,351,55566,1,8,0:3:0:0:
166,337,55696,2,0,P|144:295|155:244,1,95.9999970703126,2|2,1:2|1:2,0:0:0:0:
201,126,56218,2,0,P|149:140|115:180,1,95.9999970703126,10|0,0:0|1:0,0:0:0:0:
120,169,56609,1,8,0:0:0:0:
120,169,56740,2,0,B|90:162|90:162|61:143|61:143|21:137,2,95.9999970703126,0|2|10,1:2|1:2|0:0,0:0:0:0:
255,253,57522,5,4,0:3:0:0:
274,259,57653,1,4,0:3:0:0:
297,258,57783,2,0,B|424:237|323:202|491:182,1,191.999994140625,2|8,1:2|0:0,0:0:0:0:
351,120,58566,2,0,L|295:106,2,47.9999985351563,2|10|2,0:0|0:0|1:2,0:0:0:0:
414,4,59088,2,0,B|437:45|437:45|429:110,1,95.9999970703126,2|8,1:2|0:0,0:0:0:0:
293,20,59609,5,2,1:2:0:0:
279,21,59740,1,0,1:0:0:0:
267,26,59870,1,2,1:2:0:0:
208,97,60131,1,2,1:2:0:0:
200,197,60392,2,0,P|226:244|277:262,1,95.9999970703126,8|2,0:0|0:0,0:0:0:0:
262,260,60783,1,8,0:0:0:0:
262,260,60914,2,0,L|156:292,1,95.9999970703126,2|0,0:0|1:2,0:0:0:0:
9,323,61435,1,8,0:0:0:0:
22,345,61566,1,8,0:0:0:0:
38,339,61696,1,8,0:3:0:0:
45,350,61827,1,8,0:3:0:0:
52,350,61957,6,0,B|65:321|65:321|65:287|65:287|80:250,1,95.9999970703126,6|2,1:2|1:2,0:0:0:0:
57,111,62479,2,0,B|-17:71|-17:71|13:187,1,191.999994140625,10|2,0:0|1:2,0:0:0:0:
76,258,63261,1,2,1:2:0:0:
156,173,63522,2,0,P|202:152|268:169,1,95.9999970703126,8|2,0:0|0:0,0:0:0:0:
309,267,64044,6,0,L|283:366,1,95.9999970703126,2|2,1:2|1:2,0:0:0:0:
411,273,64566,2,0,L|514:251,1,95.9999970703126,10|2,0:0|0:0,0:0:0:0:
504,252,64957,1,8,0:0:0:0:
504,252,65088,2,0,B|515:205|515:205|474:155,1,95.9999970703126,2|2,1:2|1:2,0:0:0:0:
347,83,65609,2,0,L|398:71,3,47.9999985351563,10|10|2|4,0:0|0:0|1:2|1:3,0:0:0:0:
422,59,66131,6,0,P|411:118|374:144,1,95.9999970703126,2|2,1:2|1:2,0:0:0:0:
323,258,66653,2,0,P|277:233|270:175,1,95.9999970703126,8|8,0:0|0:0,0:0:0:0:
265,193,67044,2,0,B|216:198|216:198|184:228|184:228|121:239,1,143.999995605469,8|2,0:0|1:2,0:0:0:0:
25,281,67685,2,0,L|57:172,1,95.9999970703126,10|2,0:0|0:2,0:0:0:0:
96,32,68217,6,0,B|98:87|125:67|137:125,1,95.9999970703126,2|0,1:2|1:2,0:0:0:0:
135,117,68608,1,2,0:0:0:0:
135,117,68739,1,8,0:0:0:0:
248,20,69000,2,0,L|194:10,2,47.9999985351563,2|10|0,0:2|0:2|1:2,0:0:0:0:
346,98,69521,1,2,1:2:0:0:
268,189,69782,5,10,0:0:0:0:
258,216,69912,1,8,0:0:0:0:
266,235,70043,1,8,0:3:0:0:
257,243,70173,1,8,0:3:0:0:
255,250,70304,6,0,L|354:225,1,95.9999970703126,6|0,1:2|1:2,0:0:0:0:
422,363,70826,2,0,L|439:268,1,95.9999970703126,10|2,0:0|0:0,0:0:0:0:
439,268,71216,1,8,0:0:0:0:
439,268,71348,2,0,B|488:281|468:301|518:332,2,95.9999970703126,2|2|10,1:2|1:2|0:0,0:0:0:0:
410,146,72130,5,8,0:3:0:0:
410,146,72261,1,0,1:0:0:0:
410,146,72391,2,0,P|446:102|500:100,1,95.9999970703126,2|2,1:2|1:2,0:0:0:0:
335,62,72913,2,0,P|284:34|271:-3,1,95.9999970703126,10|2,0:0|0:0,0:0:0:0:
271,0,73304,2,0,L|96:36,1,143.999995605469,8|2,0:0|1:2,0:0:0:0:
36,106,73956,1,8,0:0:0:0:
127,151,74217,1,4,0:3:0:0:
139,165,74348,1,4,0:3:0:0:
145,182,74478,6,0,P|132:234|76:258,1,95.9999970703126,2|2,1:2|1:2,0:0:0:0:
0,299,75000,2,0,P|45:273|119:366,1,191.999994140625,10|2,0:0|1:2,0:0:0:0:
207,315,75782,2,0,L|321:290,1,95.9999970703126,2|8,1:2|0:0,0:0:0:0:
421,374,76304,6,0,L|475:385,2,47.9999985351563,2|0|2,1:2|1:0|1:2,0:0:0:0:
394,268,76826,2,0,B|388:219|360:221|359:173,1,95.9999970703126,2|10,1:2|0:0,0:0:0:0:
418,61,77348,1,2,0:0:0:0:
425,65,77478,1,8,0:0:0:0:
433,74,77608,2,0,P|453:129|450:179,1,95.9999970703126,2|0,1:2|1:2,0:0:0:0:
303,238,78130,2,0,L|239:220,3,47.9999985351563,8|10|8|8,0:0|0:0|0:3|0:3,0:0:0:0:
225,234,78652,6,0,B|194:243|194:243|169:262|169:262|122:275,2,95.9999970703126,6|2|10,1:2|1:2|0:0,0:0:0:0:
97,176,79434,2,0,L|43:160,2,47.9999985351563,2|8|0,0:0|0:0|1:2,0:0:0:0:
197,135,79956,2,0,P|218:86|252:40,1,95.9999970703126,2|8,1:2|0:0,0:0:0:0:
111,77,80478,5,2,0:0:0:0:
105,66,80608,1,2,0:0:0:0:
96,58,80739,2,0,P|44:35|2:28,2,95.9999970703126,2|2|10,1:2|1:2|0:0,0:0:0:0:
196,155,81521,2,0,L|249:142,2,47.9999985351563,2|8|2,0:0|0:0|1:2,0:0:0:0:
124,230,82043,1,2,1:2:0:0:
162,308,82304,1,10,0:0:0:0:
145,317,82434,1,0,1:0:0:0:
151,325,82565,1,8,0:3:0:0:
146,332,82695,1,8,0:3:0:0:
147,339,82825,5,2,1:2:0:0:
