osu file format v14

[General]
AudioFilename: audio.mp3
AudioLeadIn: 0
PreviewTime: 53082
Countdown: 0
SampleSet: Soft
StackLeniency: 0.5
Mode: 0
LetterboxInBreaks: 0
WidescreenStoryboard: 0

[Editor]
Bookmarks: 41088,64304
DistanceSpacing: 0.3
BeatDivisor: 8
GridSize: 32
TimelineZoom: 2.300006

[Metadata]
Title:LIFE (TV Size)
TitleUnicode:LIFE (TV Size)
Artist:YUI
ArtistUnicode:YUI
Creator:-Mikan
Version:Extra
Source:BLEACH
Tags:synderes frostwich djulus kowari nekroman4ik schoolboy komore japanese anime ed ending 4 jpop pop
BeatmapID:2450952
BeatmapSetID:1175059

[Difficulty]
HPDrainRate:5
CircleSize:4.2
OverallDifficulty:8
ApproachRate:9
SliderMultiplier:1.2
SliderTickRate:1

[Events]
//Background and Video events
0,0,"73719952_p0_master1200.jpg",0,0
Video,182,"orihimetitties.mp4"
//Break Periods
//Storyboard Layer 0 (Background)
//Storyboard Layer 1 (Fail)
//Storyboard Layer 2 (Pass)
//Storyboard Layer 3 (Foreground)
//Storyboard Layer 4 (Overlay)
//Storyboard Sound Samples

[TimingPoints]
-651,521.739130434783,4,2,1,50,1,0
1175,-133.333333333333,4,2,1,50,0,0
8740,-100,4,2,1,50,0,0
9768,521.739130434783,4,2,1,70,1,1
9768,-66.6666666666667,4,2,1,70,0,1
16044,521.739130434783,4,2,1,60,1,0
16044,-76.9230769230769,4,2,1,60,0,0
17609,-58.8235294117647,4,2,1,60,0,0
18131,-76.9230769230769,4,2,1,60,0,0
22827,-66.6666666666667,4,2,1,60,0,0
24392,-83.3333333333333,4,2,1,50,0,0
39000,517.241379310345,4,2,1,50,1,0
39001,-66.6666666666667,4,2,1,50,0,0
41087,521.739130434783,4,2,1,65,1,0
41088,-76.9230769230769,4,2,1,65,0,0
42115,521.739130434783,4,2,1,65,1,0
42115,-76.9230769230769,4,2,1,65,0,0
47347,521.739130434783,4,2,1,65,1,0
47347,-76.9230769230769,4,2,1,65,0,0
48651,-66.6666666666667,4,2,1,65,0,0
51522,512.820512820513,4,2,1,65,1,0
51522,-66.6666666666667,4,2,1,65,0,0
52547,535.714285714286,4,2,1,65,1,0
52547,-66.6666666666667,4,2,1,65,0,0
52814,-40,4,2,1,65,0,0
53216,526.315789473684,4,2,1,65,1,0
53609,521.739130434783,4,2,1,70,1,1
53609,-50,4,2,1,70,0,1
57782,-33.3333333333333,4,2,1,70,0,1
58565,-50,4,2,1,70,0,1
59869,-43.4782608695652,4,2,1,70,0,1
60391,-50,4,2,1,70,0,1
60913,-40,4,2,1,70,0,1
62217,-50,4,2,1,70,0,1
62478,-40,4,2,1,70,0,1
63000,-33.3333333333333,4,2,1,70,0,1
63782,-100,4,2,1,70,0,1
64043,-50,4,2,1,70,0,1
64565,-40,4,2,1,70,0,1
65087,-43.4782608695652,4,2,1,70,0,1
66130,-50,4,2,1,70,0,1
67043,-29.4117647058824,4,2,1,70,0,1
67425,521.739130434783,4,2,1,70,1,1
67425,-33.3333333333333,4,2,1,70,0,1
67685,-50,4,2,1,70,0,1
67946,-40,4,2,1,70,0,1
68217,521.739130434783,4,2,1,70,1,1
68217,-28.5714285714286,4,2,1,70,0,1
68739,-33.3333333333333,4,2,1,70,0,1
69001,-30.3030303030303,4,2,1,70,0,1
69261,-50,4,2,1,70,0,1
70043,-66.6666666666667,4,2,1,70,0,0
70239,-66.6666666666667,4,2,1,5,0,0
70303,-50,4,2,1,70,0,1
74478,-40,4,2,1,70,0,1
75521,-50,4,2,1,70,0,1
76564,-43.4782608695652,4,2,1,70,0,1
77086,-50,4,2,1,70,0,1
82825,-50,4,2,1,50,0,0

[Colours]
Combo1 : 191,255,255
Combo2 : 255,168,125

[HitObjects]
65,76,1175,5,2,0:0:0:0:
65,76,1435,2,0,L|73:131,1,45.0000017166138,2|2,0:0|0:0,0:0:0:0:
200,190,1957,2,0,L|240:169,1,45.0000017166138,2|2,0:0|0:0,0:0:0:0:
174,88,2479,2,0,L|154:129,1,45.0000017166138,2|2,0:0|0:0,0:0:0:0:
154,128,3001,1,2,0:0:0:0:
287,49,3262,6,0,B|328:68|306:83|348:102,1,78.7500030040742,2|0,0:0|0:0,0:0:0:0:
365,120,3849,2,0,P|407:110|445:108,1,78.7500030040742,2|2,0:0|0:0,0:0:0:0:
484,45,4566,1,0,0:0:0:0:
497,171,4827,6,0,P|459:149|443:89,1,90.0000034332277,2|2,0:0|0:0,0:0:0:0:
370,242,5609,2,0,P|413:229|456:250,1,90.0000034332277,2|0,0:0|0:0,0:0:0:0:
321,179,6392,1,2,0:0:0:0:
271,254,6653,1,2,0:0:0:0:
194,241,6914,2,0,P|226:235|253:226,1,45.0000017166138,2|0,0:0|0:0,0:0:0:0:
377,358,7435,6,0,P|330:343|288:335,1,90.0000034332277,2|0,0:0|0:0,0:0:0:0:
237,231,8218,1,2,0:0:0:0:
400,226,8479,6,0,L|418:230,2,11.2500004291535,8|8|8,0:0|0:0|0:0,0:0:0:0:
337,188,8740,2,0,P|322:214|326:247,1,60,8|2,0:0|0:0,0:0:0:0:
196,303,9131,5,8,0:0:0:0:
129,369,9262,1,8,0:0:0:0:
43,356,9392,1,10,0:0:0:0:
5,276,9522,1,8,0:3:0:0:
5,276,9768,6,0,P|73:255|150:240,1,135.000005149841,6|0,1:2|0:0,0:0:0:0:
219,153,10289,2,0,B|234:116|234:116|213:63,1,90.0000034332277,8|2,0:0|0:0,0:0:0:0:
132,114,10680,2,0,P|135:136|138:158,1,45.0000017166138,8|0,0:0|0:0,0:0:0:0:
251,255,10941,5,2,0:0:0:0:
270,266,11072,2,0,P|276:305|281:349,1,45.0000017166138,2|0,1:2|0:0,0:0:0:0:
331,369,11333,2,0,B|386:358|356:328|420:313,1,90.0000034332277,8|2,0:0|0:0,0:0:0:0:
480,376,11724,5,2,0:0:0:0:
503,364,11854,2,0,P|506:334|512:304,1,45.0000017166138,2|0,1:2|0:0,0:0:0:0:
449,229,12115,2,0,P|419:226|389:220,1,45.0000017166138,2|0,0:0|0:0,0:0:0:0:
241,145,12376,2,0,P|330:120|347:113,1,90.0000034332277,8|2,0:0|0:0,0:0:0:0:
364,57,12767,1,8,0:0:0:0:
301,6,12898,6,0,P|291:51|290:66,1,45.0000017166138,0|2,0:0|0:0,0:0:0:0:
152,87,13159,2,0,P|162:132|163:147,1,45.0000017166138,0|0,1:0|0:0,0:0:0:0:
291,217,13419,1,10,0:0:0:0:
280,222,13550,2,0,P|268:277|266:292,1,45.0000017166138,0|2,1:2|0:0,0:0:0:0:
129,368,13811,5,8,0:0:0:0:
113,378,13941,2,0,P|54:337|47:299,2,90.0000034332277,2|2|8,1:2|0:0|0:0,0:0:0:0:
295,224,14724,1,2,1:2:0:0:
171,172,14854,1,2,1:2:0:0:
110,253,14985,6,0,L|123:302,1,45.0000017166138,8|0,0:0|0:0,0:0:0:0:
281,150,15246,2,0,L|268:199,1,45.0000017166138,10|0,0:0|0:0,0:0:0:0:
0,86,15506,5,10,0:0:0:0:
56,36,15637,1,10,0:0:0:0:
130,86,15767,1,10,0:0:0:0:
207,3,15898,1,10,0:0:0:0:
283,39,16044,6,0,P|333:51|365:64,1,77.9999964294435,6|0,1:2|1:2,0:0:0:0:
512,43,16435,1,2,0:0:0:0:
437,0,16566,2,0,P|434:27|431:48,1,38.9999982147218,8|0,0:0|0:0,0:0:0:0:
495,211,16827,2,0,P|487:178|482:148,1,38.9999982147218,2|8,0:0|0:0,0:0:0:0:
417,131,17088,2,0,B|372:137|391:158|334:170,1,77.9999964294435,0|2,0:0|1:2,0:0:0:0:
233,294,17479,5,0,0:0:0:0:
244,288,17609,2,0,P|281:297|310:314,1,51.0000009727478,10|0,0:0|0:0,0:0:0:0:
358,347,17870,2,0,P|388:338|415:321,1,51.0000009727478,2|0,0:0|0:0,0:0:0:0:
379,185,18131,6,0,P|366:231|359:277,1,77.9999964294435,2|0,1:2|1:2,0:0:0:0:
187,338,18522,1,2,0:0:0:0:
279,384,18653,2,0,P|261:326|256:315,1,38.9999982147218,8|0,0:0|0:0,0:0:0:0:
84,229,18914,1,2,0:0:0:0:
167,195,19044,2,0,P|163:219|158:239,1,38.9999982147218,8|0,0:0|0:0,0:0:0:0:
22,357,19305,2,0,P|60:341|104:330,1,77.9999964294435,2|0,0:0|0:0,0:0:0:0:
182,345,19696,5,8,0:0:0:0:
295,375,19827,1,2,1:2:0:0:
362,272,19957,2,0,P|326:263|305:260,1,38.9999982147218,2|0,1:2|1:0,0:0:0:0:
244,175,20218,6,0,P|234:105|225:70,1,77.9999964294435,2|2,1:2|1:2,0:0:0:0:
390,0,20609,1,2,0:0:0:0:
280,25,20740,6,0,P|313:31|329:32,1,38.9999982147218,8|0,0:0|0:0,0:0:0:0:
489,127,21001,1,2,0:0:0:0:
426,172,21131,2,0,P|389:165|337:165,1,77.9999964294435,8|0,0:0|0:0,0:0:0:0:
286,210,21522,5,2,1:2:0:0:
344,296,21653,1,0,0:0:0:0:
268,363,21783,2,0,L|255:300,1,38.9999982147218,10|0,0:0|0:0,0:0:0:0:
436,253,22044,2,0,L|423:316,1,38.9999982147218,2|8,0:0|0:0,0:0:0:0:
286,210,22305,5,2,1:2:0:0:
267,201,22435,2,0,B|220:208|243:235|175:238,1,77.9999964294435,2|2,0:0|0:0,0:0:0:0:
144,291,22827,2,0,P|96:277|77:275,1,45.0000017166138,8|0,0:0|0:0,0:0:0:0:
56,215,23088,1,10,0:0:0:0:
254,369,23218,5,8,0:0:0:0:
254,369,23283,1,8,0:0:0:0:
254,369,23349,2,0,L|262:303,1,45.0000017166138,8|2,0:0|0:0,0:0:0:0:
159,115,23609,2,0,L|151:181,1,45.0000017166138,8|0,0:0|0:0,0:0:0:0:
56,215,23870,5,10,0:0:0:0:
133,30,24001,1,8,0:0:0:0:
267,172,24131,1,8,0:3:0:0:
267,172,24392,6,0,L|358:159,2,71.9999978027344,6|2|10,1:2|1:2|0:0,0:0:0:0:
159,115,25175,1,2,0:0:0:0:
250,35,25435,2,0,L|244:76,1,35.9999989013672,2|0,0:0|0:0,0:0:0:0:
244,70,25696,1,2,1:2:0:0:
56,215,25957,2,0,L|62:174,1,35.9999989013672,8|0,0:0|0:0,0:0:0:0:
220,314,26218,5,2,1:2:0:0:
254,329,26349,1,0,1:2:0:0:
281,306,26479,2,0,P|328:295|365:288,1,71.9999978027344,2|2,1:2|1:2,0:0:0:0:
493,188,27001,2,0,L|432:178,1,35.9999989013672,10|0,0:0|0:0,0:0:0:0:
457,182,27262,5,2,0:0:0:0:
400,230,27392,1,8,0:0:0:0:
436,299,27522,1,2,0:0:0:0:
214,216,27783,2,0,L|222:168,1,35.9999989013672,2|0,1:2|0:0,0:0:0:0:
282,81,28044,5,10,0:0:0:0:
356,83,28175,1,0,1:0:0:0:
407,140,28305,1,2,1:2:0:0:
413,175,28435,1,0,1:0:0:0:
400,199,28566,6,0,P|333:213|285:225,1,107.999996704102,2|0,1:2|0:0,0:0:0:0:
240,280,29088,2,0,P|215:239|220:196,1,71.9999978027344,8|2,0:0|0:0,0:0:0:0:
284,71,29479,1,8,0:0:0:0:
303,71,29609,2,0,P|328:112|323:155,1,71.9999978027344,2|2,0:0|1:2,0:0:0:0:
142,175,30131,2,0,L|82:162,1,35.9999989013672,10|0,0:0|0:0,0:0:0:0:
6,54,30392,5,2,1:2:0:0:
57,0,30522,1,0,1:0:0:0:
128,19,30653,2,0,L|114:108,2,71.9999978027344,2|2|10,1:2|1:2|0:0,0:0:0:0:
294,222,31435,2,0,L|284:170,1,35.9999989013672,2|10,0:0|0:0,0:0:0:0:
287,186,31696,1,2,0:0:0:0:
105,326,31957,1,2,1:2:0:0:
99,240,32218,5,8,0:0:0:0:
176,230,32349,1,8,0:0:0:0:
236,281,32479,1,2,1:2:0:0:
250,308,32609,1,0,1:0:0:0:
243,330,32740,6,0,P|302:318|342:317,1,71.9999978027344,2|0,1:2|1:2,0:0:0:0:
436,229,33131,1,0,0:0:0:0:
436,229,33262,1,8,0:0:0:0:
333,111,33522,6,0,L|324:164,1,35.9999989013672,2|8,0:0|0:0,0:0:0:0:
422,74,33783,2,0,L|413:127,1,35.9999989013672,2|0,0:0|0:0,0:0:0:0:
272,47,34044,1,2,1:2:0:0:
436,229,34305,1,8,0:0:0:0:
331,314,34566,5,2,1:2:0:0:
273,259,34696,1,0,1:0:0:0:
309,190,34827,2,0,P|352:183|398:173,2,71.9999978027344,2|2|8,1:2|1:2|0:0,0:0:0:0:
162,344,35609,6,0,B|108:334|135:294|43:280,1,107.999996704102,2|0,0:0|0:0,0:0:0:0:
61,296,36131,2,0,L|114:290,1,35.9999989013672,2|0,1:2|0:0,0:0:0:0:
177,222,36392,1,8,0:0:0:0:
165,147,36522,1,8,0:0:0:0:
98,112,36653,1,2,1:2:0:0:
27,125,36783,1,4,0:3:0:0:
23,140,36914,5,2,1:2:0:0:
193,64,37175,2,0,L|185:17,1,35.9999989013672,2|0,1:2|0:0,0:0:0:0:
160,6,37435,1,8,0:0:0:0:
326,161,37696,2,0,L|318:208,1,35.9999989013672,2|8,0:0|0:0,0:0:0:0:
260,268,37957,6,0,L|251:218,2,35.9999989013672,2|0|2,0:0|0:0|1:2,0:0:0:0:
505,158,38479,1,8,0:0:0:0:
436,52,38740,5,8,0:0:0:0:
425,43,38870,1,8,0:0:0:0:
368,93,39001,2,0,P|318:82|262:72,1,90.0000034332277,2|2,1:2|1:2,0:0:0:0:
160,6,39387,6,0,L|164:35,1,22.5000008583069,0|0,1:0|1:0,0:0:0:0:
111,84,39517,1,8,0:0:0:0:
252,176,39646,1,8,0:0:0:0:
189,224,39775,1,2,0:0:0:0:
189,224,39905,1,0,1:0:0:0:
180,147,40034,6,0,L|188:96,1,45.0000017166138,8|0,0:0|0:0,0:0:0:0:
372,295,40293,2,0,L|364:244,1,45.0000017166138,8|0,0:0|0:0,0:0:0:0:
274,321,40551,5,8,0:0:0:0:
350,160,40681,1,8,0:0:0:0:
473,304,40810,1,10,0:0:0:0:
473,304,40939,1,2,0:0:0:0:
507,229,41088,5,6,1:2:0:0:
180,147,41347,1,2,0:0:0:0:
180,147,41478,1,2,0:0:0:0:
210,213,41608,5,10,0:2:0:0:
494,39,41870,1,2,0:0:0:0:
494,39,42000,1,10,0:0:0:0:
412,22,42115,6,0,P|422:66|423:80,1,38.9999982147218,2|0,1:2|0:0,0:0:0:0:
297,178,42375,2,0,P|287:134|286:120,1,38.9999982147218,2|0,0:0|0:0,0:0:0:0:
500,168,42636,2,0,P|510:212|511:226,1,38.9999982147218,10|0,1:2|0:0,0:0:0:0:
458,260,42897,1,2,0:0:0:0:
458,260,43027,1,0,1:0:0:0:
335,333,43158,6,0,B|284:331|313:364|226:352,1,77.9999964294435,2|2,1:2|0:0,0:0:0:0:
153,298,43549,1,0,1:0:0:0:
227,238,43679,2,0,L|221:300,1,38.9999982147218,8|0,0:0|0:0,0:0:0:0:
104,233,43940,1,2,1:2:0:0:
30,173,44070,2,0,L|36:235,1,38.9999982147218,10|0,0:0|1:2,0:0:0:0:
153,126,44332,1,8,0:0:0:0:
175,52,44462,1,2,1:2:0:0:
101,67,44592,1,0,1:0:0:0:
144,86,44723,5,8,0:0:0:0:
281,18,44984,1,2,0:0:0:0:
281,18,45114,1,2,0:0:0:0:
342,63,45245,5,2,1:2:0:0:
223,276,45505,1,2,0:0:0:0:
223,276,45636,1,2,0:0:0:0:
184,208,45766,5,10,0:2:0:0:
508,263,46027,1,2,0:0:0:0:
508,263,46157,1,2,0:0:0:0:
468,329,46288,5,2,1:2:0:0:
425,264,46418,1,8,0:0:0:0:
415,276,46549,2,0,L|370:278,1,38.9999982147218,2|0,0:0|0:0,0:0:0:0:
213,185,46810,2,0,L|252:183,1,38.9999982147218,10|0,1:2|0:0,0:0:0:0:
306,246,47071,1,2,1:2:0:0:
306,246,47201,1,0,1:0:0:0:
216,306,47347,6,0,B|164:322|189:346|132:356,1,77.9999964294435,2|2,1:2|0:0,0:0:0:0:
53,298,47738,1,0,1:0:0:0:
39,309,47868,2,0,L|30:257,1,38.9999982147218,8|0,0:0|0:0,0:0:0:0:
188,69,48129,6,0,L|172:199,1,116.999994644165,6|0,1:2|0:0,0:0:0:0:
29,130,48651,2,0,L|82:122,1,45.0000017166138,2|0,1:2|0:0,0:0:0:0:
276,43,48912,5,8,0:0:0:0:
142,0,49042,1,8,0:0:0:0:
142,0,49107,1,8,0:0:0:0:
142,0,49173,1,8,0:3:0:0:
187,69,49303,1,4,0:3:0:0:
276,43,49433,6,0,P|338:32|353:31,1,45.0000017166138,6|0,1:2|0:0,0:0:0:0:
479,145,49694,2,0,P|417:156|402:157,1,45.0000017166138,2|0,1:2|0:0,0:0:0:0:
377,214,49955,2,0,P|352:163|362:117,1,90.0000034332277,8|0,0:0|1:2,0:0:0:0:
433,12,50347,5,0,1:2:0:0:
446,26,50477,2,0,P|453:78|448:92,1,45.0000017166138,10|0,0:0|0:0,0:0:0:0:
280,210,50738,2,0,P|273:158|278:144,1,45.0000017166138,0|0,1:2|0:0,0:0:0:0:
486,287,50999,1,10,0:0:0:0:
305,50,51260,5,2,1:2:0:0:
333,120,51390,1,2,1:2:0:0:
382,62,51520,1,2,1:2:0:0:
382,62,51778,6,0,L|376:14,1,45.0000017166138,8|0,0:0|0:0,0:0:0:0:
173,185,52034,2,0,L|179:137,1,45.0000017166138,8|0,0:0|0:0,0:0:0:0:
476,242,52291,5,2,1:2:0:0:
476,242,52355,1,0,1:0:0:0:
476,242,52419,1,0,1:0:0:0:
490,322,52547,6,0,L|409:305,1,67.5000025749207,6|0,1:2|0:0,0:0:0:0:
378,250,52814,6,0,B|317:241|274:285|309:316|248:374|187:353,1,225,10|8,0:0|0:0,0:0:0:0:
107,304,53347,5,8,0:0:0:0:
178,140,53479,1,8,0:0:0:0:
85,176,53609,6,0,P|126:229|131:255,1,60,6|0,1:2|0:0,0:0:0:0:
190,45,53870,2,0,P|123:54|98:45,1,60,0|0,1:2|0:0,0:0:0:0:
258,200,54131,2,0,P|283:137|303:120,1,60,10|0,0:0|0:0,0:0:0:0:
178,140,54392,5,2,0:0:0:0:
178,140,54522,1,8,0:0:0:0:
277,144,54653,6,0,P|252:207|232:224,1,60,2|0,1:2|0:0,0:0:0:0:
131,55,54914,2,0,P|198:46|223:55,1,60,2|0,1:2|0:0,0:0:0:0:
123,221,55175,2,0,P|100:201|84:175,1,60,10|0,0:0|0:0,0:0:0:0:
305,2,55435,6,0,L|289:72,1,60,8|8,0:3|0:3,0:0:0:0:
338,115,55630,1,0,1:0:0:0:
345,121,55695,2,0,B|387:115|408:145|397:148|421:171|450:168,1,120,2|2,1:2|1:2,0:0:0:0:
512,125,56087,5,0,0:0:0:0:
383,284,56217,2,0,P|367:249|372:221,1,60,10|0,0:0|0:0,0:0:0:0:
449,168,56478,5,0,1:0:0:0:
512,240,56609,1,8,0:0:0:0:
461,319,56739,2,0,P|391:337|329:360,1,120,0|2,1:2|1:2,0:0:0:0:
4,199,57261,5,10,0:0:0:0:
84,176,57391,1,4,0:3:0:0:
155,215,57522,1,4,0:3:0:0:
173,283,57652,1,4,0:3:0:0:
157,326,57782,6,0,B|169:238|169:238|173:233|173:233|185:135,2,180.000006866455,2|0|8,1:2|1:2|0:0,0:0:0:0:
428,11,58565,2,0,L|437:72,1,60,2|10,0:0|0:0,0:0:0:0:
355,126,58826,6,0,P|304:116|274:113,1,60,2|0,1:2|0:0,0:0:0:0:
453,229,59087,2,0,P|482:233|511:239,1,60,2|0,1:2|0:0,0:0:0:0:
354,377,59348,2,0,L|333:232,1,120,8|2,0:0|1:2,0:0:0:0:
333,239,59739,1,0,1:0:0:0:
448,180,59869,6,0,P|455:206|441:255,1,69.0000013160706,2|0,1:2|0:0,0:0:0:0:
512,292,60130,2,0,P|498:315|454:340,1,69.0000013160706,2|0,1:2|0:0,0:0:0:0:
241,277,60391,6,0,P|277:231|345:251,1,120,8|2,0:0|0:0,0:0:0:0:
376,305,60782,5,8,0:0:0:0:
181,148,60913,2,0,B|204:41|204:41|187:55|152:62,2,150,2|0|8,0:0|1:2|0:0,0:0:0:0:
132,215,61565,1,8,0:0:0:0:
53,211,61695,1,8,0:3:0:0:
32,201,61826,1,8,0:3:0:0:
28,181,61956,5,6,1:2:0:0:
149,324,62217,2,0,L|138:399,1,60,2|0,1:2|0:0,0:0:0:0:
333,241,62478,2,0,B|294:206|247:222|247:222|226:260|173:260,1,150,10|2,0:0|0:0,0:0:0:0:
132,215,62869,5,8,0:0:0:0:
399,355,63000,2,0,L|375:174,2,180.000006866455,2|2|8,1:2|1:2|0:0,0:0:0:0:
461,226,63782,6,0,B|469:244|469:244|467:254,1,30,2|0,0:0|0:0,0:0:0:0:
296,346,64043,6,0,P|246:332|223:330,1,60,2|0,1:2|0:0,0:0:0:0:
83,384,64304,2,0,P|112:373|141:368,1,60,2|0,1:2|0:0,0:0:0:0:
202,254,64565,2,0,B|221:150|221:150|209:171|190:181,1,150,10|2,0:0|0:0,0:0:0:0:
289,237,64956,5,8,0:0:0:0:
50,134,65087,2,0,P|84:110|125:111,1,69.0000013160706,2|0,1:2|0:0,0:0:0:0:
193,39,65348,2,0,P|159:15|118:16,1,69.0000013160706,2|0,1:2|0:0,0:0:0:0:
190,180,65609,6,0,B|248:168|228:142|288:131,1,103.500001974106,10|0,0:0|0:0,0:0:0:0:
280,132,65869,1,2,1:2:0:0:
395,14,66000,1,4,1:3:0:0:
388,12,66065,1,0,1:0:0:0:
381,11,66130,6,0,B|378:45|378:45|392:88,1,60,2|0,1:2|0:0,0:0:0:0:
512,221,66391,2,0,L|501:151,1,60,2|0,1:2|0:0,0:0:0:0:
289,237,66652,2,0,L|306:341,1,90,8|0,0:0|0:0,0:0:0:0:
303,325,66913,1,8,0:0:0:0:
204,377,67043,6,0,B|169:321|109:338|109:338|138:342|149:362,1,153.000002918243,8|0,0:0|0:0,0:0:0:0:
146,357,67304,1,2,0:0:0:0:
431,237,67425,2,0,B|479:227|485:176|479:157|479:157|450:133,1,135.000005149841,2|0,1:2|0:0,0:0:0:0:
449,146,67685,2,0,P|497:163|516:150,1,60,10|0,0:0|0:0,0:0:0:0:
237,31,67946,6,0,P|232:59|234:79,1,37.5,2|2,0:2|0:0,0:0:0:0:
214,56,68077,2,0,P|223:97|228:108,1,37.5,2|2,0:0|0:0,0:0:0:0:
293,126,68217,6,0,B|233:108|185:149|222:161|168:213|100:190,1,210.000002002716,2|0,1:2|1:2,0:0:0:0:
58,136,68609,5,2,0:0:0:0:
259,294,68739,2,0,L|241:383,1,90.0000034332277,8|0,0:0|0:0,0:0:0:0:
480,116,69000,5,2,1:2:0:0:
353,192,69130,1,10,0:2:0:0:
446,266,69261,2,0,L|434:195,1,60,0|0,1:2|0:0,0:0:0:0:
283,66,69522,2,0,L|295:137,1,60,2|0,1:2|0:0,0:0:0:0:
158,277,69782,5,10,0:0:0:0:
0,193,69913,1,8,0:0:0:0:
83,348,70043,2,0,L|70:269,1,67.5000025749207,8|0,0:3|0:0,0:0:0:0:
138,222,70304,6,0,P|158:270|154:296,1,60,6|0,1:2|0:0,0:0:0:0:
292,125,70565,2,0,P|240:118|219:101,1,60,0|0,1:2|0:0,0:0:0:0:
305,308,70826,2,0,P|336:266|361:257,1,60,10|0,0:0|0:0,0:0:0:0:
246,220,71087,5,2,0:0:0:0:
246,220,71217,1,8,0:0:0:0:
342,263,71348,6,0,P|310:304|285:313,1,60,2|0,1:2|0:0,0:0:0:0:
234,114,71609,2,0,P|285:120|306:137,1,60,2|0,1:2|0:0,0:0:0:0:
157,276,71869,2,0,P|137:228|141:202,1,60,10|0,0:0|0:0,0:0:0:0:
392,61,72130,6,0,L|379:132,1,60,8|0,0:3|1:0,0:0:0:0:
423,179,72326,1,0,1:0:0:0:
431,186,72391,2,0,P|490:193|533:152,1,120,2|2,1:2|1:2,0:0:0:0:
342,263,72782,1,2,0:0:0:0:
245,219,72913,2,0,L|235:160,1,60,10|0,0:0|0:0,0:0:0:0:
348,253,73174,5,2,0:0:0:0:
254,337,73304,1,8,0:0:0:0:
349,380,73435,2,0,B|406:370|406:370|414:374|414:374|471:363,1,120,2|2,1:2|1:2,0:0:0:0:
245,219,73956,5,8,0:0:0:0:
162,268,74087,1,4,0:3:0:0:
77,253,74217,1,4,0:3:0:0:
37,189,74348,1,4,0:3:0:0:
42,151,74478,6,0,L|64:328,2,150,2|2|10,1:2|1:2|0:0,0:0:0:0:
271,42,75260,5,2,0:0:0:0:
134,137,75390,1,10,0:0:0:0:
217,165,75521,2,0,L|208:106,1,60,2|0,1:2|0:0,0:0:0:0:
62,33,75783,2,0,L|39:174,1,120,2|8,1:2|0:0,0:0:0:0:
234,342,76303,6,0,L|249:245,1,60,2|0,1:2|1:0,0:0:0:0:
265,255,76499,1,0,1:0:0:0:
272,262,76564,2,0,B|346:255|320:312|406:303,1,138.000002632141,2|2,1:2|1:2,0:0:0:0:
512,219,76957,1,0,0:0:0:0:
448,116,77086,2,0,L|431:197,1,60,10|0,0:0|0:0,0:0:0:0:
320,73,77347,5,2,0:0:0:0:
328,33,77477,1,8,0:0:0:0:
355,59,77608,1,2,1:2:0:0:
231,184,77869,6,0,L|155:174,1,60,0|0,1:2|0:0,0:0:0:0:
57,232,78130,5,8,0:0:0:0:
208,86,78260,1,10,0:0:0:0:
249,302,78391,1,8,0:3:0:0:
249,302,78651,6,0,L|224:143,1,120,6|2,1:2|1:2,0:0:0:0:
281,38,79043,1,0,0:0:0:0:
355,59,79173,2,0,L|368:133,1,60,10|0,0:0|0:0,0:0:0:0:
512,229,79434,5,2,0:0:0:0:
363,193,79564,1,8,0:0:0:0:
460,125,79695,2,0,L|448:189,1,60,0|0,1:2|0:0,0:0:0:0:
503,365,79957,2,0,L|514:297,1,60,2|0,1:2|0:0,0:0:0:0:
363,193,80217,6,0,L|339:315,1,120,8|2,0:0|0:0,0:0:0:0:
353,332,80609,1,2,0:0:0:0:
252,360,80739,6,0,P|250:316|264:289,1,60,2|0,1:2|0:0,0:0:0:0:
98,104,81000,2,0,L|114:172,1,60,2|2,1:2|0:0,0:0:0:0:
138,173,81196,1,2,0:0:0:0:
138,173,81260,2,0,P|189:151|257:142,1,120,10|2,0:0|0:0,0:0:0:0:
415,89,81651,5,8,0:0:0:0:
361,25,81782,2,0,P|338:51|345:92,1,60,2|0,1:2|0:0,0:0:0:0:
492,272,82043,2,0,P|480:239|441:224,1,60,2|0,1:2|0:0,0:0:0:0:
188,244,82303,2,0,P|222:250|254:224,1,60,10|0,0:0|1:0,0:0:0:0:
346,176,82564,5,8,0:3:0:0:
346,166,82695,1,8,0:3:0:0:
346,157,82825,1,2,1:2:0:0:
256,192,82956,12,2,86739,0:0:0:0:
