osu file format v14

[General]
AudioFilename: audio.mp3
AudioLeadIn: 0
PreviewTime: 53082
Countdown: 0
SampleSet: Soft
StackLeniency: 0.5
Mode: 0
LetterboxInBreaks: 0
WidescreenStoryboard: 1

[Editor]
Bookmarks: 41088
DistanceSpacing: 1.2
BeatDivisor: 8
GridSize: 32
TimelineZoom: 2.700006

[Metadata]
Title:LIFE (TV Size)
TitleUnicode:LIFE (TV Size)
Artist:YUI
ArtistUnicode:YUI
Creator:-Mikan
Version:Easy
Source:BLEACH
Tags:synderes frostwich djulus kowari nekroman4ik schoolboy komore japanese anime ed ending 4 jpop pop
BeatmapID:2450951
BeatmapSetID:1175059

[Difficulty]
HPDrainRate:2
CircleSize:2.4
OverallDifficulty:1
ApproachRate:2.5
SliderMultiplier:0.8
SliderTickRate:1

[Events]
//Background and Video events
0,0,"73719952_p0_master1200.jpg",0,0
Video,182,"orihimetitties.mp4"
//Break Periods
//Storyboard Layer 0 (Background)
//Storyboard Layer 1 (Fail)
//Storyboard Layer 2 (Pass)
//Storyboard Layer 3 (Foreground)
//Storyboard Layer 4 (Overlay)
//Storyboard Sound Samples

[TimingPoints]
-651,521.739130434783,4,2,1,50,1,0
1175,-100,4,2,1,50,0,0
8740,-100,4,2,1,50,0,0
9768,521.739130434783,4,2,1,70,1,1
9768,-100,4,2,1,70,0,1
15507,-103.092783505155,4,2,1,70,0,1
16044,521.739130434783,4,2,1,60,1,0
16044,-100,4,2,1,60,0,0
17609,-100,4,2,1,60,0,0
18131,-100,4,2,1,60,0,0
22827,-100,4,2,1,60,0,0
24392,-100,4,2,1,50,0,0
39000,517.241379310345,4,2,1,50,1,0
39001,-100,4,2,1,50,0,0
41087,521.739130434783,4,2,1,65,1,0
41088,-100,4,2,1,65,0,0
42115,521.739130434783,4,2,1,65,1,0
47347,521.739130434783,4,2,1,65,1,0
48653,-100,4,2,1,65,0,0
51522,512.820512820513,4,2,1,65,1,0
52547,535.714285714286,4,2,1,65,1,0
52814,-100,4,2,1,65,0,0
53216,526.315789473684,4,2,1,65,1,0
53609,521.739130434783,4,2,1,70,1,1
53609,-100,4,2,1,70,0,1
59870,-100,4,2,1,70,0,1
60392,-100,4,2,1,70,0,1
65088,-100,4,2,1,70,0,1
66131,-100,4,2,1,70,0,1
67425,521.739130434783,4,2,1,70,1,1
68217,521.739130434783,4,2,1,70,1,1
68218,-100,4,2,1,70,0,1
70043,-100,4,2,1,70,0,0
70303,-100,4,2,1,70,0,1
76566,-100,4,2,1,70,0,1
77088,-100,4,2,1,70,0,1
82825,-100,4,2,1,50,0,0

[Colours]
Combo1 : 191,255,255
Combo2 : 255,168,125

[HitObjects]
49,311,1175,5,2,0:0:0:0:
49,311,1435,2,0,L|218:331,1,160,2|2,0:0|0:0,0:0:0:0:
371,228,3522,2,0,L|202:208,1,160,2|0,0:0|0:0,0:0:0:0:
111,106,5349,5,2,0:0:0:0:
111,106,5609,2,0,P|147:58|251:55,1,160,2|2,0:0|0:0,0:0:0:0:
389,55,7435,1,2,0:0:0:0:
389,55,7696,2,0,P|424:103|446:113,1,80,2|2,0:0|0:0,0:0:0:0:
505,182,8740,5,8,0:0:0:0:
429,241,9262,1,8,0:0:0:0:
396,331,9768,2,0,P|345:310|305:304,1,80,6|8,1:2|0:0,0:0:0:0:
279,281,10551,2,0,B|219:301|240:327|176:347,1,120,2|8,0:0|0:0,0:0:0:0:
107,282,11855,6,0,P|34:274|12:274,2,80,2|8|0,1:2|0:0|0:0,0:0:0:0:
167,207,13420,1,10,0:0:0:0:
90,149,13942,2,0,P|76:98|62:58,1,80,2|8,1:2|0:0,0:0:0:0:
136,6,14986,2,0,L|187:22,1,40,8|10,0:0|0:0,0:0:0:0:
203,56,15507,2,0,P|258:34|293:29,1,80,10|6,0:0|1:2,0:0:0:0:
355,88,16566,5,8,0:0:0:0:
355,88,16827,2,0,P|342:171|335:218,1,120,2|10,0:0|0:0,0:0:0:0:
382,291,18131,2,0,P|338:329|300:334,1,80,2|8,1:2|0:0,0:0:0:0:
226,364,19175,2,0,P|168:359|137:336,1,80,0|8,0:0|0:0,0:0:0:0:
68,299,20218,6,0,P|53:224|33:167,2,120,2|2|10,1:2|0:0|0:0,0:0:0:0:
154,257,22305,1,2,1:2:0:0:
190,168,22827,2,0,L|273:182,1,80,8|8,0:0|0:0,0:0:0:0:
311,158,23609,2,0,L|321:104,1,40,8|10,0:0|0:0,0:0:0:0:
385,49,24392,6,0,L|477:65,1,80,6|10,1:2|0:0,0:0:0:0:
507,148,25435,2,0,B|502:220|437:217|441:293,1,160,2|2,0:0|1:2,0:0:0:0:
364,346,27001,1,10,0:0:0:0:
281,296,27522,2,0,P|242:315|203:346,1,80,2|10,0:0|0:0,0:0:0:0:
169,332,28305,1,2,1:2:0:0:
169,332,28566,6,0,P|113:300|105:209,1,160,2|2,1:2|0:0,0:0:0:0:
42,137,30131,2,0,L|29:84,1,40,10|2,0:0|1:2,0:0:0:0:
68,66,30653,2,0,P|107:78|155:87,1,80,2|10,1:2|0:0,0:0:0:0:
227,35,31696,1,2,0:0:0:0:
309,83,32218,1,8,0:0:0:0:
396,43,32740,6,0,P|432:58|487:71,1,80,2|8,1:2|0:0,0:0:0:0:
497,161,33783,2,0,P|455:163|385:251,1,160,2|2,0:0|1:2,0:0:0:0:
332,330,35349,1,8,0:0:0:0:
332,330,35609,2,0,P|385:344|456:376,1,120,2|8,0:0|0:0,0:0:0:0:
505,295,36914,6,0,P|492:256|486:204,1,80,2|8,1:2|0:0,0:0:0:0:
444,193,37696,1,2,0:0:0:0:
444,193,37957,2,0,P|448:152|465:102,1,80,2|8,0:0|0:0,0:0:0:0:
383,56,39000,6,0,B|347:63|341:82|305:82,1,80,2|8,1:2|0:0,0:0:0:0:
220,42,40034,2,0,L|167:51,1,40,8|8,0:0|0:0,0:0:0:0:
147,83,40551,1,8,0:0:0:0:
54,57,41087,6,0,L|44:136,1,80,6|10,1:2|0:2,0:0:0:0:
95,217,42115,2,0,L|86:261,2,40,2|2|10,1:2|0:0|1:2,0:0:0:0:
187,190,43158,2,0,B|270:203|241:249|329:271,1,160,2|0,1:2|1:2,0:0:0:0:
402,321,44723,1,8,0:0:0:0:
479,263,45245,6,0,P|482:208|488:171,1,80,2|10,1:2|0:2,0:0:0:0:
456,91,46288,2,0,L|506:75,2,40,2|2|10,1:2|0:0|1:2,0:0:0:0:
374,40,47347,2,0,P|325:55|282:61,1,80,2|8,1:2|0:0,0:0:0:0:
254,36,48129,2,0,P|197:65|196:129,1,120,6|8,1:2|0:0,0:0:0:0:
110,169,49433,6,0,P|122:244|122:266,1,80,6|8,1:2|0:0,0:0:0:0:
184,321,50477,1,10,0:0:0:0:
267,274,50999,1,10,0:0:0:0:
353,314,51522,2,0,L|405:324,1,40,2|8,1:2|0:0,0:0:0:0:
436,302,52034,1,8,0:0:0:0:
503,233,52547,1,6,1:2:0:0:
503,233,52814,1,10,0:0:0:0:
415,118,53609,6,0,P|364:111|323:102,1,80,6|10,1:2|0:0,0:0:0:0:
294,80,54392,1,2,0:0:0:0:
294,80,54653,2,0,L|285:30,2,40,2|2|10,1:2|1:2|0:0,0:0:0:0:
220,141,55696,2,0,P|169:148|128:157,1,80,2|10,1:2|0:0,0:0:0:0:
100,127,56479,1,0,1:0:0:0:
100,127,56740,1,0,1:2:0:0:
39,202,57262,1,10,0:0:0:0:
90,282,57783,6,0,P|150:296|177:306,1,80,2|8,1:2|0:0,0:0:0:0:
240,365,58827,1,2,1:2:0:0:
329,329,59349,2,0,L|323:281,1,40,8|2,0:0|1:2,0:0:0:0:
362,261,59870,2,0,B|440:276|406:311|471:330,1,120,2|2,1:2|0:0,0:0:0:0:
505,313,60914,1,2,0:0:0:0:
493,217,61435,1,8,0:0:0:0:
480,121,61957,5,6,1:2:0:0:
480,121,62218,2,0,L|495:65,1,40,2|10,1:2|0:0,0:0:0:0:
409,30,63001,2,0,L|397:74,1,40,2|2,1:2|1:2,0:0:0:0:
354,86,63522,1,8,0:0:0:0:
263,54,64044,2,0,P|213:51|175:45,1,80,2|10,1:2|0:0,0:0:0:0:
88,62,65088,2,0,L|78:17,2,40,2|2|10,1:2|1:2|0:0,0:0:0:0:
23,133,66131,5,2,1:2:0:0:
68,217,66653,2,0,L|51:282,1,60,8|8,0:0|0:0,0:0:0:0:
123,335,67425,1,2,1:2:0:0:
123,335,67685,1,10,0:0:0:0:
192,259,68217,6,0,L|245:251,1,40,2|0,1:2|1:2,0:0:0:0:
272,226,68738,1,8,0:0:0:0:
272,226,68999,2,0,L|352:244,1,80,2|2,0:2|1:2,0:0:0:0:
380,280,69783,1,10,0:0:0:0:
461,229,70303,6,0,P|471:166|477:140,1,80,6|10,1:2|0:0,0:0:0:0:
456,105,71086,1,2,0:0:0:0:
456,105,71347,2,0,L|443:55,2,40,2|2|10,1:2|1:2|0:0,0:0:0:0:
362,127,72390,2,0,B|315:120|336:96|275:88,1,80,2|10,1:2|0:0,0:0:0:0:
206,129,73435,1,2,1:2:0:0:
206,129,73696,2,0,L|214:169,2,40,2|8|4,1:2|0:0|0:3,0:0:0:0:
166,101,74477,2,0,L|173:11,1,80,2|10,1:2|0:0,0:0:0:0:
76,13,75522,6,0,L|69:92,1,80,2|8,1:2|0:0,0:0:0:0:
27,116,76303,1,2,1:2:0:0:
27,116,76564,2,0,L|-24:108,2,40,2|2|10,1:2|1:2|0:0,0:0:0:0:
79,203,77609,1,2,1:2:0:0:
79,203,77870,2,0,L|163:191,1,80,0|8,1:2|0:3,0:0:0:0:
200,214,78651,5,6,1:2:0:0:
276,281,79173,1,10,0:0:0:0:
276,281,79435,2,0,L|255:370,1,80,2|2,0:0|1:2,0:0:0:0:
304,372,80218,1,8,0:0:0:0:
393,337,80738,2,0,L|385:287,1,40,2|2,1:2|1:2,0:0:0:0:
426,270,81260,2,0,L|440:174,1,80,10|2,0:0|1:2,0:0:0:0:
405,155,82044,1,2,1:2:0:0:
405,155,82303,2,0,L|395:102,1,40,10|8,0:0|0:3,0:0:0:0:
256,192,82825,12,2,86738,0:0:0:0:
