osu file format v14

[General]
AudioFilename: audio.mp3
AudioLeadIn: 0
PreviewTime: 132
Countdown: 0
SampleSet: Soft
StackLeniency: 0.7
Mode: 0
LetterboxInBreaks: 0
WidescreenStoryboard: 0

[Editor]
DistanceSpacing: 1.3
BeatDivisor: 4
GridSize: 4
TimelineZoom: 3.499999

[Metadata]
Title:Again
TitleUnicode:Again
Artist:YUI
ArtistUnicode:YUI
Creator:gary00737
Version:Insane
Source:Full Metal Alchemist: Brotherhood
Tags:FMA2 FMA 鋼の錬金術師
BeatmapID:1223463
BeatmapSetID:577969

[Difficulty]
HPDrainRate:5
CircleSize:4
OverallDifficulty:8
ApproachRate:9
SliderMultiplier:1.4
SliderTickRate:1

[Events]
//Background and Video events
0,0,"maxresdefault.jpg",0,0
//Break Periods
//Storyboard Layer 0 (Background)
//Storyboard Layer 1 (Fail)
//Storyboard Layer 2 (Pass)
//Storyboard Layer 3 (Foreground)
//Storyboard Sound Samples

[TimingPoints]
370,428.571428571429,4,2,0,50,1,0
12344,428.571428571429,4,2,0,50,1,0
12344,-100,4,2,0,50,0,1
27786,428.571428571429,4,2,0,50,1,0
27786,-100,4,2,0,50,0,0
55196,428.571428571429,4,2,0,50,1,0
55196,-74.0740740740741,4,2,0,50,0,0
68910,-74.0740740740741,4,2,0,50,0,1
91165,428.571428571429,4,2,0,50,1,0
91165,-74.0740740740741,4,2,0,50,0,0
92879,-100,4,2,0,50,0,0

[Colours]
Combo1 : 241,236,14
Combo2 : 255,0,0

[HitObjects]
48,160,155,5,0,0:0:0:0:
104,88,370,2,0,P|152:64|212:84,1,105,2|0,0:0|0:0,0:0:0:0:
216,84,798,2,0,L|240:172,1,70
338,251,1227,1,0,0:0:0:0:
289,327,1441,1,0,0:0:0:0:
348,112,1870,6,0,L|370:85,1,35
340,128,2084,2,0,L|388:208,1,70,2|0,0:0|0:0,0:0:0:0:
284,204,2512,2,0,P|256:220|216:220,1,70
285,49,3155,1,0,0:0:0:0:
479,140,3584,5,0,0:0:0:0:
463,148,3691,1,0,0:0:0:0:
451,156,3798,2,0,P|439:204|415:240,1,70,2|0,0:0|0:0,0:0:0:0:
288,193,4227,2,0,P|320:181|355:178,1,70
402,314,4655,2,0,P|366:279|347:240,1,70
218,220,5084,1,0,0:0:0:0:
218,220,5512,6,0,P|170:206|135:181,1,70,2|0,0:0|0:0,0:0:0:0:
92,68,5941,2,0,P|104:115|99:158,1,70,0|2,0:0|0:0,0:0:0:0:
33,262,6369,2,0,P|70:228|90:189,1,70,0|2,0:0|0:0,0:0:0:0:
164,176,7012,5,0,0:0:0:0:
172,192,7120,1,0,0:0:0:0:
180,208,7227,2,0,L|180:304,1,70,2|0,0:0|0:0,0:0:0:0:
211,310,7548,1,0,0:0:0:0:
211,310,7655,2,0,L|296:308,1,70
315,277,7977,2,0,B|326:241|349:226|349:226|346:191|362:157,1,105
224,88,8727,5,0,0:0:0:0:
172,12,8941,2,0,P|120:20|76:40,1,70,2|0,0:0|0:0,0:0:0:0:
224,88,9370,2,0,P|264:92|296:108,1,70
288,124,9691,2,0,P|272:184|272:208,1,70
143,257,10120,2,0,B|91:229|47:157,1,140
35,141,10655,6,0,L|35:221,1,70,2|0,0:0|0:0,0:0:0:0:
143,257,11084,2,0,B|199:277|243:357|243:357|259:317|279:293,1,210
296,160,11941,1,4,0:0:0:0:
96,144,12344,6,0,P|120:184|108:292,1,140,8|8,0:0|0:0,0:0:0:0:
162,103,12986,1,0,0:0:0:0:
174,91,13094,1,0,0:0:0:0:
186,79,13201,2,0,L|282:59,1,70,8|0,0:0|0:0,0:0:0:0:
376,160,13629,1,8,0:0:0:0:
292,124,13844,2,0,P|260:80|252:44,1,70,0|8,0:0|0:0,0:0:0:0:
352,56,14272,5,0,0:0:0:0:
376,160,14486,1,8,0:0:0:0:
260,188,14701,2,0,L|200:188,1,35,8|0,0:0|0:0,0:0:0:0:
132,124,14915,2,0,L|180:124,1,35,8|0,0:0|0:0,0:0:0:0:
292,124,15129,1,8,0:0:0:0:
100,188,15344,1,8,0:0:0:0:
140,288,15558,1,0,0:0:0:0:
100,188,15772,6,0,B|68:124|36:92|36:92|68:92,1,140,8|8,0:0|0:0,0:0:0:0:
231,41,16415,1,0,0:0:0:0:
243,53,16522,1,0,0:0:0:0:
255,65,16629,2,0,P|207:81|183:97,1,70,8|0,0:0|0:0,0:0:0:0:
176,180,17058,1,8,0:0:0:0:
108,120,17272,6,0,B|108:152|76:180|76:180|108:208|107:240,1,140,8|8,0:0|0:0,0:0:0:0:
66,330,17915,2,0,P|101:340|145:332,1,70,8|0,0:0|0:0,0:0:0:0:
240,332,18344,2,0,L|228:368,1,35,8|0,0:0|0:0,0:0:0:0:
260,332,18558,2,0,L|340:304,1,70,8|8,0:0|0:0,0:0:0:0:
264,192,19201,6,0,P|320:164|340:108,1,105,8|0,0:0|0:0,0:0:0:0:
372,100,19629,2,0,L|372:192,1,70,8|0,0:0|0:0,0:0:0:0:
372,252,19951,1,0,0:0:0:0:
388,268,20058,2,0,L|456:312,1,70,8|0,0:0|0:0,0:0:0:0:
264,192,20486,1,8,0:0:0:0:
208,264,20701,2,0,P|240:308|248:344,1,70,0|8,0:0|0:0,0:0:0:0:
152,332,21129,5,0,0:0:0:0:
116,248,21344,1,8,0:0:0:0:
184,192,21558,2,0,L|184:132,1,35,8|0,0:0|0:0,0:0:0:0:
248,64,21772,2,0,L|248:112,1,35,8|0,0:0|0:0,0:0:0:0:
248,224,21986,1,8,0:0:0:0:
184,32,22200,1,8,0:0:0:0:
248,99,22415,1,0,0:0:0:0:
360,132,22629,6,0,P|428:136|504:148,1,140,8|8,0:0|0:0,0:0:0:0:
344,52,23272,1,8,0:0:0:0:
328,52,23379,1,8,0:0:0:0:
312,52,23486,2,0,P|260:56|232:64,1,70,8|0,0:0|0:0,0:0:0:0:
48,136,23915,1,8,0:0:0:0:
120,84,24129,2,0,L|148:176,1,70,8|0,0:0|0:0,0:0:0:0:
192,304,24558,1,8,0:0:0:0:
92,212,24772,5,8,0:0:0:0:
267,247,24986,1,8,0:0:0:0:
111,322,25201,1,8,0:0:0:0:
224,174,25415,1,8,0:0:0:0:
264,348,25629,1,8,0:0:0:0:
401,295,25844,1,8,0:0:0:0:
232,276,26058,5,8,0:0:0:0:
216,272,26165,1,8,0:0:0:0:
200,268,26272,2,0,L|168:188,1,70,8|8,0:0|0:0,0:0:0:0:
268,88,26701,1,8,0:0:0:0:
284,92,26808,1,8,0:0:0:0:
300,96,26915,2,0,L|332:172,1,70,8|8,0:0|0:0,0:0:0:0:
384,300,27344,1,8,0:0:0:0:
368,308,27451,1,8,0:0:0:0:
352,316,27558,1,8,0:0:0:0:
204,272,27786,6,0,B|132:260|68:296|68:296|92:256|92:224,1,210,2|0,0:0|0:0,0:0:0:0:
180,72,28858,1,0,0:0:0:0:
232,164,29072,2,0,P|261:142|282:99,1,70
91,231,29500,1,2,0:0:0:0:
204,272,29715,2,0,B|256:300|316:308|316:308|276:320,1,140,0|2,0:0|0:0,0:0:0:0:
295,314,31000,5,0,0:0:0:0:
304,300,31108,1,0,0:0:0:0:
312,284,31215,2,0,L|304:196,1,70,2|0,0:0|0:0,0:0:0:0:
320,124,31643,1,0,0:0:0:0:
392,68,31858,2,0,L|492:52,1,70,2|0,0:0|0:0,0:0:0:0:
328,12,32286,1,0,0:0:0:0:
204,148,32715,5,0,0:0:0:0:
120,68,32929,2,0,L|20:52,1,70,2|0,0:0|0:0,0:0:0:0:
204,148,33358,1,0,0:0:0:0:
288,228,33572,2,0,L|388:244,1,70,2|0,0:0|0:0,0:0:0:0:
504,256,34000,1,0,0:0:0:0:
424,212,34215,1,2,0:0:0:0:
408,376,34429,1,2,0:0:0:0:
484,352,34643,6,0,P|408:295|371:304,1,140,2|0,0:0|0:0,0:0:0:0:
408,376,35286,1,2,0:0:0:0:
300,228,35715,5,0,0:0:0:0:
383,204,35929,2,0,P|386:238|376:272,1,70
332,157,36357,2,0,P|350:127|378:106,1,70,2|0,0:0|0:0,0:0:0:0:
464,104,36786,1,0,0:0:0:0:
372,12,37000,1,2,0:0:0:0:
276,104,37215,1,0,0:0:0:0:
370,111,37428,5,0,0:0:0:0:
278,11,37642,1,2,0:0:0:0:
182,103,37858,1,0,0:0:0:0:
170,115,37965,1,0,0:0:0:0:
158,127,38072,2,0,L|146:215,1,70,2|0,0:0|0:0,0:0:0:0:
104,280,38500,1,0,0:0:0:0:
184,348,38715,2,0,B|224:344|248:320,1,70,2|0,0:0|0:0,0:0:0:0:
332,176,39143,6,0,P|372:192|400:236,1,70
444,340,39572,1,0,0:0:0:0:
324,256,39786,1,2,0:0:0:0:
456,168,40000,1,0,0:0:0:0:
360,336,40215,1,0,0:0:0:0:
332,176,40429,1,2,0:0:0:0:
239,55,40643,2,0,L|166:61,1,70
113,200,41072,5,2,0:0:0:0:
204,164,41286,1,0,0:0:0:0:
204,164,41393,1,0,0:0:0:0:
204,164,41500,2,0,P|241:143|266:113,1,70,2|0,0:0|0:0,0:0:0:0:
300,256,41929,1,0,0:0:0:0:
208,344,42143,1,2,0:0:0:0:
192,344,42251,1,0,0:0:0:0:
176,344,42358,6,0,P|156:304|160:264,1,70
172,116,42786,2,0,P|124:116|88:140,1,70
40,240,43215,1,2,0:0:0:0:
155,279,43429,1,0,0:0:0:0:
28,168,43643,1,0,0:0:0:0:
88,308,43858,1,2,0:0:0:0:
168,200,44072,1,0,0:0:0:0:
88,76,44286,5,0,0:0:0:0:
96,60,44393,1,0,0:0:0:0:
104,44,44500,2,0,L|200:24,1,70,2|2,0:0|0:0,0:0:0:0:
280,52,44929,1,2,0:0:0:0:
236,156,45143,1,0,0:0:0:0:
128,112,45358,1,0,0:0:0:0:
280,52,45572,2,0,B|368:24|404:104,1,140,2|0,0:0|0:0,0:0:0:0:
396,112,46108,1,0,0:0:0:0:
392,128,46215,2,0,L|376:200,1,70,0|2,0:0|0:0,0:0:0:0:
212,112,46643,5,2,0:0:0:0:
212,112,47072,2,0,L|120:96,1,70,0|2,0:0|0:0,0:0:0:0:
370,78,47714,2,0,L|462:62,1,70,0|2,0:0|0:0,0:0:0:0:
248,136,48572,5,0,0:0:0:0:
370,78,48786,2,0,L|462:62,1,70,0|2,0:0|0:0,0:0:0:0:
429,204,49215,1,0,0:0:0:0:
414,202,49322,1,0,0:0:0:0:
400,201,49429,1,0,0:0:0:0:
385,199,49536,1,0,0:0:0:0:
371,197,49643,1,0,0:0:0:0:
508,224,49858,1,2,0:0:0:0:
371,197,50072,5,2,0:0:0:0:
404,332,50286,1,0,0:0:0:0:
446,187,50500,1,0,0:0:0:0:
290,310,50715,2,0,P|224:315|161:328,1,105,2|0,0:0|0:0,0:0:0:0:
56,337,51250,1,0,0:0:0:0:
40,341,51358,2,0,P|56:285|56:249,1,70,0|2,0:0|0:0,0:0:0:0:
76,152,51786,5,2,0:0:0:0:
180,176,52000,1,0,0:0:0:0:
264,112,52215,1,0,0:0:0:0:
352,168,52429,2,0,P|348:208|320:248,1,70,2|0,0:0|0:0,0:0:0:0:
380,84,52858,1,0,0:0:0:0:
264,112,53072,1,0,0:0:0:0:
150,57,53286,1,2,0:0:0:0:
88,160,53500,1,2,0:0:0:0:
88,160,53928,5,8,0:0:0:0:
200,296,54143,1,8,0:0:0:0:
200,208,54357,1,0,0:0:0:0:
80,336,54571,1,8,0:0:0:0:
8,176,54786,1,8,0:0:0:0:
276,316,55196,5,10,0:0:0:0:
300,320,55303,1,0,0:0:0:0:
324,324,55410,2,0,L|344:280,1,47.2500001802444,10|0,0:0|0:0,0:0:0:0:
392,164,55624,1,0,0:0:0:0:
160,252,55838,2,0,L|160:204,1,47.2500001802444,2|0,0:0|0:0,0:0:0:0:
148,96,56053,2,0,L|196:108,1,47.2500001802444,8|0,0:0|0:0,0:0:0:0:
260,204,56267,2,0,L|260:156,1,47.2500001802444,2|0,0:0|0:0,0:0:0:0:
236,48,56482,2,0,L|284:60,1,47.2500001802444,8|0,0:0|0:0,0:0:0:0:
305,215,56696,2,0,L|259:203,1,47.2500001802444,8|0,0:0|0:0,0:0:0:0:
104,152,56910,6,0,L|59:163,1,47.2500001802444,8|0,0:0|0:0,0:0:0:0:
36,92,57124,2,0,L|24:46,1,47.2500001802444,8|0,0:0|0:0,0:0:0:0:
80,232,57339,1,8,0:0:0:0:
88,256,57446,1,0,0:0:0:0:
96,280,57553,1,2,0:0:0:0:
104,304,57660,1,0,0:0:0:0:
112,328,57767,6,0,L|64:344,1,47.2500001802444,8|0,0:0|0:0,0:0:0:0:
240,280,57981,2,0,L|284:294,1,47.2500001802444,2|0,0:0|0:0,0:0:0:0:
120,192,58196,2,0,L|72:176,1,47.2500001802444,8|0,0:0|0:0,0:0:0:0:
220,120,58410,1,2,0:0:0:0:
240,280,58624,5,8,0:0:0:0:
344,172,58838,1,8,0:0:0:0:
320,176,58946,1,0,0:0:0:0:
296,180,59053,2,0,L|202:195,1,94.5000003604889,8|2,0:0|0:0,0:0:0:0:
360,232,59481,2,0,L|456:216,1,94.5000003604889,8|2,0:0|0:0,0:0:0:0:
292,336,59910,1,8,0:0:0:0:
112,264,60124,1,2,0:0:0:0:
112,244,60231,1,0,0:0:0:0:
112,224,60339,6,0,L|16:208,2,94.5000003604889,10|8|8,0:0|0:0|0:0,0:0:0:0:
200,144,60981,1,8,0:0:0:0:
112,72,61196,2,0,L|16:88,1,94.5000003604889,2|8,0:0|0:0,0:0:0:0:
18,208,61624,1,8,0:0:0:0:
191,230,61838,1,10,0:0:0:0:
236,68,62053,5,10,0:0:0:0:
212,64,62160,1,0,0:0:0:0:
188,60,62267,2,0,L|168:104,1,47.2500001802444,10|0,0:0|0:0,0:0:0:0:
191,230,62481,2,0,L|295:270,1,94.5000003604889,8|2,0:0|0:0,0:0:0:0:
432,248,62803,1,0,0:0:0:0:
424,224,62910,2,0,B|352:184|328:144|328:144|328:200,1,141.750000540733,8|0,0:0|0:0,0:0:0:0:
280,264,63338,2,0,P|240:248|216:176,1,94.5000003604889,8|2,0:0|0:0,0:0:0:0:
224,80,63767,6,0,L|284:88,1,47.2500001802444,8|0,0:0|0:0,0:0:0:0:
380,132,63981,2,0,L|356:188,1,47.2500001802444,10|0,0:0|0:0,0:0:0:0:
321,286,64196,2,0,L|277:262,1,47.2500001802444,8|0,0:0|0:0,0:0:0:0:
200,176,64410,2,0,L|172:216,1,47.2500001802444,2|0,0:0|0:0,0:0:0:0:
108,312,64624,2,0,L|85:271,1,47.2500001802444,8|0,0:0|0:0,0:0:0:0:
48,160,64838,2,0,L|96:186,1,47.2500001802444,2|0,0:0|0:0,0:0:0:0:
216,332,65052,1,8,0:0:0:0:
214,204,65267,1,2,0:0:0:0:
376,56,65481,5,8,0:0:0:0:
340,252,65696,1,10,0:0:0:0:
336,276,65803,1,0,0:0:0:0:
332,300,65910,2,0,P|392:312|430:291,1,94.5000003604889,8|0,0:0|0:0,0:0:0:0:
480,104,66338,2,0,L|452:160,1,47.2500001802444,8|0,0:0|0:0,0:0:0:0:
376,228,66553,2,0,L|372:180,1,47.2500001802444,8|0,0:0|0:0,0:0:0:0:
252,64,66767,2,0,L|280:184,1,94.5000003604889,8|8,0:0|0:0,0:0:0:0:
104,292,67196,6,0,B|72:252|28:228|28:228|76:232,1,141.750000540733,10|0,0:0|0:0,0:0:0:0:
92,228,67624,2,0,P|156:184|152:168,1,94.5000003604889,10|8,0:0|0:0,0:0:0:0:
140,28,68053,1,8,0:0:0:0:
160,38,68160,1,0,0:0:0:0:
181,49,68267,1,10,0:0:0:0:
203,60,68374,1,0,0:0:0:0:
224,71,68481,1,8,0:0:0:0:
246,81,68589,1,0,0:0:0:0:
267,92,68696,1,10,0:0:0:0:
288,103,68803,1,0,0:0:0:0:
312,116,68910,6,0,P|364:164|380:200,1,94.5000003604889,8|0,0:0|0:0,0:0:0:0:
488,168,69339,2,0,L|424:256,1,94.5000003604889,8|10,0:0|0:0,0:0:0:0:
420,264,69660,1,0,0:0:0:0:
404,284,69767,2,0,L|296:244,1,94.5000003604889,8|10,0:0|0:0,0:0:0:0:
140,216,70196,1,8,0:0:0:0:
48,48,70410,1,10,0:0:0:0:
68,64,70517,1,0,0:0:0:0:
88,80,70624,6,0,L|184:36,1,94.5000003604889,8|10,0:0|0:0,0:0:0:0:
308,192,71053,2,0,L|196:168,1,94.5000003604889,8|10,0:0|0:0,0:0:0:0:
112,156,71374,2,0,L|136:232,1,47.2500001802444,0|8,0:0|0:0,0:0:0:0:
192,352,71588,2,0,L|208:300,1,47.2500001802444,0|10,0:0|0:0,0:0:0:0:
276,80,71910,1,8,0:0:0:0:
448,264,72124,1,10,0:0:0:0:
460,284,72231,1,0,0:0:0:0:
472,304,72339,6,0,L|368:352,1,94.5000003604889,8|10,0:0|0:0,0:0:0:0:
432,244,72767,2,0,L|432:132,1,94.5000003604889,8|10,0:0|0:0,0:0:0:0:
432,124,73088,1,0,0:0:0:0:
432,100,73196,1,8,0:0:0:0:
240,48,73410,1,10,0:0:0:0:
432,52,73624,1,8,0:0:0:0:
364,180,73838,1,10,0:0:0:0:
348,196,73946,1,0,0:0:0:0:
332,212,74053,6,0,P|288:176|232:180,1,94.5000003604889,8|10,0:0|0:0,0:0:0:0:
304,288,74481,2,0,P|348:324|404:320,1,94.5000003604889,8|10,0:0|0:0,0:0:0:0:
328,212,74910,1,8,0:0:0:0:
280,56,75124,1,10,0:0:0:0:
248,173,75339,1,8,0:0:0:0:
228,160,75446,1,8,0:0:0:0:
208,148,75553,1,10,0:0:0:0:
188,136,75660,1,8,0:0:0:0:
168,124,75767,6,0,L|84:168,1,94.5000003604889,8|10,0:0|0:0,0:0:0:0:
8,208,76196,1,8,0:0:0:0:
200,232,76410,1,10,0:0:0:0:
200,232,76517,1,0,0:0:0:0:
200,232,76624,1,8,0:0:0:0:
38,294,76838,2,0,P|14:254|10:190,1,94.5000003604889,10|8,0:0|0:0,0:0:0:0:
92,72,77267,1,10,0:0:0:0:
140,268,77481,5,8,0:0:0:0:
45,137,77696,1,10,0:0:0:0:
174,43,77910,1,8,0:0:0:0:
279,186,78124,1,10,0:0:0:0:
288,208,78231,1,0,0:0:0:0:
296,232,78338,2,0,L|268:296,1,47.2500001802444,8|0,0:0|0:0,0:0:0:0:
389,143,78553,2,0,L|408:100,1,47.2500001802444,10|0,0:0|0:0,0:0:0:0:
444,248,78767,2,0,P|401:296|354:302,1,94.5000003604889,8|10,0:0|0:0,0:0:0:0:
192,248,79196,5,8,0:0:0:0:
16,208,79410,1,10,0:0:0:0:
160,344,79624,1,8,0:0:0:0:
64,316,79839,1,10,0:0:0:0:
64,316,79946,1,0,0:0:0:0:
64,316,80053,1,8,0:0:0:0:
72,96,80267,1,10,0:0:0:0:
244,172,80481,1,8,0:0:0:0:
8,208,80696,1,10,0:0:0:0:
16,232,80803,1,0,0:0:0:0:
24,256,80910,6,0,P|80:252|136:272,1,94.5000003604889,8|10,0:0|0:0,0:0:0:0:
268,320,81339,1,8,0:0:0:0:
232,172,81553,1,10,0:0:0:0:
208,164,81660,1,8,0:0:0:0:
184,156,81767,1,8,0:0:0:0:
260,52,81981,1,10,0:0:0:0:
424,59,82196,1,8,0:0:0:0:
447,63,82303,1,8,0:0:0:0:
469,76,82410,1,10,0:0:0:0:
482,94,82517,1,8,0:0:0:0:
490,116,82624,6,0,P|441:135|383:180,1,94.5000003604889,8|10,0:0|0:0,0:0:0:0:
296,320,83053,1,8,0:0:0:0:
472,308,83267,1,10,0:0:0:0:
472,308,83374,1,0,0:0:0:0:
472,308,83481,1,8,0:0:0:0:
396,136,83696,1,10,0:0:0:0:
296,320,83910,1,8,0:0:0:0:
464,188,84124,1,10,0:0:0:0:
464,188,84231,1,0,0:0:0:0:
464,188,84338,5,8,0:0:0:0:
388,352,84553,1,10,0:0:0:0:
340,168,84767,1,8,0:0:0:0:
464,320,84981,2,0,L|416:280,1,47.2500001802444,10|0,0:0|0:0,0:0:0:0:
260,192,85196,2,0,L|312:232,1,47.2500001802444,8|0,0:0|0:0,0:0:0:0:
480,208,85410,1,10,0:0:0:0:
496,80,85624,1,8,0:0:0:0:
260,52,85839,5,10,0:0:0:0:
244,68,85946,1,8,0:0:0:0:
228,84,86053,2,0,P|184:52|130:58,1,94.5000003604889,8|10,0:0|0:0,0:0:0:0:
164,128,86481,2,0,P|147:179|164:230,1,94.5000003604889,8|10,0:0|0:0,0:0:0:0:
228,180,86910,2,0,P|284:156|308:112,1,94.5000003604889,8|10,0:0|0:0,0:0:0:0:
336,32,87339,2,0,L|444:32,1,94.5000003604889,8|10,0:0|0:0,0:0:0:0:
436,56,87660,1,0,0:0:0:0:
444,80,87767,5,8,0:0:0:0:
496,260,87981,1,10,0:0:0:0:
416,192,88196,1,8,0:0:0:0:
308,332,88410,1,10,0:0:0:0:
228,168,88624,1,8,0:0:0:0:
312,228,88839,1,10,0:0:0:0:
164,128,89053,1,8,0:0:0:0:
144,116,89160,1,8,0:0:0:0:
124,104,89267,1,10,0:0:0:0:
104,92,89374,1,8,0:0:0:0:
84,80,89481,6,0,P|40:140|40:176,1,94.5000003604889,8|10,0:0|0:0,0:0:0:0:
88,284,89910,1,8,0:0:0:0:
196,104,90124,1,10,0:0:0:0:
212,88,90231,1,8,0:0:0:0:
227,71,90339,2,0,P|266:95|284:138,1,94.5000003604889,8|10,0:0|0:0,0:0:0:0:
124,88,90767,2,0,P|85:64|67:21,1,94.5000003604889,8|10,0:0|0:0,0:0:0:0:
88,248,91165,6,0,B|116:292|160:328,1,94.5000003604889,8|0,0:0|0:0,0:0:0:0:
336,344,91486,2,0,L|376:368,2,47.2500001802444,8|8|8,0:0|0:0|0:0,0:0:0:0:
168,176,91808,2,0,L|208:152,1,47.2500001802444,8|8,0:0|0:0,0:0:0:0:
376,136,92022,2,0,L|352:176,1,47.2500001802444,8|0,0:0|0:0,0:0:0:0:
256,344,92237,2,0,L|280:288,1,47.2500001802444,8|0,0:0|0:0,0:0:0:0:
322,68,92450,2,0,P|401:54|462:137,1,189.000000720978,8|4,0:0|0:0,0:0:0:0:
