osu file format v14

[General]
AudioFilename: audio.mp3
AudioLeadIn: 0
PreviewTime: 132
Countdown: 0
SampleSet: Soft
StackLeniency: 0.7
Mode: 0
LetterboxInBreaks: 0
WidescreenStoryboard: 1

[Editor]
DistanceSpacing: 1.3
BeatDivisor: 4
GridSize: 4
TimelineZoom: 2.5

[Metadata]
Title:Again
TitleUnicode:Again
Artist:YUI
ArtistUnicode:YUI
Creator:gary00737
Version:Hard
Source:Full Metal Alchemist: Brotherhood
Tags:FMA2 FMA 鋼の錬金術師
BeatmapID:1234403
BeatmapSetID:577969

[Difficulty]
HPDrainRate:4
CircleSize:3.6
OverallDifficulty:6
ApproachRate:7.5
SliderMultiplier:1.4
SliderTickRate:1

[Events]
//Background and Video events
0,0,"maxresdefault.jpg",0,0
//Break Periods
//Storyboard Layer 0 (Background)
//Storyboard Layer 1 (Fail)
//Storyboard Layer 2 (Pass)
//Storyboard Layer 3 (Foreground)
//Storyboard Sound Samples

[TimingPoints]
370,428.571428571429,4,2,0,50,1,0
12344,428.571428571429,4,2,0,50,1,0
12344,-100,4,2,0,50,0,1
27786,428.571428571429,4,2,0,50,1,0
27786,-100,4,2,0,50,0,0
55196,428.571428571429,4,2,0,50,1,0
55196,-74.0740740740741,4,2,0,50,0,0
68910,-74.0740740740741,4,2,0,50,0,1
91165,428.571428571429,4,2,0,50,1,0
91165,-74.0740740740741,4,2,0,50,0,0
92879,-100,4,2,0,50,0,0

[Colours]
Combo1 : 241,236,14
Combo2 : 255,0,0

[HitObjects]
236,92,155,5,0,0:0:0:0:
236,92,370,2,0,P|216:157|158:194,1,140,2|0,0:0|0:0,0:0:0:0:
96,256,1012,2,0,P|76:227|70:192,2,70
164,320,1655,1,0,0:0:0:0:
240,264,1870,5,0,0:0:0:0:
240,264,2084,2,0,L|308:249,1,70,2|0,0:0|0:0,0:0:0:0:
404,276,2512,1,0,0:0:0:0:
404,276,2727,2,0,P|384:186|347:158,1,140,2|0,0:0|0:0,0:0:0:0:
269,115,3370,1,0,0:0:0:0:
222,196,3584,5,0,0:0:0:0:
222,196,3798,2,0,L|246:288,1,70,2|0,0:0|0:0,0:0:0:0:
175,329,4227,2,0,L|156:261,1,70,0|2,0:0|0:0,0:0:0:0:
68,238,4655,2,0,L|86:305,1,70
20,368,5084,1,0,0:0:0:0:
163,257,5512,6,0,P|198:262|228:280,1,70,2|0,0:0|0:0,0:0:0:0:
167,348,5941,1,0,0:0:0:0:
84,309,6155,2,0,P|73:227|111:178,1,140,2|0,0:0|0:0,0:0:0:0:
188,147,6798,1,0,0:0:0:0:
262,199,7012,5,0,0:0:0:0:
262,199,7227,2,0,L|278:299,1,70,2|0,0:0|0:0,0:0:0:0:
308,352,7655,1,0,0:0:0:0:
308,352,7870,2,0,P|380:340|444:392,1,140,2|0,0:0|0:0,0:0:0:0:
492,302,8512,1,0,0:0:0:0:
486,210,8727,5,0,0:0:0:0:
486,210,8941,2,0,L|466:126,1,70,2|0,0:0|0:0,0:0:0:0:
389,97,9370,2,0,L|381:166,1,70,0|2,0:0|0:0,0:0:0:0:
363,255,9798,1,0,0:0:0:0:
363,255,10012,2,0,P|303:212|297:137,1,140
252,68,10655,6,0,L|191:102,1,70,2|0,0:0|0:0,0:0:0:0:
125,50,11084,2,0,P|112:133|230:176,1,210
293,150,11941,1,8,0:0:0:0:
419,265,12344,6,0,P|351:293|288:270,1,140,0|8,0:0|0:0,0:0:0:0:
231,203,12986,1,0,0:0:0:0:
231,203,13094,1,0,0:0:0:0:
231,203,13201,2,0,L|207:283,1,70
150,338,13629,1,8,0:0:0:0:
60,320,13844,6,0,L|101:186,1,140
153,106,14486,2,0,P|197:106|233:122,1,70,8|0,0:0|0:0,0:0:0:0:
308,140,14915,1,0,0:0:0:0:
308,140,15022,1,0,0:0:0:0:
308,140,15129,1,0,0:0:0:0:
396,108,15344,1,8,0:0:0:0:
476,276,15772,6,0,P|408:304|345:281,1,140,0|8,0:0|0:0,0:0:0:0:
279,223,16414,1,0,0:0:0:0:
279,223,16522,1,0,0:0:0:0:
279,223,16629,2,0,L|255:143,1,70
198,88,17058,1,8,0:0:0:0:
108,106,17272,6,0,L|149:240,1,140
199,317,17914,2,0,P|243:317|279:301,1,70,8|0,0:0|0:0,0:0:0:0:
348,283,18344,1,0,0:0:0:0:
348,283,18451,1,0,0:0:0:0:
348,283,18558,1,0,0:0:0:0:
356,192,18772,1,8,0:0:0:0:
219,69,19201,6,0,P|151:41|88:64,1,140,0|8,0:0|0:0,0:0:0:0:
46,140,19843,1,0,0:0:0:0:
46,140,19951,1,0,0:0:0:0:
46,140,20058,2,0,L|74:216,1,70
112,286,20486,1,8,0:0:0:0:
163,210,20701,6,0,P|227:182|295:210,1,140
329,284,21344,2,0,P|293:300|245:308,1,70,8|0,0:0|0:0,0:0:0:0:
176,328,21772,1,0,0:0:0:0:
176,328,21879,1,0,0:0:0:0:
176,328,21986,1,0,0:0:0:0:
92,292,22201,1,0,0:0:0:0:
39,117,22629,6,0,P|107:89|170:112,1,140,0|8,0:0|0:0,0:0:0:0:
232,172,23271,1,0,0:0:0:0:
232,172,23379,1,0,0:0:0:0:
232,172,23486,2,0,L|260:96,1,70
339,70,23914,1,8,0:0:0:0:
426,96,24129,6,0,P|470:124|478:228,1,140
405,253,24772,2,0,L|396:170,1,70,8|0,0:0|0:0,0:0:0:0:
308,162,25201,2,0,L|315:231,1,70,8|0,0:0|0:0,0:0:0:0:
237,278,25629,2,0,L|228:195,1,70,8|0,0:0|0:0,0:0:0:0:
157,152,26058,5,8,0:0:0:0:
157,152,26165,1,0,0:0:0:0:
157,152,26272,1,0,0:0:0:0:
76,192,26486,1,8,0:0:0:0:
75,109,26701,1,8,0:0:0:0:
75,109,26808,1,0,0:0:0:0:
75,109,26915,1,0,0:0:0:0:
120,28,27129,1,8,0:0:0:0:
219,52,27344,1,8,0:0:0:0:
219,52,27451,1,0,0:0:0:0:
219,52,27558,1,8,0:0:0:0:
316,52,27786,6,0,P|373:100|356:227,1,210,2|2,0:0|0:0,0:0:0:0:
224,109,28857,2,0,L|280:152,2,70
152,52,29500,5,2,0:0:0:0:
64,36,29714,2,0,L|76:108,1,70
44,192,30143,2,0,L|80:268,1,70,2|0,0:0|0:0,0:0:0:0:
96,344,30571,1,0,0:0:0:0:
184,360,30786,1,0,0:0:0:0:
264,316,31000,1,0,0:0:0:0:
264,316,31214,6,0,L|288:240,1,70,2|0,0:0|0:0,0:0:0:0:
336,172,31643,1,0,0:0:0:0:
420,140,31857,2,0,P|422:202|365:258,1,140,2|0,0:0|0:0,0:0:0:0:
285,249,32500,1,0,0:0:0:0:
244,168,32714,1,0,0:0:0:0:
244,168,32928,6,0,P|252:132|264:92,1,70,2|0,0:0|0:0,0:0:0:0:
312,24,33357,1,0,0:0:0:0:
356,104,33571,1,2,0:0:0:0:
328,192,33786,2,0,P|298:238|214:249,1,140
148,196,34428,1,0,0:0:0:0:
96,120,34643,6,0,P|59:220|134:287,1,210,2|2,0:0|0:0,0:0:0:0:
216,300,35500,1,0,0:0:0:0:
308,292,35714,2,0,L|364:249,2,70
236,349,36357,5,2,0:0:0:0:
148,365,36571,2,0,L|160:293,1,70
128,209,37000,2,0,L|164:133,1,70,2|0,0:0|0:0,0:0:0:0:
180,57,37428,1,0,0:0:0:0:
268,41,37643,1,0,0:0:0:0:
348,85,37857,1,0,0:0:0:0:
348,85,38071,6,0,L|372:161,1,70,2|0,0:0|0:0,0:0:0:0:
420,229,38500,1,0,0:0:0:0:
504,261,38714,2,0,P|506:199|449:143,1,140,2|0,0:0|0:0,0:0:0:0:
369,152,39357,1,0,0:0:0:0:
328,233,39571,1,0,0:0:0:0:
328,233,39785,6,0,P|336:269|348:309,1,70,2|0,0:0|0:0,0:0:0:0:
396,377,40214,1,0,0:0:0:0:
440,297,40428,1,2,0:0:0:0:
412,209,40643,2,0,P|382:163|298:152,1,140
232,205,41285,1,0,0:0:0:0:
180,281,41500,5,2,0:0:0:0:
100,320,41714,2,0,L|108:236,1,70
52,180,42143,2,0,L|0:244,2,70,2|0|0,0:0|0:0|0:0,0:0:0:0:
112,112,42786,1,2,0:0:0:0:
176,47,43000,1,2,0:0:0:0:
264,24,43214,6,0,L|252:120,1,70,2|0,0:0|0:0,0:0:0:0:
328,148,43643,2,0,L|280:224,1,70,0|2,0:0|0:0,0:0:0:0:
256,292,44071,2,0,P|220:280|168:296,1,70
100,308,44500,2,0,P|64:320|12:304,1,70,2|2,0:0|0:0,0:0:0:0:
29,168,44928,6,0,L|57:233,1,70,2|0,0:0|0:0,0:0:0:0:
143,207,45357,2,0,L|131:287,1,70,0|2,0:0|0:0,0:0:0:0:
148,368,45786,1,0,0:0:0:0:
236,344,46000,1,0,0:0:0:0:
236,344,46214,2,0,L|246:274,1,70,2|2,0:0|0:0,0:0:0:0:
260,184,46643,1,2,0:0:0:0:
388,56,47071,5,0,0:0:0:0:
416,144,47286,2,0,P|380:148|336:133,1,70,2|0,0:0|0:0,0:0:0:0:
260,52,47714,1,0,0:0:0:0:
236,140,47928,1,2,0:0:0:0:
144,144,48143,5,2,0:0:0:0:
129,53,48358,1,2,0:0:0:0:
37,64,48572,2,0,L|45:148,1,70
80,220,49001,1,2,0:0:0:0:
12,280,49214,2,0,L|40:308,3,35
68,340,49643,2,0,L|152:356,1,70,2|2,0:0|0:0,0:0:0:0:
228,356,50072,6,0,L|258:263,1,70,2|0,0:0|0:0,0:0:0:0:
300,212,50500,1,0,0:0:0:0:
236,143,50714,2,0,P|201:148|168:136,1,70,2|0,0:0|0:0,0:0:0:0:
100,76,51143,1,0,0:0:0:0:
100,76,51358,2,0,P|64:64|12:80,1,70,2|2,0:0|0:0,0:0:0:0:
29,216,51786,6,0,L|57:151,1,70,2|0,0:0|0:0,0:0:0:0:
143,177,52215,2,0,L|131:97,1,70,0|2,0:0|0:0,0:0:0:0:
152,20,52644,1,0,0:0:0:0:
240,48,52858,1,0,0:0:0:0:
328,28,53072,2,0,L|304:100,1,70,2|2,0:0|0:0,0:0:0:0:
276,180,53501,1,2,0:0:0:0:
388,328,53929,5,2,0:0:0:0:
416,240,54143,2,0,P|380:236|336:251,1,70,2|2,0:0|0:0,0:0:0:0:
260,332,54572,1,2,0:0:0:0:
236,244,54786,1,4,0:0:0:0:
80,316,55196,6,0,L|60:216,1,94.5000003604889,8|8,0:0|0:0,0:0:0:0:
61,223,55517,1,0,0:0:0:0:
61,223,55624,1,0,0:0:0:0:
156,144,55838,1,2,0:0:0:0:
156,144,55946,1,0,0:0:0:0:
156,144,56053,2,0,P|144:99|136:76,3,47.2500001802444,0|0|2|0,0:0|0:0|0:0|0:0,0:0:0:0:
108,48,56481,2,0,L|212:60,1,94.5000003604889,0|2,0:0|0:0,0:0:0:0:
316,104,56910,6,0,L|308:216,1,94.5000003604889,8|8,0:0|0:0,0:0:0:0:
384,296,57338,2,0,L|344:332,3,47.2500001802444,0|0|2|0,0:0|0:0|0:0|0:0,0:0:0:0:
336,384,57767,2,0,L|284:368,3,47.2500001802444,0|0|2|0,0:0|0:0|0:0|0:0,0:0:0:0:
260,316,58196,2,0,P|212:312|144:336,1,94.5000003604889,0|2,0:0|0:0,0:0:0:0:
60,380,58624,6,0,L|44:272,1,94.5000003604889,8|8,0:0|0:0,0:0:0:0:
160,240,59053,2,0,L|173:146,1,94.5000003604889,0|2,0:0|0:0,0:0:0:0:
56,108,59481,2,0,L|66:201,1,94.5000003604889,0|2,0:0|0:0,0:0:0:0:
120,320,59910,2,0,P|179:327|233:293,1,94.5000003604889,0|2,0:0|0:0,0:0:0:0:
300,228,60338,6,0,P|344:213|390:222,2,94.5000003604889,8|0|8,0:0|0:0|0:0,0:0:0:0:
210,313,60981,2,0,P|175:240|216:133,1,189.000000720978,8|8,0:0|0:0,0:0:0:0:
312,76,61624,1,8,0:0:0:0:
420,132,61838,1,8,0:0:0:0:
464,248,62053,6,8,L|476:344,1,94.5000003604889
475,341,62374,1,0,0:0:0:0:
475,341,62481,1,0,0:0:0:0:
360,340,62695,1,2,0:0:0:0:
360,340,62803,1,0,0:0:0:0:
360,340,62910,2,0,P|361:293|364:269,3,47.2500001802444,0|0|2|0,0:0|0:0|0:0|0:0,0:0:0:0:
385,235,63338,2,0,L|286:270,1,94.5000003604889,0|2,0:0|0:0,0:0:0:0:
176,296,63767,6,0,L|160:196,1,94.5000003604889,8|8,0:0|0:0,0:0:0:0:
128,88,64195,2,0,L|168:52,3,47.2500001802444,0|0|2|0,0:0|0:0|0:0|0:0,0:0:0:0:
176,0,64624,2,0,L|228:16,3,47.2500001802444,0|0|2|0,0:0|0:0|0:0|0:0,0:0:0:0:
252,68,65053,2,0,P|300:72|368:48,1,94.5000003604889,0|2,0:0|0:0,0:0:0:0:
452,4,65481,6,0,P|464:52|468:112,1,94.5000003604889,8|8,0:0|0:0,0:0:0:0:
460,144,65803,1,0,0:0:0:0:
460,144,65910,2,0,L|432:248,1,94.5000003604889,0|2,0:0|0:0,0:0:0:0:
352,144,66338,2,0,L|372:88,3,47.2500001802444,0|0|2|0,0:0|0:0|0:0|0:0,0:0:0:0:
392,64,66767,2,0,P|333:57|279:91,1,94.5000003604889,0|2,0:0|0:0,0:0:0:0:
212,156,67195,6,0,P|167:170|121:161,2,94.5000003604889,8|8|8,0:0|0:0|0:0,0:0:0:0:
302,71,67838,2,0,P|337:144|296:251,1,189.000000720978,8|8,0:0|0:0,0:0:0:0:
200,308,68481,1,8,0:0:0:0:
92,252,68695,1,8,0:0:0:0:
48,138,68910,6,0,P|134:107|212:156,1,189.000000720978,8|8,0:0|0:0,0:0:0:0:
112,302,69553,1,8,0:0:0:0:
112,302,69660,1,8,0:0:0:0:
112,302,69767,2,0,L|124:209,1,94.5000003604889,8|8,0:0|0:0,0:0:0:0:
240,248,70196,2,0,L|228:341,1,94.5000003604889,8|0,0:0|0:0,0:0:0:0:
404,311,70624,6,0,P|434:224|386:147,1,189.000000720978,8|8,0:0|0:0,0:0:0:0:
240,248,71267,1,8,0:0:0:0:
239,248,71374,1,8,0:0:0:0:
239,248,71481,2,0,L|332:236,1,94.5000003604889,8|8,0:0|0:0,0:0:0:0:
294,120,71910,2,0,L|200:131,1,94.5000003604889,8|0,0:0|0:0,0:0:0:0:
180,160,72231,1,0,0:0:0:0:
164,188,72338,6,0,L|70:199,1,94.5000003604889,8|0,0:0|0:0,0:0:0:0:
8,92,72767,2,0,L|102:81,1,94.5000003604889,8|0,0:0|0:0,0:0:0:0:
212,28,73196,2,0,L|306:17,1,94.5000003604889,8|0,0:0|0:0,0:0:0:0:
428,16,73624,1,8,0:0:0:0:
484,124,73838,1,8,0:0:0:0:
484,124,73946,1,8,0:0:0:0:
484,124,74053,6,0,L|460:232,1,94.5000003604889,8|8,0:0|0:0,0:0:0:0:
356,276,74481,1,8,0:0:0:0:
237,313,74696,2,0,P|243:221|312:160,1,189.000000720978,10|10,0:0|0:0,0:0:0:0:
420,100,75338,2,0,L|392:60,3,47.2500001802444,8|8|8|8,0:0|0:0|0:0|0:0,0:0:0:0:
416,4,75767,6,0,L|224:32,1,189.000000720978,8|8,0:0|0:0,0:0:0:0:
108,44,76410,1,8,0:0:0:0:
108,44,76517,1,8,0:0:0:0:
108,44,76624,2,0,L|128:136,1,94.5000003604889,8|8,0:0|0:0,0:0:0:0:
196,240,77053,2,0,L|212:136,1,94.5000003604889,8|0,0:0|0:0,0:0:0:0:
284,244,77481,6,0,P|257:304|219:326,1,94.5000003604889,8|0,0:0|0:0,0:0:0:0:
112,304,77910,1,8,0:0:0:0:
92,184,78124,2,0,P|56:212|0:236,2,94.5000003604889,0|8|0,0:0|0:0|0:0,0:0:0:0:
160,80,78767,1,8,0:0:0:0:
403,59,79196,6,0,L|507:43,2,94.5000003604889,8|0|8,0:0|0:0|0:0,0:0:0:0:
306,134,79838,1,8,0:0:0:0:
306,134,79946,1,8,0:0:0:0:
306,134,80053,2,0,L|285:241,1,94.5000003604889,8|8,0:0|0:0,0:0:0:0:
262,346,80481,1,8,0:0:0:0:
202,237,80696,1,0,0:0:0:0:
202,237,80910,6,0,P|155:230|111:246,1,94.5000003604889,8|0,0:0|0:0,0:0:0:0:
51,353,81338,1,8,0:0:0:0:
4,238,81553,2,0,P|55:156|149:145,1,189.000000720978,10|10,0:0|0:0,0:0:0:0:
261,164,82196,2,0,L|293:116,3,47.2500001802444,8|8|8|8,0:0|0:0|0:0|0:0,0:0:0:0:
281,63,82624,6,0,P|366:94|395:181,1,189.000000720978,8|8,0:0|0:0,0:0:0:0:
225,229,83267,1,8,0:0:0:0:
225,229,83374,1,8,0:0:0:0:
225,229,83481,2,0,L|293:165,1,94.5000003604889,8|8,0:0|0:0,0:0:0:0:
358,270,83910,2,0,L|289:333,1,94.5000003604889,8|0,0:0|0:0,0:0:0:0:
171,370,84338,6,0,P|111:299|129:210,1,189.000000720978,8|8,0:0|0:0,0:0:0:0:
301,252,84981,1,8,0:0:0:0:
302,252,85088,1,8,0:0:0:0:
302,252,85195,2,0,L|210:274,1,94.5000003604889,8|8,0:0|0:0,0:0:0:0:
205,152,85624,2,0,L|296:128,1,94.5000003604889,8|0,0:0|0:0,0:0:0:0:
326,148,85945,1,0,0:0:0:0:
350,169,86052,6,0,L|441:145,1,94.5000003604889,8|0,0:0|0:0,0:0:0:0:
462,34,86481,2,0,L|370:57,1,94.5000003604889,8|0,0:0|0:0,0:0:0:0:
248,36,86910,2,0,L|156:59,1,94.5000003604889,8|0,0:0|0:0,0:0:0:0:
42,103,87338,1,8,0:0:0:0:
29,224,87552,1,8,0:0:0:0:
29,224,87660,1,8,0:0:0:0:
29,224,87767,6,0,L|90:316,1,94.5000003604889,8|8,0:0|0:0,0:0:0:0:
203,320,88195,1,8,0:0:0:0:
327,312,88410,2,0,P|288:228|202:196,1,189.000000720978,10|10,0:0|0:0,0:0:0:0:
80,178,89053,2,0,L|91:130,3,47.2500001802444,8|8|8|8,0:0|0:0|0:0|0:0,0:0:0:0:
49,87,89481,6,0,L|238:44,1,189.000000720978,8|8,0:0|0:0,0:0:0:0:
351,34,90124,1,8,0:0:0:0:
351,34,90231,1,8,0:0:0:0:
351,34,90338,2,0,L|365:127,1,94.5000003604889,8|8,0:0|0:0,0:0:0:0:
339,229,90767,2,0,L|286:137,1,94.5000003604889,8|0,0:0|0:0,0:0:0:0:
256,192,91165,12,4,92879,0:0:0:0:
