osu file format v14

[General]
AudioFilename: perjalanan udara cosmic.mp3
AudioLeadIn: 0
PreviewTime: 68773
Countdown: 0
SampleSet: Soft
StackLeniency: 0.7
Mode: 3
LetterboxInBreaks: 0
SpecialStyle: 0
WidescreenStoryboard: 0

[Editor]
DistanceSpacing: 1
BeatDivisor: 8
GridSize: 16
TimelineZoom: 2.7

[Metadata]
Title:Cosmic Air Ride
TitleUnicode:Cosmic Air Ride
Artist:YUC'e x Snail's House
ArtistUnicode:YUC'e x Snail's House
Creator:Ilham
Version:SPAC'e
Source:
Tags:YUCe-04 GUMIKUMA Records Ujico* Japanese Electronic FAMoss
BeatmapID:3756210
BeatmapSetID:1830144

[Difficulty]
HPDrainRate:8.5
CircleSize:4
OverallDifficulty:8
ApproachRate:5
SliderMultiplier:1.4
SliderTickRate:1

[Events]
//Background and Video events
0,0,"BG.jpg",0,0
//Break Periods
//Storyboard Layer 0 (Background)
//Storyboard Layer 1 (Fail)
//Storyboard Layer 2 (Pass)
//Storyboard Layer 3 (Foreground)
//Storyboard Layer 4 (Overlay)
//Storyboard Sound Samples

[TimingPoints]
368,363.636363636364,4,2,1,70,1,0
23640,-100,4,2,1,70,0,1
46913,-100,4,2,1,70,0,0
70186,-100,4,2,1,70,0,1
93458,-100,4,2,1,50,0,0
96367,-100,4,2,1,40,0,0
105094,-100,4,2,1,70,0,0
140004,-100,4,2,1,70,0,1
174913,-100,4,2,1,50,0,0

[HitObjects]
64,192,277,5,0,0:0:0:0:
192,192,277,1,0,0:0:0:0:
320,192,368,1,2,0:0:0:0:
448,192,368,128,4,913:0:0:0:0:
64,192,549,1,0,0:0:0:0:
192,192,731,1,0,0:0:0:0:
320,192,913,128,0,1095:0:0:0:0:
64,192,1095,128,0,1458:0:0:0:0:
448,192,1277,1,0,0:0:0:0:
320,192,1458,1,0,0:0:0:0:
192,192,1640,128,0,1822:0:0:0:0:
320,192,1822,128,0,2186:0:0:0:0:
192,192,2186,128,0,2549:0:0:0:0:
448,192,2368,1,0,0:0:0:0:
64,192,2549,128,0,2913:0:0:0:0:
320,192,2731,1,0,0:0:0:0:
448,192,2913,128,0,3458:0:0:0:0:
192,192,3095,1,0,0:0:0:0:
320,192,3277,1,0,0:0:0:0:
64,192,3458,1,0,0:0:0:0:
192,192,3640,1,0,0:0:0:0:
320,192,3822,128,0,4004:0:0:0:0:
64,192,4004,128,0,4368:0:0:0:0:
448,192,4186,1,0,0:0:0:0:
192,192,4368,1,0,0:0:0:0:
448,192,4549,1,0,0:0:0:0:
320,192,4731,1,0,0:0:0:0:
192,192,4913,1,0,0:0:0:0:
320,192,5095,1,0,0:0:0:0:
64,192,5277,1,0,0:0:0:0:
192,192,5458,1,0,0:0:0:0:
320,192,5640,1,0,0:0:0:0:
64,192,5822,1,0,0:0:0:0:
448,192,5822,1,0,0:0:0:0:
320,192,6004,1,0,0:0:0:0:
192,192,6095,1,0,0:0:0:0:
64,192,6186,1,0,0:0:0:0:
448,192,6186,1,0,0:0:0:0:
320,192,6368,1,0,0:0:0:0:
64,192,6549,1,0,0:0:0:70:clap.wav
192,192,6549,1,0,0:0:0:0:
448,192,6549,1,0,0:0:0:0:
64,192,6731,1,0,0:0:0:0:
320,192,6913,1,0,0:0:0:0:
192,192,7095,1,0,0:0:0:0:
64,192,7277,1,0,0:0:0:70:clap.wav
320,192,7277,1,0,0:0:0:0:
448,192,7277,1,0,0:0:0:0:
320,192,7458,1,0,0:0:0:0:
192,192,7640,1,0,0:0:0:0:
320,192,7822,1,0,0:0:0:0:
192,192,8004,1,0,0:0:0:0:
448,192,8004,1,0,0:0:0:0:
64,192,8004,1,0,0:0:0:70:clap.wav
192,192,8186,1,0,0:0:0:0:
320,192,8368,1,0,0:0:0:0:
64,192,8549,1,0,0:0:0:0:
192,192,8731,1,0,0:0:0:70:clap.wav
320,192,8731,1,0,0:0:0:0:
448,192,8731,1,0,0:0:0:0:
320,192,8913,1,0,0:0:0:0:
448,192,9095,1,0,0:0:0:0:
64,192,9277,1,0,0:0:0:0:
192,192,9458,1,0,0:0:0:70:clap.wav
320,192,9458,1,0,0:0:0:0:
448,192,9458,1,0,0:0:0:0:
192,192,9640,1,0,0:0:0:0:
448,192,9822,1,0,0:0:0:0:
64,192,10004,1,0,0:0:0:0:
192,192,10186,1,0,0:0:0:70:clap.wav
320,192,10186,1,0,0:0:0:0:
448,192,10186,1,0,0:0:0:0:
448,192,10368,1,0,0:0:0:0:
64,192,10549,1,0,0:0:0:0:
320,192,10731,1,0,0:0:0:0:
64,192,10913,1,0,0:0:0:70:clap.wav
192,192,10913,1,0,0:0:0:0:
448,192,10913,1,0,0:0:0:0:
320,192,11004,1,0,0:0:0:0:
192,192,11095,1,0,0:0:0:70:snare.wav
320,192,11186,1,0,0:0:0:70:tom01.wav
448,192,11186,1,0,0:0:0:0:
64,192,11277,1,0,0:0:0:70:tom01.wav
192,192,11277,1,0,0:0:0:0:
320,192,11458,1,0,0:0:0:0:
64,192,11549,1,0,0:0:0:70:tom01.wav
192,192,11549,1,0,0:0:0:0:
448,192,11640,1,0,0:0:0:0:
192,192,11822,1,0,0:0:0:70:tom02.wav
320,192,11822,1,0,0:0:0:0:
64,192,12004,1,2,0:0:0:0:
320,192,12004,1,4,0:0:0:0:
448,192,12004,1,0,0:0:0:0:
192,192,12186,1,0,0:0:0:0:
64,192,12368,1,0,0:0:0:70:clap.wav
320,192,12368,1,0,0:0:0:0:
448,192,12368,1,0,0:0:0:0:
320,192,12549,1,0,0:0:0:0:
192,192,12640,1,0,0:0:0:0:
64,192,12731,1,0,0:0:0:0:
192,192,12913,1,0,0:0:0:0:
320,192,13004,1,0,0:0:0:0:
64,192,13095,1,0,0:0:0:70:clap.wav
192,192,13095,1,0,0:0:0:0:
448,192,13095,1,0,0:0:0:0:
320,192,13277,1,0,0:0:0:0:
192,192,13368,1,0,0:0:0:0:
448,192,13458,1,0,0:0:0:0:
64,192,13640,1,0,0:0:0:0:
192,192,13822,1,0,0:0:0:70:clap.wav
320,192,13822,1,0,0:0:0:0:
448,192,13822,1,0,0:0:0:0:
448,192,14004,1,0,0:0:0:0:
320,192,14095,1,0,0:0:0:0:
192,192,14186,1,0,0:0:0:0:
64,192,14368,1,0,0:0:0:0:
192,192,14413,1,0,0:0:0:0:
320,192,14458,1,0,0:0:0:0:
448,192,14504,1,0,0:0:0:0:
64,192,14549,1,0,0:0:0:70:clap.wav
192,192,14549,1,0,0:0:0:0:
320,192,14731,1,0,0:0:0:0:
192,192,14913,1,0,0:0:0:0:
448,192,15095,128,0,15277:0:0:0:0:
64,192,15277,1,0,0:0:0:70:clap.wav
192,192,15277,1,0,0:0:0:0:
320,192,15277,1,0,0:0:0:0:
320,192,15458,1,0,0:0:0:0:
192,192,15549,1,0,0:0:0:0:
448,192,15640,1,0,0:0:0:0:
64,192,15822,1,0,0:0:0:0:
192,192,16004,1,0,0:0:0:70:clap.wav
320,192,16004,1,0,0:0:0:0:
448,192,16004,1,0,0:0:0:0:
64,192,16186,1,0,0:0:0:0:
320,192,16277,1,0,0:0:0:0:
192,192,16368,1,0,0:0:0:0:
448,192,16549,1,0,0:0:0:0:
64,192,16731,1,0,0:0:0:70:clap.wav
192,192,16731,1,0,0:0:0:0:
320,192,16731,1,0,0:0:0:0:
448,192,16913,1,0,0:0:0:0:
64,192,17004,1,0,0:0:0:0:
320,192,17095,1,0,0:0:0:0:
64,192,17277,1,0,0:0:0:0:
192,192,17322,1,0,0:0:0:0:
320,192,17368,1,0,0:0:0:0:
448,192,17413,1,0,0:0:0:0:
64,192,17458,1,0,0:0:0:70:clap.wav
192,192,17458,1,0,0:0:0:0:
448,192,17549,1,0,0:0:0:0:
64,192,17640,1,0,0:0:0:0:
320,192,17640,1,0,0:0:0:0:
192,192,17731,1,0,0:0:0:0:
448,192,17731,1,0,0:0:0:0:
64,192,17822,1,0,0:0:0:70:clap.wav
320,192,17822,1,0,0:0:0:0:
192,192,18004,128,0,18186:0:0:0:0:
64,192,18186,1,0,0:0:0:70:clap.wav
320,192,18186,1,0,0:0:0:0:
448,192,18186,1,0,0:0:0:0:
64,192,18368,1,0,0:0:0:0:
192,192,18549,1,0,0:0:0:70:clap.wav
320,192,18549,1,0,0:0:0:0:
448,192,18549,1,0,0:0:0:0:
320,192,18731,1,0,0:0:0:0:
64,192,18913,1,0,0:0:0:70:clap.wav
192,192,18913,1,0,0:0:0:0:
448,192,18913,1,0,0:0:0:0:
320,192,19004,1,0,0:0:0:0:
192,192,19095,1,0,0:0:0:0:
448,192,19186,1,0,0:0:0:0:
64,192,19277,1,0,0:0:0:70:clap.wav
192,192,19277,1,0,0:0:0:0:
320,192,19277,1,0,0:0:0:0:
64,192,19458,1,0,0:0:0:0:
192,192,19640,1,0,0:0:0:70:clap.wav
320,192,19640,1,0,0:0:0:0:
448,192,19640,1,0,0:0:0:0:
320,192,19822,1,0,0:0:0:0:
64,192,20004,1,0,0:0:0:70:clap.wav
192,192,20004,1,0,0:0:0:0:
448,192,20004,1,0,0:0:0:0:
192,192,20186,1,0,0:0:0:0:
64,192,20368,1,0,0:0:0:70:clap.wav
448,192,20368,1,0,0:0:0:0:
192,192,20413,1,0,0:0:0:0:
320,192,20458,1,0,0:0:0:0:
448,192,20504,1,0,0:0:0:0:
64,192,20549,1,0,0:0:0:0:
192,192,20595,1,0,0:0:0:0:
320,192,20640,1,0,0:0:0:0:
448,192,20686,1,0,0:0:0:0:
64,192,20731,1,4,0:0:0:0:
192,192,20731,1,0,0:0:0:70:clap.wav
320,192,20822,1,0,0:0:0:0:
448,192,20913,1,0,0:0:0:0:
192,192,21004,1,0,0:0:0:0:
320,192,21049,1,0,0:0:0:0:
64,192,21095,1,0,0:0:0:70:clap.wav
448,192,21095,1,0,0:0:0:0:
192,192,21186,1,0,0:0:0:0:
320,192,21277,1,0,0:0:0:0:
64,192,21368,1,0,0:0:0:0:
192,192,21458,1,4,0:0:0:0:
320,192,21458,1,0,0:0:0:70:clap.wav
448,192,21458,1,0,0:0:0:0:
448,192,21640,1,0,0:0:0:0:
64,192,21822,1,0,0:0:0:70:clap.wav
192,192,21822,1,0,0:0:0:0:
320,192,21822,1,0,0:0:0:0:
192,192,22004,1,0,0:0:0:0:
64,192,22186,1,4,0:0:0:0:
320,192,22186,1,0,0:0:0:70:clap.wav
448,192,22186,1,0,0:0:0:70:snare.wav
64,192,22549,1,0,0:0:0:70:clap.wav
320,192,22549,1,0,0:0:0:70:snare.wav
448,192,22549,1,0,0:0:0:0:
64,192,22913,1,0,0:0:0:70:clap.wav
192,192,22913,1,0,0:0:0:70:snare.wav
448,192,22913,1,0,0:0:0:0:
64,192,23216,1,0,0:0:0:0:
192,192,23277,1,0,0:0:0:0:
320,192,23337,1,0,0:0:0:0:
448,192,23398,1,0,0:0:0:0:
64,192,23640,128,4,24186:0:0:0:0:
320,192,23640,128,2,24277:0:0:0:0:
448,192,23640,128,0,24277:0:0:0:0:
192,192,24186,128,0,24368:0:0:0:0:
64,192,24368,1,0,0:0:0:70:Cymatics - Main Clap 9_Reverb.wav
320,192,24368,1,0,0:0:0:0:
448,192,24368,128,0,24731:0:0:0:0:
192,192,24549,128,0,24731:0:0:0:0:
320,192,24731,128,0,24913:0:0:0:0:
64,192,24913,128,2,25186:0:0:0:0:
192,192,24913,128,4,25186:0:0:0:0:
448,192,24913,128,0,25277:0:0:0:0:
64,192,25277,128,2,25640:0:0:0:0:
192,192,25277,128,4,25640:0:0:0:0:
320,192,25277,128,0,25458:0:0:0:0:
448,192,25458,128,0,25640:0:0:0:0:
320,192,25731,1,2,0:0:0:0:
192,192,25777,1,2,0:0:0:0:
64,192,25822,1,0,0:0:0:70:Cymatics - Main Clap 9_Reverb.wav
448,192,25822,128,0,26186:0:0:0:0:
192,192,26004,128,0,26186:0:0:0:0:
320,192,26186,128,0,26368:0:0:0:70:LR_Drum Rpd x2.wav
64,192,26368,1,0,0:0:0:70:snare3.wav
192,192,26368,1,0,0:0:0:0:
448,192,26368,1,0,0:0:0:0:
192,192,26549,128,4,26731:0:0:0:0:
320,192,26549,128,2,26913:0:0:0:0:
448,192,26549,128,0,27095:0:0:0:0:
64,192,26731,128,0,26913:0:0:0:0:
192,192,26913,128,0,27095:0:0:0:0:
320,192,27095,128,0,27277:0:0:0:0:
64,192,27277,128,0,27731:0:0:0:70:Cymatics - Main Clap 9_Reverb.wav
192,192,27277,1,0,0:0:0:0:
448,192,27277,1,0,0:0:0:0:
320,192,27458,128,0,27731:0:0:0:0:
192,192,27640,128,0,27731:0:0:0:0:
448,192,27640,128,0,27731:0:0:0:0:
64,192,27822,128,2,28095:0:0:0:0:
192,192,27822,128,4,28186:0:0:0:0:
448,192,27822,128,0,28095:0:0:0:0:
64,192,28186,128,2,28549:0:0:0:0:
320,192,28186,128,4,28549:0:0:0:0:
448,192,28186,128,0,28549:0:0:0:0:
192,192,28640,1,2,0:0:0:0:
320,192,28686,1,2,0:0:0:0:
64,192,28731,128,4,29095:0:0:0:0:
448,192,28731,1,0,0:0:0:70:Cymatics - Main Clap 9_Reverb.wav
320,192,28913,128,0,29095:0:0:0:0:
192,192,29095,128,0,29277:0:0:0:0:
320,192,29277,1,0,0:0:0:0:
448,192,29277,128,0,29458:0:0:0:0:
64,192,29458,128,2,30004:0:0:0:0:
192,192,29458,128,4,29822:0:0:0:0:
320,192,29458,128,0,29640:0:0:0:0:
448,192,29640,128,0,29822:0:0:0:0:
320,192,29822,128,0,30004:0:0:0:0:
192,192,30004,128,0,30186:0:0:0:0:
64,192,30186,1,0,0:0:0:70:Cymatics - Main Clap 9_Reverb.wav
320,192,30186,1,0,0:0:0:0:
448,192,30186,128,0,30549:0:0:0:0:
192,192,30368,128,0,30549:0:0:0:0:
64,192,30549,128,0,30731:0:0:0:0:
192,192,30731,128,2,31004:0:0:0:0:
320,192,30731,128,4,31095:0:0:0:0:
448,192,30731,128,0,31004:0:0:0:0:
64,192,31095,128,2,31458:0:0:0:0:
192,192,31095,128,4,31458:0:0:0:0:
448,192,31095,128,0,31458:0:0:0:0:
320,192,31549,1,2,0:0:0:0:
192,192,31595,1,2,0:0:0:0:
64,192,31640,1,0,0:0:0:70:Cymatics - Main Clap 9_Reverb.wav
448,192,31640,128,0,32004:0:0:0:0:
192,192,31822,128,0,32004:0:0:0:0:
320,192,32004,128,0,32186:0:0:0:70:LR_Drum Rpd x2.wav
64,192,32186,128,0,32368:0:0:0:70:snare3.wav
192,192,32186,1,0,0:0:0:0:
448,192,32186,1,0,0:0:0:0:
192,192,32368,128,4,32549:0:0:0:0:
320,192,32368,128,2,32731:0:0:0:0:
448,192,32368,128,0,32913:0:0:0:0:
64,192,32549,128,0,32731:0:0:0:0:
192,192,32731,128,0,32913:0:0:0:0:
320,192,32913,128,0,33095:0:0:0:0:
64,192,33095,128,0,33458:0:0:0:70:Cymatics - Main Clap 9_Reverb.wav
192,192,33095,1,0,0:0:0:0:
448,192,33095,1,0,0:0:0:0:
320,192,33277,128,0,33458:0:0:0:0:
192,192,33458,128,0,33640:0:0:0:0:
64,192,33640,128,2,33913:0:0:0:0:
320,192,33640,128,4,34004:0:0:0:0:
448,192,33640,128,0,33913:0:0:0:0:
64,192,34004,128,2,34368:0:0:0:0:
192,192,34004,128,4,34368:0:0:0:0:
448,192,34004,128,0,34368:0:0:0:0:
320,192,34458,1,2,0:0:0:0:
192,192,34504,1,2,0:0:0:0:
64,192,34549,128,4,34731:0:0:0:0:
448,192,34549,128,0,35277:0:0:0:70:Cymatics - Main Clap 9_Reverb.wav
64,192,34913,128,0,35186:0:0:0:0:
192,192,35034,128,0,35186:0:0:0:0:
64,192,35277,128,2,36004:0:0:0:0:
192,192,35277,128,4,35822:0:0:0:0:
320,192,35277,128,0,35640:0:0:0:0:
192,192,36004,1,0,0:0:0:70:Cymatics - Main Clap 9_Reverb.wav
320,192,36004,128,0,36186:0:0:0:0:
448,192,36004,128,0,36186:0:0:0:0:
64,192,36368,128,0,36640:0:0:0:0:
192,192,36368,128,0,36640:0:0:0:0:
320,192,36549,1,2,0:0:0:0:
448,192,36549,1,4,0:0:0:0:
64,192,36731,128,0,37095:0:0:0:0:
448,192,36731,128,0,37095:0:0:0:0:
192,192,36913,1,2,0:0:0:0:
320,192,36913,1,4,0:0:0:0:
64,192,37277,128,0,37458:0:0:0:0:
320,192,37368,1,2,0:0:0:0:
192,192,37413,1,2,0:0:0:0:
448,192,37458,128,0,37640:0:0:0:70:Cymatics - Main Clap 9_Reverb.wav
192,192,37640,128,0,37822:0:0:0:0:
448,192,37822,128,0,38004:0:0:0:70:LR_Drum Rpd x2.wav
64,192,38004,128,0,38186:0:0:0:70:snare3.wav
320,192,38004,1,0,0:0:0:0:
192,192,38186,128,4,38731:0:0:0:0:
320,192,38186,128,2,38731:0:0:0:0:
448,192,38186,128,0,38731:0:0:0:0:
64,192,38731,128,0,38913:0:0:0:0:
192,192,38913,1,0,0:0:0:70:Cymatics - Main Clap 9_Reverb.wav
320,192,38913,1,0,0:0:0:0:
448,192,38913,128,0,39095:0:0:0:0:
64,192,39095,128,0,39277:0:0:0:0:
320,192,39277,128,0,39368:0:0:0:0:
448,192,39277,128,0,39368:0:0:0:0:
64,192,39458,128,2,39822:0:0:0:0:
320,192,39458,128,4,39822:0:0:0:0:
192,192,39822,128,2,40186:0:0:0:0:
448,192,39822,128,4,39913:0:0:0:0:
448,192,40004,128,0,40186:0:0:0:0:
64,192,40186,1,0,0:0:0:0:
320,192,40277,1,2,0:0:0:0:
192,192,40322,1,2,0:0:0:0:
64,192,40368,128,4,40549:0:0:0:0:
448,192,40368,128,0,41095:0:0:0:70:Cymatics - Main Clap 9_Reverb.wav
320,192,40549,128,0,40731:0:0:0:0:
192,192,40731,128,0,40913:0:0:0:0:
320,192,40913,128,0,41095:0:0:0:0:
64,192,41095,128,2,41822:0:0:0:0:
192,192,41095,128,4,41640:0:0:0:0:
448,192,41640,1,0,0:0:0:0:
320,192,41686,128,0,41822:0:0:0:0:
192,192,41822,128,0,42004:0:0:0:70:Cymatics - Main Clap 9_Reverb.wav
448,192,41822,1,0,0:0:0:0:
448,192,42004,128,0,42186:0:0:0:0:
64,192,42186,128,0,42368:0:0:0:0:
192,192,42368,128,2,42549:0:0:0:0:
448,192,42368,128,4,42731:0:0:0:0:
320,192,42549,128,0,42913:0:0:0:0:
64,192,42731,128,2,43095:0:0:0:0:
192,192,42731,128,4,43095:0:0:0:0:
448,192,42913,1,0,0:0:0:0:
448,192,43095,128,0,43277:0:0:0:0:
192,192,43186,1,2,0:0:0:0:
320,192,43231,1,2,0:0:0:0:
64,192,43277,128,0,43458:0:0:0:70:Cymatics - Main Clap 9_Reverb.wav
320,192,43458,128,0,43640:0:0:0:0:
192,192,43640,128,0,43822:0:0:0:70:LR_Drum Rpd x2.wav
64,192,43822,1,0,0:0:0:70:snare3.wav
448,192,43822,128,0,44368:0:0:0:0:
64,192,44004,128,4,44640:0:0:0:0:
192,192,44004,128,2,44640:0:0:0:0:
320,192,44004,128,0,44640:0:0:0:0:
64,192,44731,1,0,0:0:0:70:Cymatics - Main Clap 9_Reverb.wav
192,192,44731,1,0,0:0:0:0:
448,192,44731,1,0,0:0:0:0:
320,192,44913,1,0,0:0:0:0:
192,192,45095,1,0,0:0:0:0:
64,192,45277,128,2,45549:0:0:0:0:
320,192,45277,128,4,45640:0:0:0:0:
448,192,45277,128,0,45549:0:0:0:0:
64,192,45640,128,2,46004:0:0:0:0:
192,192,45640,128,4,46004:0:0:0:0:
448,192,45640,128,0,46004:0:0:0:0:
320,192,46095,1,2,0:0:0:0:
192,192,46140,1,2,0:0:0:0:
64,192,46186,128,4,46822:0:0:0:0:
448,192,46186,128,0,46822:0:0:0:70:Cymatics - Main Clap 9_Reverb.wav
64,192,46913,1,2,0:0:0:0:
320,192,46913,1,4,0:0:0:0:
448,192,46913,1,0,0:0:0:70:clap.wav
64,192,47095,1,0,0:0:0:0:
192,192,47277,1,0,0:0:0:70:clap.wav
448,192,47277,1,0,0:0:0:0:
448,192,47458,1,0,0:0:0:0:
64,192,47640,1,0,0:0:0:70:clap.wav
320,192,47640,1,0,0:0:0:0:
320,192,47822,1,0,0:0:0:0:
64,192,48004,1,0,0:0:0:70:clap.wav
192,192,48004,1,0,0:0:0:0:
192,192,48186,1,0,0:0:0:0:
320,192,48186,1,0,0:0:0:0:
320,192,48368,1,0,0:0:0:70:clap.wav
448,192,48368,1,0,0:0:0:0:
448,192,48549,1,0,0:0:0:0:
64,192,48731,1,0,0:0:0:70:clap.wav
192,192,48731,1,0,0:0:0:0:
64,192,48913,1,0,0:0:0:0:
192,192,49095,1,0,0:0:0:70:clap.wav
448,192,49095,1,0,0:0:0:0:
192,192,49277,1,0,0:0:0:0:
320,192,49458,1,0,0:0:0:70:clap.wav
448,192,49458,1,0,0:0:0:0:
320,192,49640,1,0,0:0:0:0:
192,192,49731,1,0,0:0:0:0:
64,192,49822,1,0,0:0:0:70:clap.wav
448,192,49822,1,0,0:0:0:0:
448,192,50004,1,0,0:0:0:0:
64,192,50186,1,0,0:0:0:70:clap.wav
320,192,50186,1,0,0:0:0:0:
320,192,50368,1,0,0:0:0:0:
192,192,50549,1,0,0:0:0:70:clap.wav
448,192,50549,1,0,0:0:0:0:
192,192,50731,1,0,0:0:0:0:
64,192,50913,1,0,0:0:0:70:clap.wav
448,192,50913,1,0,0:0:0:0:
64,192,51095,1,0,0:0:0:0:
192,192,51277,1,0,0:0:0:70:clap.wav
448,192,51277,1,0,0:0:0:0:
448,192,51458,1,0,0:0:0:0:
64,192,51640,1,0,0:0:0:70:clap.wav
320,192,51640,1,0,0:0:0:0:
64,192,51822,1,0,0:0:0:0:
192,192,52004,1,0,0:0:0:70:clap.wav
320,192,52004,1,0,0:0:0:0:
320,192,52186,1,0,0:0:0:0:
64,192,52368,1,0,0:0:0:70:clap.wav
448,192,52368,1,0,0:0:0:0:
64,192,52549,1,0,0:0:0:0:
192,192,52595,1,0,0:0:0:0:
320,192,52640,1,0,0:0:0:0:
448,192,52686,1,0,0:0:0:0:
64,192,52731,1,0,0:0:0:70:clap.wav
192,192,52731,1,0,0:0:0:0:
64,192,52913,1,0,0:0:0:0:
192,192,53095,1,0,0:0:0:70:clap.wav
448,192,53095,1,0,0:0:0:0:
448,192,53277,1,0,0:0:0:0:
64,192,53458,1,0,0:0:0:70:clap.wav
320,192,53458,1,0,0:0:0:0:
320,192,53640,1,0,0:0:0:0:
64,192,53822,1,0,0:0:0:70:clap.wav
192,192,53822,1,0,0:0:0:0:
192,192,54004,1,0,0:0:0:0:
320,192,54004,1,0,0:0:0:0:
320,192,54186,1,0,0:0:0:70:clap.wav
448,192,54186,1,0,0:0:0:0:
448,192,54368,1,0,0:0:0:0:
64,192,54549,1,0,0:0:0:70:clap.wav
192,192,54549,1,0,0:0:0:0:
192,192,54731,1,0,0:0:0:0:
64,192,54913,1,0,0:0:0:70:clap.wav
320,192,54913,1,0,0:0:0:0:
320,192,55095,1,0,0:0:0:0:
192,192,55277,1,0,0:0:0:70:clap.wav
448,192,55277,1,0,0:0:0:0:
192,192,55458,1,0,0:0:0:0:
320,192,55549,1,0,0:0:0:0:
64,192,55640,1,4,0:0:0:0:
448,192,55640,1,0,0:0:0:70:clap.wav
320,192,55731,1,0,0:0:0:0:
192,192,55822,1,0,0:0:0:0:
64,192,55913,1,0,0:0:0:0:
320,192,56004,1,0,0:0:0:70:clap.wav
448,192,56004,1,0,0:0:0:0:
192,192,56186,1,0,0:0:0:0:
320,192,56277,1,0,0:0:0:0:
64,192,56368,1,4,0:0:0:0:
448,192,56368,1,0,0:0:0:70:clap.wav
192,192,56458,1,0,0:0:0:0:
320,192,56549,1,0,0:0:0:0:
448,192,56640,1,0,0:0:0:0:
64,192,56731,1,0,0:0:0:70:clap.wav
192,192,56731,1,0,0:0:0:0:
320,192,56913,1,0,0:0:0:0:
192,192,57004,1,0,0:0:0:0:
64,192,57095,1,4,0:0:0:0:
320,192,57095,1,2,0:0:0:0:
448,192,57095,1,0,0:0:0:70:clap.wav
192,192,57186,1,0,0:0:0:0:
448,192,57277,1,0,0:0:0:0:
320,192,57368,1,0,0:0:0:0:
64,192,57458,1,2,0:0:0:0:
192,192,57458,1,4,0:0:0:0:
448,192,57458,1,0,0:0:0:70:clap.wav
320,192,57549,1,0,0:0:0:0:
64,192,57640,1,0,0:0:0:0:
192,192,57731,1,0,0:0:0:0:
64,192,57822,1,2,0:0:0:0:
320,192,57822,1,4,0:0:0:0:
448,192,57822,1,0,0:0:0:70:clap.wav
192,192,57913,1,0,0:0:0:0:
448,192,58004,1,0,0:0:0:0:
320,192,58049,1,0,0:0:0:0:
192,192,58095,1,0,0:0:0:0:
64,192,58140,1,0,0:0:0:0:
320,192,58186,1,4,0:0:0:0:
448,192,58186,1,0,0:0:0:70:LR_Drum Hit Beat Long.wav
192,192,58277,1,0,0:0:0:0:
64,192,58368,1,0,0:0:0:0:
448,192,58458,1,0,0:0:0:0:
64,192,58549,1,2,0:0:0:0:
192,192,58549,1,4,0:0:0:0:
320,192,58549,1,0,0:0:0:70:clap.wav
320,192,58731,1,0,0:0:0:0:
64,192,58913,1,2,0:0:0:0:
192,192,58913,1,0,0:0:0:70:clap.wav
448,192,58913,1,0,0:0:0:0:
64,192,59095,1,0,0:0:0:0:
320,192,59186,1,0,0:0:0:0:
64,192,59277,1,2,0:0:0:0:
448,192,59277,1,0,0:0:0:70:clap.wav
192,192,59368,1,0,0:0:0:0:
320,192,59458,1,0,0:0:0:0:
448,192,59549,1,0,0:0:0:0:
64,192,59640,1,2,0:0:0:0:
192,192,59640,1,0,0:0:0:70:clap.wav
320,192,59640,1,0,0:0:0:0:
192,192,59822,1,0,0:0:0:0:
64,192,59913,1,0,0:0:0:0:
320,192,60004,1,2,0:0:0:0:
448,192,60004,1,0,0:0:0:70:clap.wav
448,192,60186,1,0,0:0:0:0:
64,192,60368,1,2,0:0:0:0:
192,192,60368,1,0,0:0:0:70:clap.wav
320,192,60368,1,0,0:0:0:0:
64,192,60549,1,0,0:0:0:0:
320,192,60640,1,0,0:0:0:0:
192,192,60731,1,2,0:0:0:0:
448,192,60731,1,0,0:0:0:70:clap.wav
448,192,60913,1,0,0:0:0:0:
320,192,60958,1,0,0:0:0:0:
192,192,61004,1,0,0:0:0:0:
64,192,61049,1,0,0:0:0:0:
320,192,61095,1,2,0:0:0:0:
448,192,61095,1,0,0:0:0:70:clap.wav
192,192,61277,1,0,0:0:0:0:
320,192,61368,1,0,0:0:0:0:
64,192,61458,1,2,0:0:0:0:
448,192,61458,1,0,0:0:0:70:clap.wav
192,192,61640,1,0,0:0:0:0:
64,192,61822,1,2,0:0:0:0:
320,192,61822,1,0,0:0:0:70:clap.wav
448,192,61822,1,0,0:0:0:0:
320,192,62004,1,0,0:0:0:0:
64,192,62095,1,0,0:0:0:0:
192,192,62186,1,2,0:0:0:0:
448,192,62186,1,0,0:0:0:70:clap.wav
192,192,62368,1,0,0:0:0:0:
64,192,62549,1,2,0:0:0:0:
320,192,62549,1,0,0:0:0:70:clap.wav
448,192,62549,1,0,0:0:0:0:
64,192,62731,1,0,0:0:0:0:
448,192,62822,1,0,0:0:0:0:
192,192,62913,1,2,0:0:0:0:
320,192,62913,1,0,0:0:0:70:clap.wav
192,192,63095,1,0,0:0:0:0:
64,192,63277,1,2,0:0:0:0:
320,192,63277,1,0,0:0:0:70:clap.wav
448,192,63277,1,0,0:0:0:0:
320,192,63458,1,0,0:0:0:0:
64,192,63549,1,0,0:0:0:0:
192,192,63640,1,2,0:0:0:0:
448,192,63640,1,0,0:0:0:70:clap.wav
64,192,63731,1,0,0:0:0:0:
448,192,63822,1,0,0:0:0:0:
320,192,63868,1,0,0:0:0:0:
192,192,63913,1,0,0:0:0:0:
64,192,63958,1,0,0:0:0:0:
320,192,64004,1,2,0:0:0:0:
448,192,64004,1,0,0:0:0:70:clap.wav
192,192,64095,1,0,0:0:0:0:
64,192,64186,1,0,0:0:0:0:
448,192,64186,1,0,0:0:0:0:
192,192,64277,1,0,0:0:0:0:
320,192,64277,1,0,0:0:0:0:
64,192,64368,1,6,0:0:0:0:
448,192,64368,1,0,0:0:0:70:clap.wav
320,192,64549,1,0,0:0:0:0:
192,192,64640,1,0,0:0:0:0:
64,192,64731,1,2,0:0:0:0:
320,192,64731,1,0,0:0:0:70:clap.wav
448,192,64731,1,0,0:0:0:0:
192,192,64822,1,0,0:0:0:0:
448,192,64913,1,0,0:0:0:0:
192,192,65004,1,0,0:0:0:0:
320,192,65049,1,0,0:0:0:0:
64,192,65095,1,2,0:0:0:0:
448,192,65095,1,0,0:0:0:70:clap.wav
192,192,65186,1,0,0:0:0:0:
320,192,65277,1,0,0:0:0:0:
448,192,65368,1,0,0:0:0:0:
64,192,65458,1,2,0:0:0:0:
192,192,65458,1,0,0:0:0:70:clap.wav
320,192,65458,1,0,0:0:0:0:
448,192,65549,1,0,0:0:0:0:
64,192,65640,1,0,0:0:0:0:
192,192,65686,1,0,0:0:0:0:
320,192,65731,1,0,0:0:0:0:
448,192,65777,1,0,0:0:0:0:
64,192,65822,1,6,0:0:0:0:
192,192,65822,1,0,0:0:0:70:clap.wav
320,192,65913,1,0,0:0:0:0:
448,192,66004,1,0,0:0:0:0:
64,192,66095,1,0,0:0:0:0:
192,192,66186,1,2,0:0:0:0:
320,192,66186,1,0,0:0:0:70:clap.wav
448,192,66186,1,0,0:0:0:0:
64,192,66277,1,0,0:0:0:0:
448,192,66368,1,0,0:0:0:0:
320,192,66458,1,0,0:0:0:0:
192,192,66504,1,0,0:0:0:0:
64,192,66549,1,2,0:0:0:0:
448,192,66549,1,0,0:0:0:70:clap.wav
320,192,66640,1,0,0:0:0:0:
192,192,66731,1,0,0:0:0:0:
448,192,66822,1,0,0:0:0:0:
64,192,66913,1,2,0:0:0:0:
192,192,66913,1,0,0:0:0:70:clap.wav
320,192,66913,1,0,0:0:0:0:
448,192,67004,1,0,0:0:0:0:
64,192,67095,1,0,0:0:0:0:
192,192,67140,1,0,0:0:0:0:
320,192,67186,1,0,0:0:0:0:
448,192,67231,1,0,0:0:0:0:
64,192,67277,1,6,0:0:0:0:
192,192,67277,1,0,0:0:0:70:clap.wav
64,192,67458,1,2,0:0:0:0:
192,192,67458,1,0,0:0:0:0:
448,192,67458,1,0,0:0:0:0:
192,192,67640,1,2,0:0:0:0:
320,192,67640,1,0,0:0:0:70:clap.wav
448,192,67640,1,0,0:0:0:0:
64,192,67822,1,2,0:0:0:0:
192,192,67822,1,0,0:0:0:0:
448,192,67822,1,0,0:0:0:0:
64,192,68004,1,6,0:0:0:0:
448,192,68004,1,0,0:0:0:70:clap.wav
192,192,68095,1,0,0:0:0:0:
320,192,68095,1,0,0:0:0:0:
64,192,68186,1,2,0:0:0:0:
448,192,68186,1,0,0:0:0:0:
192,192,68277,1,0,0:0:0:0:
320,192,68277,1,0,0:0:0:0:
64,192,68368,1,2,0:0:0:0:
448,192,68368,1,0,0:0:0:70:clap.wav
192,192,68458,1,0,0:0:0:0:
320,192,68458,1,0,0:0:0:0:
64,192,68549,1,2,0:0:0:0:
448,192,68549,1,0,0:0:0:0:
192,192,68640,1,0,0:0:0:0:
64,192,68731,1,0,0:0:0:70:kick.wav
320,192,68731,1,0,0:0:0:0:
448,192,68731,1,0,0:0:0:0:
64,192,69095,1,0,0:0:0:70:LR_Drum Rpd x2.wav
192,192,69095,1,0,0:0:0:0:
448,192,69095,1,0,0:0:0:0:
192,192,69277,1,0,0:0:0:70:kick.wav
320,192,69277,1,0,0:0:0:0:
64,192,69368,1,0,0:0:0:0:
320,192,69458,1,0,0:0:0:70:kick.wav
448,192,69458,1,0,0:0:0:0:
64,192,69549,1,0,0:0:0:70:kick.wav
192,192,69549,1,0,0:0:0:0:
64,192,69640,1,0,0:0:0:70:snare.wav
320,192,69640,1,0,0:0:0:0:
448,192,69640,1,0,0:0:0:0:
192,192,69822,1,0,0:0:0:70:kick.wav
320,192,69822,1,0,0:0:0:0:
64,192,70004,128,0,70095:0:0:0:70:kick.wav
192,192,70004,128,0,70095:0:0:0:0:
448,192,70004,128,0,70095:0:0:0:0:
64,192,70186,1,2,0:0:0:0:
320,192,70186,1,4,0:0:0:0:
448,192,70186,1,0,0:0:0:0:
192,192,70277,1,0,0:0:0:0:
320,192,70368,1,0,0:0:0:0:
64,192,70458,1,0,0:0:0:0:
192,192,70549,1,0,0:0:0:0:
320,192,70549,1,0,0:0:0:0:
448,192,70549,1,0,0:0:0:0:
64,192,70640,1,0,0:0:0:0:
320,192,70731,1,2,0:0:0:0:
448,192,70731,1,0,0:0:0:0:
192,192,70822,1,0,0:0:0:0:
64,192,70913,1,8,0:0:0:0:
320,192,70913,1,2,0:0:0:0:
448,192,70913,1,0,0:0:0:0:
192,192,71004,1,0,0:0:0:0:
64,192,71095,1,0,0:0:0:0:
320,192,71186,1,0,0:0:0:0:
192,192,71277,1,2,0:0:0:0:
448,192,71277,1,0,0:0:0:0:
64,192,71368,1,0,0:0:0:0:
320,192,71458,1,0,0:0:0:0:
192,192,71549,1,0,0:0:0:0:
448,192,71640,1,0,0:0:0:0:
320,192,71731,1,0,0:0:0:0:
64,192,71822,1,2,0:0:0:0:
192,192,71822,1,0,0:0:0:0:
320,192,71913,1,0,0:0:0:0:
64,192,72004,1,0,0:0:0:0:
192,192,72095,1,0,0:0:0:0:
320,192,72186,1,0,0:0:0:0:
192,192,72277,1,0,0:0:0:0:
64,192,72368,1,8,0:0:0:0:
320,192,72368,1,2,0:0:0:0:
448,192,72368,1,0,0:0:0:0:
192,192,72458,1,0,0:0:0:0:
64,192,72549,1,0,0:0:0:0:
320,192,72640,1,0,0:0:0:0:
192,192,72731,1,2,0:0:0:0:
448,192,72731,1,0,0:0:0:0:
192,192,72913,1,0,0:0:0:0:
64,192,73095,1,2,0:0:0:0:
320,192,73095,1,0,0:0:0:0:
448,192,73095,1,0,0:0:0:0:
192,192,73277,1,0,0:0:0:0:
320,192,73368,1,0,0:0:0:0:
64,192,73458,1,0,0:0:0:0:
192,192,73458,1,0,0:0:0:0:
448,192,73458,1,0,0:0:0:0:
320,192,73549,1,0,0:0:0:0:
64,192,73640,1,2,0:0:0:0:
192,192,73640,1,0,0:0:0:0:
448,192,73731,1,0,0:0:0:0:
64,192,73822,1,2,0:0:0:0:
192,192,73822,1,8,0:0:0:0:
320,192,73822,1,0,0:0:0:0:
448,192,73913,1,0,0:0:0:0:
320,192,74004,1,0,0:0:0:0:
192,192,74095,1,0,0:0:0:0:
64,192,74186,1,2,0:0:0:0:
448,192,74186,1,0,0:0:0:0:
320,192,74277,1,0,0:0:0:0:
192,192,74368,1,0,0:0:0:0:
64,192,74458,1,0,0:0:0:0:
320,192,74549,1,0,0:0:0:0:
448,192,74640,1,0,0:0:0:0:
64,192,74731,1,2,0:0:0:0:
192,192,74731,1,0,0:0:0:0:
320,192,74822,1,0,0:0:0:0:
448,192,74913,1,0,0:0:0:0:
192,192,75004,1,0,0:0:0:0:
320,192,75095,1,0,0:0:0:0:
192,192,75186,1,0,0:0:0:0:
64,192,75277,1,2,0:0:0:0:
320,192,75277,1,8,0:0:0:0:
448,192,75277,1,0,0:0:0:0:
192,192,75368,1,0,0:0:0:0:
64,192,75458,1,0,0:0:0:0:
448,192,75549,1,0,0:0:0:0:
192,192,75640,1,2,0:0:0:0:
320,192,75640,1,0,0:0:0:0:
448,192,75731,1,0,0:0:0:0:
64,192,75822,1,0,0:0:0:0:
192,192,75822,1,0,0:0:0:0:
320,192,75913,1,0,0:0:0:0:
64,192,76004,1,2,0:0:0:0:
192,192,76004,128,0,76095:0:0:0:0:
448,192,76004,128,0,76095:0:0:0:0:
320,192,76186,128,0,76277:0:0:0:0:
448,192,76186,128,0,76277:0:0:0:0:
64,192,76368,128,0,76458:0:0:0:0:
192,192,76368,128,0,76458:0:0:0:0:
448,192,76458,1,0,0:0:0:0:
64,192,76549,1,2,0:0:0:0:
320,192,76549,1,0,0:0:0:0:
192,192,76640,1,0,0:0:0:0:
64,192,76731,1,8,0:0:0:0:
320,192,76731,1,2,0:0:0:0:
448,192,76731,1,0,0:0:0:0:
192,192,76822,1,0,0:0:0:0:
320,192,76913,1,0,0:0:0:0:
448,192,77004,1,0,0:0:0:0:
64,192,77095,1,2,0:0:0:0:
192,192,77095,1,0,0:0:0:0:
320,192,77186,1,0,0:0:0:0:
192,192,77277,1,0,0:0:0:0:
448,192,77368,1,0,0:0:0:0:
64,192,77458,128,0,77549:0:0:0:0:
320,192,77458,128,0,77549:0:0:0:0:
192,192,77640,128,2,77731:0:0:0:0:
320,192,77640,128,0,77731:0:0:0:0:
64,192,77822,128,0,77913:0:0:0:0:
448,192,77822,128,0,77913:0:0:0:0:
320,192,77913,1,0,0:0:0:0:
192,192,78004,1,0,0:0:0:0:
320,192,78095,1,0,0:0:0:0:
64,192,78186,1,8,0:0:0:0:
192,192,78186,1,2,0:0:0:0:
448,192,78186,1,0,0:0:0:0:
320,192,78277,1,0,0:0:0:0:
64,192,78368,1,0,0:0:0:0:
192,192,78458,1,0,0:0:0:0:
320,192,78549,1,2,0:0:0:0:
448,192,78549,1,0,0:0:0:0:
192,192,78640,1,0,0:0:0:0:
64,192,78731,1,0,0:0:0:0:
320,192,78822,1,0,0:0:0:0:
64,192,78913,1,2,0:0:0:0:
192,192,78913,1,0,0:0:0:0:
448,192,78913,1,0,0:0:0:0:
320,192,79004,1,0,0:0:0:0:
448,192,79095,1,0,0:0:0:0:
64,192,79186,1,0,0:0:0:0:
192,192,79277,1,0,0:0:0:0:
448,192,79277,1,0,0:0:0:0:
320,192,79368,1,0,0:0:0:0:
64,192,79458,1,2,0:0:0:0:
192,192,79458,1,0,0:0:0:0:
448,192,79549,1,0,0:0:0:0:
64,192,79640,1,2,0:0:0:0:
192,192,79640,1,8,0:0:0:0:
320,192,79640,1,0,0:0:0:0:
448,192,79731,1,0,0:0:0:0:
192,192,79822,1,0,0:0:0:0:
320,192,79913,1,0,0:0:0:0:
64,192,80004,128,2,80277:0:0:0:0:
192,192,80004,1,0,0:0:0:0:
448,192,80095,128,0,80277:0:0:0:0:
320,192,80186,128,0,80277:0:0:0:0:
192,192,80277,128,0,80368:0:0:0:0:
64,192,80368,1,2,0:0:0:0:
448,192,80368,1,0,0:0:0:0:
320,192,80413,1,0,0:0:0:0:
192,192,80458,1,0,0:0:0:0:
64,192,80504,1,0,0:0:0:0:
320,192,80549,128,0,80640:0:0:0:0:
448,192,80549,128,0,80640:0:0:0:0:
64,192,80640,128,0,80731:0:0:0:0:
192,192,80640,128,0,80731:0:0:0:0:
320,192,80731,1,2,0:0:0:0:
448,192,80731,1,4,0:0:0:0:
192,192,80822,1,0,0:0:0:0:
64,192,80913,1,0,0:0:0:0:
448,192,81004,1,0,0:0:0:0:
192,192,81095,1,4,0:0:0:0:
320,192,81095,1,2,0:0:0:0:
64,192,81186,1,0,0:0:0:0:
448,192,81277,1,0,0:0:0:0:
320,192,81368,1,0,0:0:0:0:
64,192,81458,1,2,0:0:0:0:
192,192,81458,1,4,0:0:0:0:
320,192,81549,1,0,0:0:0:0:
448,192,81640,1,0,0:0:0:0:
64,192,81731,1,0,0:0:0:0:
192,192,81822,1,2,0:0:0:0:
320,192,81822,1,4,0:0:0:0:
448,192,81822,1,0,0:0:0:0:
64,192,81913,1,0,0:0:0:0:
192,192,82004,1,0,0:0:0:0:
320,192,82095,1,0,0:0:0:0:
64,192,82186,1,8,0:0:0:0:
192,192,82186,1,2,0:0:0:0:
448,192,82186,1,0,0:0:0:0:
320,192,82277,1,0,0:0:0:0:
192,192,82368,1,0,0:0:0:0:
448,192,82458,1,0,0:0:0:0:
64,192,82549,1,2,0:0:0:0:
320,192,82549,1,0,0:0:0:0:
192,192,82640,1,0,0:0:0:0:
64,192,82731,1,0,0:0:0:0:
320,192,82822,1,2,0:0:0:0:
448,192,82822,1,0,0:0:0:0:
64,192,82913,1,2,0:0:0:0:
192,192,82913,1,8,0:0:0:0:
448,192,82913,1,0,0:0:0:0:
320,192,83004,1,0,0:0:0:0:
64,192,83095,1,2,0:0:0:0:
192,192,83095,1,0,0:0:0:0:
320,192,83186,1,0,0:0:0:0:
448,192,83277,1,0,0:0:0:0:
320,192,83368,1,0,0:0:0:0:
64,192,83458,1,2,0:0:0:0:
192,192,83458,1,0,0:0:0:0:
448,192,83549,1,0,0:0:0:0:
64,192,83640,1,8,0:0:0:0:
192,192,83640,1,2,0:0:0:0:
320,192,83640,1,0,0:0:0:0:
448,192,83731,1,0,0:0:0:0:
64,192,83822,1,0,0:0:0:0:
192,192,83913,1,0,0:0:0:0:
64,192,84004,1,2,0:0:0:0:
320,192,84004,1,0,0:0:0:0:
448,192,84095,1,0,0:0:0:0:
320,192,84186,1,0,0:0:0:0:
64,192,84277,1,2,0:0:0:0:
192,192,84277,1,0,0:0:0:0:
64,192,84368,1,2,0:0:0:0:
320,192,84368,1,8,0:0:0:0:
448,192,84368,1,0,0:0:0:0:
192,192,84549,1,2,0:0:0:0:
320,192,84549,1,0,0:0:0:0:
448,192,84640,1,0,0:0:0:0:
64,192,84731,1,2,0:0:0:0:
192,192,84731,1,0,0:0:0:0:
320,192,84822,1,0,0:0:0:0:
192,192,84913,1,0,0:0:0:0:
448,192,85004,1,0,0:0:0:0:
64,192,85095,1,2,0:0:0:0:
192,192,85095,1,8,0:0:0:0:
320,192,85095,1,0,0:0:0:0:
448,192,85186,1,0,0:0:0:0:
192,192,85277,1,0,0:0:0:0:
320,192,85368,1,0,0:0:0:0:
64,192,85458,1,2,0:0:0:0:
192,192,85458,1,0,0:0:0:0:
448,192,85549,1,0,0:0:0:0:
64,192,85640,1,0,0:0:0:0:
192,192,85731,1,2,0:0:0:0:
320,192,85731,1,0,0:0:0:0:
64,192,85822,1,8,0:0:0:0:
320,192,85822,1,2,0:0:0:0:
448,192,85822,1,0,0:0:0:0:
192,192,85913,1,0,0:0:0:0:
64,192,86004,1,2,0:0:0:0:
448,192,86004,1,0,0:0:0:0:
320,192,86095,1,0,0:0:0:0:
192,192,86186,1,0,0:0:0:0:
448,192,86277,1,0,0:0:0:0:
64,192,86368,1,2,0:0:0:0:
320,192,86368,1,0,0:0:0:0:
192,192,86458,1,0,0:0:0:0:
64,192,86549,1,2,0:0:0:0:
320,192,86549,1,8,0:0:0:0:
448,192,86549,1,0,0:0:0:0:
192,192,86640,1,0,0:0:0:0:
448,192,86731,1,0,0:0:0:0:
320,192,86822,1,0,0:0:0:0:
64,192,86913,1,2,0:0:0:0:
192,192,86913,1,0,0:0:0:0:
320,192,87004,1,0,0:0:0:0:
448,192,87095,1,0,0:0:0:0:
64,192,87186,1,2,0:0:0:0:
192,192,87186,1,0,0:0:0:0:
64,192,87277,1,8,0:0:0:0:
320,192,87277,1,2,0:0:0:0:
448,192,87277,1,0,0:0:0:0:
192,192,87458,1,2,0:0:0:0:
320,192,87458,1,0,0:0:0:0:
64,192,87640,1,2,0:0:0:0:
448,192,87640,1,4,0:0:0:0:
320,192,87731,1,0,0:0:0:0:
192,192,87822,1,0,0:0:0:0:
448,192,87913,1,0,0:0:0:0:
64,192,88004,1,8,0:0:0:0:
192,192,88004,1,2,0:0:0:0:
320,192,88004,1,0,0:0:0:0:
448,192,88095,1,0,0:0:0:0:
320,192,88186,1,0,0:0:0:0:
192,192,88277,1,0,0:0:0:0:
64,192,88368,1,2,0:0:0:0:
320,192,88368,1,0,0:0:0:0:
192,192,88458,1,0,0:0:0:0:
448,192,88549,1,0,0:0:0:0:
320,192,88640,1,0,0:0:0:0:
64,192,88731,1,2,0:0:0:0:
192,192,88731,1,8,0:0:0:0:
448,192,88731,1,0,0:0:0:0:
320,192,88822,1,0,0:0:0:0:
64,192,88913,1,2,0:0:0:0:
192,192,88913,1,4,0:0:0:0:
320,192,89004,1,0,0:0:0:0:
192,192,89095,1,0,0:0:0:0:
448,192,89186,1,0,0:0:0:0:
64,192,89277,1,2,0:0:0:0:
320,192,89277,1,0,0:0:0:0:
192,192,89368,1,0,0:0:0:0:
64,192,89458,1,8,0:0:0:0:
320,192,89458,1,2,0:0:0:0:
448,192,89458,1,0,0:0:0:0:
192,192,89549,1,0,0:0:0:0:
320,192,89640,1,2,0:0:0:0:
448,192,89640,1,0,0:0:0:0:
64,192,89731,1,0,0:0:0:0:
192,192,89822,1,8,0:0:0:0:
448,192,89822,1,0,0:0:0:0:
320,192,89913,1,0,0:0:0:0:
64,192,90004,1,2,0:0:0:0:
192,192,90004,1,0,0:0:0:0:
320,192,90095,1,0,0:0:0:0:
192,192,90186,1,0,0:0:0:0:
448,192,90186,1,0,0:0:0:0:
64,192,90277,1,0,0:0:0:0:
320,192,90368,1,2,0:0:0:0:
448,192,90368,1,0,0:0:0:0:
192,192,90458,1,0,0:0:0:0:
64,192,90549,1,2,0:0:0:0:
320,192,90549,1,0,0:0:0:0:
448,192,90549,1,0,0:0:0:0:
192,192,90640,1,0,0:0:0:0:
64,192,90731,1,0,0:0:0:0:
320,192,90822,1,0,0:0:0:0:
64,192,90913,1,2,0:0:0:0:
192,192,90913,1,8,0:0:0:0:
448,192,90913,1,0,0:0:0:0:
320,192,91004,1,0,0:0:0:0:
192,192,91095,1,0,0:0:0:0:
320,192,91186,1,0,0:0:0:0:
64,192,91277,1,2,0:0:0:0:
448,192,91277,1,8,0:0:0:0:
192,192,91368,1,0,0:0:0:0:
320,192,91458,1,0,0:0:0:0:
64,192,91549,1,0,0:0:0:0:
448,192,91640,128,0,91822:0:0:0:0:
64,192,91731,128,0,91913:0:0:0:0:
320,192,91822,128,0,92004:0:0:0:0:
192,192,91913,128,0,92004:0:0:0:0:
64,192,92004,128,2,92095:0:0:0:0:
448,192,92004,1,4,0:0:0:0:
320,192,92095,1,0,0:0:0:0:
64,192,92186,128,2,92277:0:0:0:0:
448,192,92186,1,0,0:0:0:0:
320,192,92277,1,0,0:0:0:0:
64,192,92368,1,2,0:0:0:0:
192,192,92368,1,4,0:0:0:0:
448,192,92458,1,0,0:0:0:0:
192,192,92549,1,2,0:0:0:0:
320,192,92549,1,4,0:0:0:0:
64,192,92640,1,0,0:0:0:0:
320,192,92731,1,8,0:0:0:0:
448,192,92731,1,4,0:0:0:0:
64,192,92822,1,8,0:0:0:0:
192,192,92822,1,0,0:0:0:0:
320,192,92913,1,8,0:0:0:0:
448,192,92913,1,4,0:0:0:0:
64,192,93004,1,8,0:0:0:0:
192,192,93004,1,0,0:0:0:0:
320,192,93095,1,4,0:0:0:0:
448,192,93095,1,0,0:0:0:0:
64,192,93186,1,0,0:0:0:0:
192,192,93277,1,0,0:0:0:0:
320,192,93368,1,0,0:0:0:0:
64,192,93458,1,4,0:0:0:0:
448,192,93458,1,0,0:0:0:0:
448,192,93640,1,0,0:0:0:0:
448,192,93822,1,0,0:0:0:0:
448,192,94004,1,0,0:0:0:0:
448,192,94186,1,0,0:0:0:0:
448,192,94368,1,0,0:0:0:0:
448,192,94549,128,0,94731:0:0:0:0:
64,192,94731,1,0,0:0:0:0:
320,192,94731,1,0,0:0:0:0:
64,192,94913,1,0,0:0:0:0:
64,192,95095,1,0,0:0:0:0:
64,192,95277,1,0,0:0:0:0:
64,192,95458,1,0,0:0:0:0:
64,192,95640,1,0,0:0:0:0:
64,192,95822,1,0,0:0:0:0:
64,192,96004,128,0,96368:0:0:0:0:
320,192,96186,1,0,0:0:0:0:
192,192,96368,1,0,0:0:0:0:
320,192,96368,1,0,0:0:0:0:
320,192,96549,1,0,0:0:0:0:
320,192,96731,1,0,0:0:0:0:
320,192,96913,1,0,0:0:0:0:
320,192,97095,1,0,0:0:0:0:
320,192,97277,1,0,0:0:0:0:
320,192,97458,128,0,97640:0:0:0:0:
64,192,97640,1,0,0:0:0:0:
192,192,97640,1,0,0:0:0:0:
192,192,97822,1,0,0:0:0:0:
192,192,98004,1,0,0:0:0:0:
192,192,98186,1,0,0:0:0:0:
192,192,98368,1,0,0:0:0:0:
192,192,98549,128,0,98913:0:0:0:0:
448,192,98549,1,0,0:0:0:0:
448,192,98731,1,0,0:0:0:0:
320,192,98913,128,0,99277:0:0:0:0:
64,192,99095,1,0,0:0:0:0:
64,192,99277,1,0,0:0:0:0:
448,192,99277,1,0,0:0:0:0:
448,192,99458,1,0,0:0:0:0:
448,192,99640,1,0,0:0:0:0:
448,192,99822,1,0,0:0:0:0:
448,192,100004,1,0,0:0:0:0:
448,192,100186,1,0,0:0:0:0:
448,192,100368,1,0,0:0:0:0:
192,192,100549,1,0,0:0:0:0:
448,192,100549,128,0,102186:0:0:0:0:
192,192,100731,1,0,0:0:0:0:
192,192,100913,1,0,0:0:0:0:
192,192,101095,1,0,0:0:0:0:
192,192,101277,1,0,0:0:0:0:
192,192,101458,1,0,0:0:0:0:
192,192,101640,1,0,0:0:0:0:
192,192,101822,1,0,0:0:0:0:
192,192,102004,1,0,0:0:0:0:
192,192,102186,1,0,0:0:0:0:
320,192,102186,1,0,0:0:0:0:
320,192,102368,1,0,0:0:0:0:
320,192,102549,1,0,0:0:0:0:
320,192,102731,1,0,0:0:0:0:
320,192,102913,1,0,0:0:0:0:
320,192,103095,1,0,0:0:0:0:
320,192,103277,1,0,0:0:0:0:
64,192,103458,1,0,0:0:0:0:
320,192,103458,128,0,104368:0:0:0:0:
64,192,103640,1,0,0:0:0:0:
64,192,103822,1,0,0:0:0:0:
64,192,104004,1,0,0:0:0:0:
64,192,104186,1,0,0:0:0:0:
64,192,104368,128,0,105095:0:0:0:0:
448,192,104368,1,0,0:0:0:0:
448,192,104549,1,0,0:0:0:0:
448,192,104731,1,0,0:0:0:0:
448,192,104913,1,0,0:0:0:0:
320,192,105095,1,2,0:0:0:0:
448,192,105095,1,4,0:0:0:0:
192,192,105277,1,0,0:0:0:0:
64,192,105458,1,0,0:0:0:70:snare.wav
320,192,105458,1,0,0:0:0:0:
448,192,105458,1,0,0:0:0:0:
192,192,105640,1,0,0:0:0:0:
320,192,105731,1,0,0:0:0:0:
448,192,105822,1,0,0:0:0:0:
64,192,106004,1,2,0:0:0:0:
192,192,106004,1,0,0:0:0:0:
64,192,106186,1,0,0:0:0:70:snare.wav
320,192,106186,1,0,0:0:0:0:
448,192,106186,1,0,0:0:0:0:
192,192,106368,1,0,0:0:0:0:
320,192,106549,1,2,0:0:0:0:
448,192,106549,1,0,0:0:0:0:
64,192,106731,1,0,0:0:0:0:
192,192,106913,1,0,0:0:0:70:snare.wav
320,192,106913,1,0,0:0:0:0:
448,192,106913,1,0,0:0:0:0:
64,192,107095,1,0,0:0:0:0:
192,192,107186,1,0,0:0:0:0:
320,192,107277,1,0,0:0:0:0:
64,192,107458,1,2,0:0:0:0:
448,192,107458,1,0,0:0:0:0:
320,192,107504,1,0,0:0:0:0:
192,192,107549,1,0,0:0:0:0:
64,192,107595,1,0,0:0:0:0:
320,192,107640,1,0,0:0:0:70:snare.wav
448,192,107640,1,0,0:0:0:0:
64,192,107822,1,0,0:0:0:0:
192,192,108004,1,2,0:0:0:0:
320,192,108004,1,0,0:0:0:0:
448,192,108186,1,0,0:0:0:0:
64,192,108368,1,0,0:0:0:70:snare.wav
320,192,108368,1,0,0:0:0:0:
448,192,108368,1,0,0:0:0:0:
192,192,108549,1,0,0:0:0:0:
320,192,108640,1,0,0:0:0:0:
448,192,108731,1,0,0:0:0:0:
320,192,108822,1,0,0:0:0:0:
64,192,108913,1,2,0:0:0:0:
192,192,108913,1,0,0:0:0:0:
192,192,109095,1,0,0:0:0:70:snare.wav
320,192,109095,1,0,0:0:0:0:
448,192,109095,1,0,0:0:0:0:
64,192,109277,1,0,0:0:0:0:
192,192,109368,1,0,0:0:0:0:
320,192,109458,1,2,0:0:0:0:
448,192,109458,1,0,0:0:0:0:
192,192,109640,1,0,0:0:0:0:
64,192,109822,1,0,0:0:0:70:snare.wav
192,192,109822,1,0,0:0:0:0:
448,192,109822,1,0,0:0:0:0:
320,192,110004,1,0,0:0:0:0:
192,192,110095,1,0,0:0:0:0:
64,192,110186,1,0,0:0:0:0:
64,192,110368,1,2,0:0:0:0:
448,192,110368,1,0,0:0:0:0:
192,192,110413,1,0,0:0:0:0:
320,192,110458,1,0,0:0:0:0:
448,192,110504,1,0,0:0:0:0:
64,192,110549,1,0,0:0:0:70:snare.wav
192,192,110549,1,0,0:0:0:0:
320,192,110640,1,0,0:0:0:0:
64,192,110731,1,0,0:0:0:0:
448,192,110731,1,0,0:0:0:0:
192,192,110822,1,0,0:0:0:0:
320,192,110822,1,0,0:0:0:0:
64,192,110913,1,2,0:0:0:0:
448,192,110913,1,0,0:0:0:0:
192,192,111095,1,0,0:0:0:0:
64,192,111277,1,0,0:0:0:70:snare.wav
192,192,111277,1,0,0:0:0:0:
320,192,111277,1,0,0:0:0:0:
448,192,111458,1,0,0:0:0:0:
320,192,111549,1,0,0:0:0:0:
192,192,111640,1,0,0:0:0:0:
64,192,111822,1,2,0:0:0:0:
448,192,111822,1,0,0:0:0:0:
192,192,111913,1,0,0:0:0:0:
64,192,112004,1,0,0:0:0:70:snare.wav
320,192,112004,1,0,0:0:0:0:
448,192,112004,1,0,0:0:0:0:
192,192,112186,1,0,0:0:0:0:
320,192,112277,1,0,0:0:0:0:
64,192,112368,1,2,0:0:0:0:
192,192,112368,1,0,0:0:0:0:
320,192,112458,1,0,0:0:0:0:
448,192,112549,1,0,0:0:0:0:
64,192,112731,1,0,0:0:0:70:snare.wav
192,192,112731,1,0,0:0:0:0:
320,192,112731,1,0,0:0:0:0:
192,192,112913,1,0,0:0:0:0:
320,192,113004,1,0,0:0:0:0:
448,192,113095,1,0,0:0:0:0:
64,192,113277,1,2,0:0:0:0:
192,192,113277,1,0,0:0:0:0:
448,192,113322,1,0,0:0:0:0:
320,192,113368,1,0,0:0:0:0:
192,192,113413,1,0,0:0:0:0:
64,192,113458,1,0,0:0:0:70:snare.wav
448,192,113458,1,0,0:0:0:0:
192,192,113640,1,0,0:0:0:0:
64,192,113822,1,2,0:0:0:0:
448,192,113822,1,0,0:0:0:0:
192,192,113913,1,0,0:0:0:0:
320,192,114004,1,0,0:0:0:0:
64,192,114186,1,0,0:0:0:70:snare.wav
192,192,114186,1,0,0:0:0:0:
448,192,114186,1,0,0:0:0:0:
448,192,114368,1,0,0:0:0:0:
320,192,114458,1,0,0:0:0:0:
192,192,114549,1,0,0:0:0:0:
64,192,114731,1,2,0:0:0:0:
320,192,114731,1,0,0:0:0:0:
64,192,114913,1,0,0:0:0:70:snare.wav
192,192,114913,1,0,0:0:0:0:
448,192,114913,1,0,0:0:0:0:
320,192,115095,1,0,0:0:0:0:
192,192,115186,1,0,0:0:0:0:
64,192,115277,1,2,0:0:0:0:
448,192,115277,1,0,0:0:0:0:
320,192,115458,1,0,0:0:0:0:
64,192,115640,1,0,0:0:0:70:snare.wav
192,192,115640,1,0,0:0:0:0:
448,192,115640,1,0,0:0:0:0:
64,192,115822,1,0,0:0:0:0:
192,192,115913,1,0,0:0:0:0:
320,192,116004,1,0,0:0:0:0:
64,192,116186,1,2,0:0:0:0:
448,192,116186,1,0,0:0:0:0:
320,192,116231,1,0,0:0:0:0:
192,192,116277,1,0,0:0:0:0:
64,192,116322,1,0,0:0:0:0:
320,192,116368,1,0,0:0:0:70:snare.wav
448,192,116368,1,0,0:0:0:0:
64,192,116458,1,0,0:0:0:0:
192,192,116458,1,0,0:0:0:0:
320,192,116549,1,0,0:0:0:0:
448,192,116549,1,0,0:0:0:0:
64,192,116640,1,0,0:0:0:0:
192,192,116640,1,0,0:0:0:0:
64,192,116731,1,2,0:0:0:0:
320,192,116731,1,4,0:0:0:0:
448,192,116731,1,0,0:0:0:0:
192,192,116913,1,0,0:0:0:0:
64,192,117004,1,0,0:0:0:0:
320,192,117095,1,2,0:0:0:0:
448,192,117095,1,0,0:0:0:0:
320,192,117277,1,0,0:0:0:0:
192,192,117368,1,0,0:0:0:0:
64,192,117458,1,2,0:0:0:0:
320,192,117458,1,0,0:0:0:70:snare2.wav
448,192,117458,1,0,0:0:0:0:
192,192,117640,1,0,0:0:0:0:
320,192,117731,1,0,0:0:0:0:
64,192,117822,1,2,0:0:0:0:
448,192,117822,1,0,0:0:0:0:
320,192,118004,1,0,0:0:0:0:
320,192,118186,1,2,0:0:0:0:
448,192,118186,1,0,0:0:0:0:
192,192,118368,1,0,0:0:0:0:
320,192,118458,1,0,0:0:0:0:
64,192,118549,1,2,0:0:0:0:
448,192,118549,1,0,0:0:0:0:
320,192,118731,1,0,0:0:0:0:
320,192,118822,1,0,0:0:0:0:
64,192,118913,1,2,0:0:0:0:
192,192,118913,1,0,0:0:0:70:snare2.wav
448,192,118913,1,0,0:0:0:0:
320,192,119095,1,0,0:0:0:0:
192,192,119186,1,0,0:0:0:0:
320,192,119277,1,2,0:0:0:0:
448,192,119277,1,0,0:0:0:0:
192,192,119458,1,0,0:0:0:0:
64,192,119640,1,2,0:0:0:0:
192,192,119640,1,0,0:0:0:0:
448,192,119822,1,0,0:0:0:0:
192,192,119913,1,0,0:0:0:0:
64,192,120004,1,2,0:0:0:0:
320,192,120004,1,0,0:0:0:0:
192,192,120186,1,0,0:0:0:0:
320,192,120277,1,0,0:0:0:0:
64,192,120368,1,2,0:0:0:0:
192,192,120368,1,0,0:0:0:70:snare2.wav
448,192,120368,1,0,0:0:0:0:
320,192,120549,1,0,0:0:0:0:
192,192,120640,1,0,0:0:0:0:
320,192,120731,1,2,0:0:0:0:
448,192,120731,1,0,0:0:0:0:
192,192,120913,1,0,0:0:0:0:
320,192,121004,1,0,0:0:0:0:
64,192,121095,1,2,0:0:0:0:
448,192,121095,1,0,0:0:0:0:
320,192,121277,1,0,0:0:0:0:
64,192,121368,1,0,0:0:0:0:
320,192,121458,1,2,0:0:0:0:
448,192,121458,1,0,0:0:0:0:
192,192,121640,1,0,0:0:0:0:
192,192,121731,1,0,0:0:0:0:
64,192,121822,1,2,0:0:0:0:
320,192,121822,1,0,0:0:0:70:snare2.wav
448,192,121822,1,0,0:0:0:0:
192,192,121913,1,0,0:0:0:0:
448,192,122004,1,0,0:0:0:0:
320,192,122049,1,0,0:0:0:0:
192,192,122095,1,0,0:0:0:0:
64,192,122140,1,0,0:0:0:0:
320,192,122186,1,2,0:0:0:0:
448,192,122186,1,0,0:0:0:0:
192,192,122277,1,0,0:0:0:0:
320,192,122368,1,0,0:0:0:0:
448,192,122458,1,0,0:0:0:0:
64,192,122549,1,2,0:0:0:0:
192,192,122549,1,0,0:0:0:0:
320,192,122640,1,0,0:0:0:0:
64,192,122731,1,2,0:0:0:0:
192,192,122731,1,0,0:0:0:0:
448,192,122822,1,0,0:0:0:0:
64,192,122913,1,2,0:0:0:0:
192,192,122913,1,0,0:0:0:0:
320,192,123004,1,0,0:0:0:0:
64,192,123095,1,2,0:0:0:0:
192,192,123095,1,0,0:0:0:0:
448,192,123186,1,0,0:0:0:0:
64,192,123277,1,2,0:0:0:0:
192,192,123277,1,0,0:0:0:70:snare2.wav
320,192,123277,1,0,0:0:0:0:
448,192,123368,1,0,0:0:0:0:
192,192,123458,1,2,0:0:0:0:
320,192,123458,1,0,0:0:0:0:
64,192,123549,1,0,0:0:0:0:
320,192,123640,1,2,0:0:0:0:
448,192,123640,1,0,0:0:0:0:
192,192,123731,1,0,0:0:0:0:
320,192,123822,1,2,0:0:0:0:
448,192,123822,1,0,0:0:0:0:
64,192,123913,1,0,0:0:0:0:
320,192,124004,1,2,0:0:0:0:
448,192,124004,1,0,0:0:0:0:
192,192,124095,1,0,0:0:0:0:
320,192,124186,1,2,0:0:0:0:
448,192,124186,1,0,0:0:0:0:
64,192,124277,1,0,0:0:0:0:
320,192,124368,1,2,0:0:0:0:
448,192,124368,1,0,0:0:0:0:
192,192,124458,1,0,0:0:0:0:
64,192,124549,1,2,0:0:0:0:
448,192,124549,1,0,0:0:0:0:
320,192,124640,1,0,0:0:0:0:
64,192,124731,1,2,0:0:0:0:
192,192,124731,1,0,0:0:0:70:snare2.wav
448,192,124731,1,0,0:0:0:0:
320,192,124822,1,0,0:0:0:0:
64,192,124913,1,2,0:0:0:0:
448,192,124913,1,0,0:0:0:0:
192,192,125004,1,0,0:0:0:0:
320,192,125095,1,2,0:0:0:0:
448,192,125095,1,0,0:0:0:0:
64,192,125186,1,0,0:0:0:0:
192,192,125277,1,2,0:0:0:0:
320,192,125277,1,0,0:0:0:0:
64,192,125458,1,2,0:0:0:0:
448,192,125458,1,0,0:0:0:0:
192,192,125549,1,2,0:0:0:0:
320,192,125549,1,0,0:0:0:0:
64,192,125640,1,2,0:0:0:0:
448,192,125640,1,0,0:0:0:0:
192,192,125731,1,2,0:0:0:0:
320,192,125731,1,0,0:0:0:0:
64,192,125822,1,2,0:0:0:0:
448,192,125822,1,0,0:0:0:0:
192,192,125913,1,2,0:0:0:0:
320,192,125913,1,0,0:0:0:0:
64,192,126004,1,2,0:0:0:0:
448,192,126004,1,0,0:0:0:0:
320,192,126095,1,2,0:0:0:0:
64,192,126186,1,2,0:0:0:0:
192,192,126186,1,0,0:0:0:70:snare2.wav
448,192,126186,1,0,0:0:0:0:
320,192,126277,1,2,0:0:0:0:
64,192,126368,1,2,0:0:0:0:
192,192,126368,1,0,0:0:0:0:
320,192,126458,1,2,0:0:0:0:
448,192,126458,1,0,0:0:0:0:
64,192,126549,1,2,0:0:0:0:
192,192,126549,1,0,0:0:0:0:
320,192,126640,1,2,0:0:0:0:
448,192,126640,1,0,0:0:0:0:
64,192,126731,1,2,0:0:0:0:
192,192,126731,1,0,0:0:0:0:
320,192,126822,1,2,0:0:0:0:
448,192,126822,1,0,0:0:0:0:
64,192,126913,1,2,0:0:0:0:
192,192,126913,1,0,0:0:0:0:
64,192,128368,1,2,0:0:0:0:
192,192,128368,1,0,0:0:0:70:clap.wav
448,192,128368,1,0,0:0:0:0:
320,192,128731,1,0,0:0:0:70:clap.wav
64,192,129095,1,0,0:0:0:70:clap.wav
448,192,129458,1,0,0:0:0:70:clap.wav
192,192,129822,1,0,0:0:0:70:clap.wav
448,192,129822,1,0,0:0:0:0:
320,192,130186,1,0,0:0:0:70:clap.wav
64,192,130549,1,0,0:0:0:70:clap.wav
320,192,130913,1,0,0:0:0:70:clap.wav
64,192,131277,1,0,0:0:0:70:clap.wav
192,192,131277,1,0,0:0:0:70:kick.wav
448,192,131277,1,0,0:0:0:0:
320,192,131640,1,0,0:0:0:70:clap.wav
192,192,132004,1,0,0:0:0:70:clap.wav
64,192,132368,1,0,0:0:0:70:clap.wav
64,192,132731,1,0,0:0:0:70:clap.wav
448,192,132731,1,0,0:0:0:0:
192,192,133095,1,2,0:0:0:0:
320,192,133095,1,0,0:0:0:70:clap.wav
448,192,133458,1,0,0:0:0:70:clap.wav
64,192,133822,1,0,0:0:0:70:clap.wav
192,192,134186,1,0,0:0:0:70:clap.wav
320,192,134186,1,0,0:0:0:70:kick.wav
448,192,134186,1,0,0:0:0:0:
192,192,134368,1,0,0:0:0:0:
192,192,134549,1,0,0:0:0:70:clap.wav
320,192,134913,1,0,0:0:0:70:clap.wav
448,192,134913,1,0,0:0:0:0:
448,192,135186,1,0,0:0:0:0:
64,192,135277,1,0,0:0:0:70:clap.wav
448,192,135458,1,0,0:0:0:0:
64,192,135640,1,0,0:0:0:70:clap.wav
192,192,135640,1,0,0:0:0:70:kick.wav
320,192,135640,1,0,0:0:0:0:
320,192,135822,1,0,0:0:0:0:
320,192,136004,1,0,0:0:0:70:clap.wav
64,192,136368,1,0,0:0:0:70:clap.wav
192,192,136368,1,0,0:0:0:0:
64,192,136640,1,0,0:0:0:0:
448,192,136731,1,0,0:0:0:70:clap.wav
64,192,136913,1,0,0:0:0:0:
192,192,137095,1,0,0:0:0:70:clap.wav
320,192,137095,1,0,0:0:0:70:kick.wav
448,192,137095,1,0,0:0:0:0:
64,192,137186,1,0,0:0:0:0:
448,192,137277,1,0,0:0:0:0:
320,192,137368,1,0,0:0:0:0:
64,192,137458,1,0,0:0:0:70:clap.wav
64,192,137822,1,0,0:0:0:70:clap.wav
320,192,137822,1,0,0:0:0:70:kick.wav
448,192,137822,1,0,0:0:0:0:
64,192,138004,1,0,0:0:0:0:
192,192,138186,1,6,0:0:0:0:
448,192,138186,128,0,138458:0:0:0:70:clap.wav
320,192,138277,128,0,138458:0:0:0:0:
64,192,138368,128,0,138458:0:0:0:0:
192,192,138458,128,0,138549:0:0:0:0:
320,192,138549,1,2,0:0:0:0:
448,192,138549,1,0,0:0:0:0:
64,192,138595,1,0,0:0:0:0:
192,192,138640,1,0,0:0:0:0:
320,192,138686,1,0,0:0:0:0:
64,192,138731,128,0,138822:0:0:0:0:
192,192,138731,128,0,138822:0:0:0:0:
320,192,138822,128,0,138913:0:0:0:0:
448,192,138822,128,0,138913:0:0:0:0:
64,192,138913,1,10,0:0:0:0:
192,192,138913,1,4,0:0:0:0:
64,192,139095,1,0,0:0:0:70:kick.wav
448,192,139095,1,0,0:0:0:0:
192,192,139186,1,0,0:0:0:0:
64,192,139277,1,2,0:0:0:0:
320,192,139277,1,0,0:0:0:0:
448,192,139277,1,0,0:0:0:0:
320,192,139368,1,0,0:0:0:0:
448,192,139368,1,0,0:0:0:0:
64,192,139458,1,0,0:0:0:70:Cymatics - Main Clap 9_Reverb.wav
192,192,139458,1,0,0:0:0:0:
64,192,139640,1,2,0:0:0:0:
320,192,139640,1,0,0:0:0:0:
448,192,139640,1,0,0:0:0:0:
320,192,139822,1,0,0:0:0:70:kick.wav
448,192,139822,1,0,0:0:0:0:
64,192,140004,1,2,0:0:0:0:
192,192,140004,1,4,0:0:0:0:
320,192,140004,1,0,0:0:0:0:
448,192,140095,1,0,0:0:0:0:
192,192,140186,1,0,0:0:0:0:
320,192,140277,1,0,0:0:0:0:
64,192,140368,1,8,0:0:0:0:
192,192,140368,1,2,0:0:0:0:
448,192,140368,1,0,0:0:0:0:
320,192,140458,1,0,0:0:0:0:
64,192,140549,1,0,0:0:0:0:
192,192,140640,1,0,0:0:0:0:
320,192,140731,1,2,0:0:0:0:
448,192,140731,1,0,0:0:0:0:
64,192,140822,1,0,0:0:0:0:
192,192,140913,1,0,0:0:0:0:
320,192,141004,1,2,0:0:0:0:
448,192,141004,1,0,0:0:0:0:
64,192,141095,1,2,0:0:0:0:
192,192,141095,1,8,0:0:0:0:
448,192,141095,1,0,0:0:0:0:
320,192,141186,1,0,0:0:0:0:
64,192,141277,1,2,0:0:0:0:
192,192,141277,1,0,0:0:0:0:
448,192,141368,1,0,0:0:0:0:
64,192,141458,1,8,0:0:0:0:
320,192,141458,1,0,0:0:0:0:
448,192,141549,1,0,0:0:0:0:
64,192,141640,1,2,0:0:0:0:
192,192,141640,1,0,0:0:0:0:
320,192,141731,1,0,0:0:0:0:
64,192,141822,1,8,0:0:0:0:
192,192,141822,1,2,0:0:0:0:
448,192,141822,1,0,0:0:0:0:
320,192,141913,1,0,0:0:0:0:
448,192,142004,1,0,0:0:0:0:
192,192,142095,1,0,0:0:0:0:
64,192,142186,1,2,0:0:0:0:
320,192,142186,1,0,0:0:0:0:
448,192,142186,1,0,0:0:0:0:
192,192,142277,1,0,0:0:0:0:
64,192,142368,1,0,0:0:0:0:
320,192,142458,1,2,0:0:0:0:
448,192,142458,1,0,0:0:0:0:
64,192,142549,1,2,0:0:0:0:
192,192,142549,1,8,0:0:0:0:
320,192,142549,1,0,0:0:0:0:
448,192,142640,1,0,0:0:0:0:
64,192,142731,1,2,0:0:0:0:
192,192,142731,1,0,0:0:0:0:
320,192,142822,1,0,0:0:0:0:
64,192,142913,1,2,0:0:0:0:
192,192,142913,1,0,0:0:0:0:
448,192,142913,1,0,0:0:0:0:
64,192,143095,1,0,0:0:0:0:
192,192,143186,1,0,0:0:0:0:
64,192,143277,1,2,0:0:0:0:
320,192,143277,1,8,0:0:0:0:
448,192,143277,1,0,0:0:0:0:
192,192,143368,1,0,0:0:0:0:
320,192,143458,1,0,0:0:0:0:
192,192,143549,1,0,0:0:0:0:
64,192,143640,1,2,0:0:0:0:
448,192,143640,1,0,0:0:0:0:
320,192,143731,1,0,0:0:0:0:
448,192,143822,1,0,0:0:0:0:
64,192,143913,1,2,0:0:0:0:
192,192,143913,1,0,0:0:0:0:
192,192,144004,1,8,0:0:0:0:
320,192,144004,1,2,0:0:0:0:
448,192,144004,1,0,0:0:0:0:
64,192,144095,1,0,0:0:0:0:
320,192,144186,1,2,0:0:0:0:
448,192,144186,1,0,0:0:0:0:
64,192,144277,1,0,0:0:0:0:
192,192,144368,1,8,0:0:0:0:
320,192,144368,1,0,0:0:0:0:
448,192,144458,1,0,0:0:0:0:
64,192,144549,1,2,0:0:0:0:
192,192,144549,1,0,0:0:0:0:
320,192,144640,1,0,0:0:0:0:
64,192,144731,1,2,0:0:0:0:
192,192,144731,1,8,0:0:0:0:
448,192,144731,1,0,0:0:0:0:
320,192,144822,1,0,0:0:0:0:
64,192,144913,1,0,0:0:0:0:
448,192,145004,1,0,0:0:0:0:
64,192,145095,1,2,0:0:0:0:
192,192,145095,1,0,0:0:0:0:
320,192,145095,1,0,0:0:0:0:
448,192,145186,1,0,0:0:0:0:
192,192,145277,1,0,0:0:0:0:
320,192,145368,1,2,0:0:0:0:
448,192,145368,1,0,0:0:0:0:
64,192,145458,1,8,0:0:0:0:
192,192,145458,1,2,0:0:0:0:
448,192,145458,1,0,0:0:0:0:
64,192,145640,1,2,0:0:0:0:
192,192,145640,1,4,0:0:0:0:
320,192,145640,1,0,0:0:0:0:
64,192,145822,1,2,0:0:0:0:
320,192,145822,1,4,0:0:0:0:
448,192,145822,1,8,0:0:0:0:
192,192,145913,1,0,0:0:0:0:
320,192,146004,1,8,0:0:0:0:
448,192,146004,1,0,0:0:0:0:
192,192,146095,1,0,0:0:0:0:
64,192,146186,1,2,0:0:0:0:
448,192,146186,1,8,0:0:0:0:
320,192,146277,1,0,0:0:0:0:
64,192,146368,1,8,0:0:0:0:
192,192,146368,1,0,0:0:0:0:
320,192,146458,1,0,0:0:0:0:
64,192,146549,1,2,0:0:0:0:
192,192,146549,1,8,0:0:0:0:
448,192,146549,1,0,0:0:0:0:
320,192,146640,1,0,0:0:0:0:
64,192,146731,1,8,0:0:0:0:
192,192,146731,1,0,0:0:0:0:
448,192,146822,1,0,0:0:0:0:
64,192,146913,1,2,0:0:0:0:
320,192,146913,1,8,0:0:0:0:
192,192,147004,1,0,0:0:0:0:
64,192,147095,1,2,0:0:0:0:
320,192,147095,1,4,0:0:0:0:
448,192,147095,1,8,0:0:0:0:
192,192,147186,1,0,0:0:0:0:
64,192,147277,1,8,0:0:0:0:
448,192,147277,1,2,0:0:0:0:
320,192,147368,1,0,0:0:0:0:
192,192,147458,1,8,0:0:0:0:
448,192,147458,1,0,0:0:0:0:
64,192,147549,1,0,0:0:0:0:
320,192,147640,1,8,0:0:0:0:
448,192,147640,1,2,0:0:0:0:
192,192,147731,1,0,0:0:0:0:
64,192,147822,1,8,0:0:0:0:
320,192,147822,1,0,0:0:0:0:
192,192,147913,1,0,0:0:0:0:
64,192,148004,1,8,0:0:0:0:
320,192,148004,1,2,0:0:0:0:
448,192,148004,1,0,0:0:0:0:
192,192,148095,1,0,0:0:0:0:
64,192,148186,1,8,0:0:0:0:
448,192,148186,1,0,0:0:0:0:
320,192,148277,1,8,0:0:0:0:
192,192,148368,1,8,0:0:0:0:
448,192,148368,1,2,0:0:0:0:
320,192,148458,1,0,0:0:0:0:
64,192,148549,1,8,0:0:0:0:
448,192,148549,1,0,0:0:0:0:
192,192,148640,1,0,0:0:0:0:
320,192,148731,1,12,0:0:0:0:
448,192,148731,1,2,0:0:0:0:
64,192,148822,1,8,0:0:0:0:
192,192,148822,1,0,0:0:0:0:
320,192,148913,1,8,0:0:0:0:
448,192,148913,1,0,0:0:0:0:
64,192,149004,1,8,0:0:0:0:
192,192,149004,1,0,0:0:0:0:
320,192,149095,1,8,0:0:0:0:
448,192,149095,1,2,0:0:0:0:
64,192,149186,1,8,0:0:0:0:
192,192,149186,1,0,0:0:0:0:
320,192,149277,1,8,0:0:0:0:
448,192,149277,1,0,0:0:0:0:
64,192,149368,1,8,0:0:0:0:
192,192,149368,1,0,0:0:0:0:
320,192,149458,1,8,0:0:0:0:
448,192,149458,1,2,0:0:0:0:
64,192,149549,1,8,0:0:0:0:
192,192,149549,1,0,0:0:0:0:
320,192,149640,1,8,0:0:0:0:
448,192,149640,1,0,0:0:0:0:
64,192,149731,1,8,0:0:0:0:
192,192,149731,1,0,0:0:0:0:
320,192,149822,1,8,0:0:0:0:
448,192,149822,1,2,0:0:0:0:
64,192,149913,1,8,0:0:0:0:
192,192,149913,1,0,0:0:0:0:
320,192,150004,1,8,0:0:0:0:
448,192,150004,1,0,0:0:0:0:
64,192,150095,1,8,0:0:0:0:
192,192,150095,1,0,0:0:0:0:
64,192,150186,1,8,0:0:0:0:
320,192,150186,1,2,0:0:0:0:
448,192,150186,1,0,0:0:0:0:
192,192,150277,1,8,0:0:0:0:
320,192,150368,1,8,0:0:0:0:
192,192,150458,1,8,0:0:0:0:
448,192,150549,1,0,0:0:0:35:clap.wav
64,192,150640,1,0,0:0:0:0:
320,192,150731,1,0,0:0:0:35:clap.wav
448,192,150822,1,0,0:0:0:0:
192,192,150913,1,0,0:0:0:35:clap.wav
320,192,151004,1,0,0:0:0:0:
64,192,151095,128,0,151277:0:0:0:35:clap.wav
448,192,151277,1,0,0:0:0:35:clap.wav
320,192,151368,1,0,0:0:0:0:
192,192,151458,128,0,151640:0:0:0:35:clap.wav
64,192,151640,1,2,0:0:0:0:
320,192,151640,128,4,151913:0:0:0:0:
448,192,151640,128,0,151913:0:0:0:0:
64,192,152004,1,2,0:0:0:0:
320,192,152004,1,0,0:0:0:40:Cymatics - Main Clap 9_Reverb.wav
448,192,152004,128,0,152277:0:0:0:0:
192,192,152095,1,0,0:0:0:0:
64,192,152186,1,0,0:0:0:0:
320,192,152277,1,0,0:0:0:0:
192,192,152368,1,2,0:0:0:0:
448,192,152368,1,0,0:0:0:0:
320,192,152458,1,0,0:0:0:0:
64,192,152549,1,0,0:0:0:0:
320,192,152640,1,2,0:0:0:0:
448,192,152640,1,0,0:0:0:0:
64,192,152731,1,2,0:0:0:0:
192,192,152731,1,0,0:0:0:40:Cymatics - Main Clap 9_Reverb.wav
320,192,152731,1,0,0:0:0:0:
64,192,152913,128,2,153368:0:0:0:0:
192,192,152913,128,4,153368:0:0:0:0:
448,192,152913,1,0,0:0:0:0:
64,192,153458,128,2,153640:0:0:0:0:
192,192,153458,1,0,0:0:0:40:Cymatics - Main Clap 9_Reverb.wav
448,192,153458,1,0,0:0:0:0:
320,192,153640,1,0,0:0:0:0:
192,192,153731,1,0,0:0:0:0:
64,192,153822,1,2,0:0:0:0:
448,192,153822,1,0,0:0:0:0:
320,192,153913,1,0,0:0:0:0:
192,192,154004,1,0,0:0:0:0:
320,192,154095,1,2,0:0:0:0:
448,192,154095,1,0,0:0:0:0:
64,192,154186,1,2,0:0:0:0:
192,192,154186,1,0,0:0:0:40:Cymatics - Main Clap 9_Reverb.wav
448,192,154186,1,0,0:0:0:0:
320,192,154368,1,2,0:0:0:0:
448,192,154368,1,0,0:0:0:0:
64,192,154458,1,2,0:0:0:0:
192,192,154458,1,0,0:0:0:0:
64,192,154549,128,2,154822:0:0:0:0:
320,192,154549,1,4,0:0:0:0:
448,192,154549,128,0,154822:0:0:0:0:
64,192,154913,128,2,155186:0:0:0:0:
192,192,154913,1,0,0:0:0:40:Cymatics - Main Clap 9_Reverb.wav
320,192,154913,1,0,0:0:0:0:
448,192,155095,1,0,0:0:0:0:
320,192,155186,1,0,0:0:0:0:
64,192,155277,1,2,0:0:0:0:
192,192,155277,1,0,0:0:0:0:
320,192,155368,1,0,0:0:0:0:
448,192,155458,1,0,0:0:0:0:
64,192,155549,1,2,0:0:0:0:
192,192,155549,1,0,0:0:0:0:
64,192,155640,1,2,0:0:0:0:
320,192,155640,1,0,0:0:0:40:Cymatics - Main Clap 9_Reverb.wav
448,192,155640,1,0,0:0:0:0:
64,192,155822,1,2,0:0:0:0:
192,192,155822,128,4,156277:0:0:0:0:
320,192,155822,128,0,156277:0:0:0:0:
448,192,156004,128,0,156277:0:0:0:0:
192,192,156368,1,2,0:0:0:0:
320,192,156368,128,0,156549:0:0:0:40:Cymatics - Main Clap 9_Reverb.wav
448,192,156368,128,0,156549:0:0:0:0:
64,192,156549,1,0,0:0:0:0:
320,192,156640,1,0,0:0:0:0:
64,192,156731,1,2,0:0:0:0:
192,192,156731,1,4,0:0:0:0:
448,192,156731,1,0,0:0:0:40:Cymatics - Main Clap 9_Reverb.wav
64,192,157004,1,2,0:0:0:0:
320,192,157004,1,4,0:0:0:0:
448,192,157004,1,0,0:0:0:40:Cymatics - Main Clap 9_Reverb.wav
64,192,157277,1,2,0:0:0:0:
192,192,157277,1,4,0:0:0:0:
448,192,157277,1,0,0:0:0:40:Cymatics - Main Clap 9_Reverb.wav
64,192,157458,128,2,157731:0:0:0:0:
192,192,157458,128,4,157731:0:0:0:0:
320,192,157458,1,0,0:0:0:0:
64,192,157822,1,0,0:0:0:40:Cymatics - Main Clap 9_Reverb.wav
192,192,157822,1,0,0:0:0:0:
448,192,157822,1,0,0:0:0:0:
64,192,158004,1,0,0:0:0:40:Cymatics - Main Clap 9_Reverb.wav
320,192,158004,1,0,0:0:0:0:
448,192,158004,1,0,0:0:0:0:
448,192,158186,1,0,0:0:0:70:LR_Drum Rpd x2.wav
320,192,158231,1,0,0:0:0:70:LR_Drum Rpd x2.wav
192,192,158277,1,0,0:0:0:70:LR_Drum Rpd x2.wav
64,192,158322,1,0,0:0:0:70:LR_Drum Rpd x2.wav
448,192,158368,1,0,0:0:0:70:LR_Drum Rpd x2.wav
320,192,158413,1,0,0:0:0:70:LR_Drum Rpd x2.wav
192,192,158458,1,0,0:0:0:70:LR_Drum Rpd x2.wav
64,192,158504,1,0,0:0:0:70:LR_Drum Rpd x2.wav
320,192,158549,1,0,0:0:0:40:Cymatics - Main Clap 9_Reverb.wav
448,192,158549,1,0,0:0:0:0:
64,192,158731,128,2,159186:0:0:0:0:
192,192,158731,128,4,159186:0:0:0:0:
320,192,158731,1,0,0:0:0:0:
448,192,158913,128,0,159186:0:0:0:0:
64,192,159277,128,2,159458:0:0:0:0:
192,192,159277,1,0,0:0:0:40:Cymatics - Main Clap 9_Reverb.wav
448,192,159277,128,0,159458:0:0:0:0:
320,192,159458,1,0,0:0:0:0:
192,192,159549,1,0,0:0:0:0:
64,192,159640,1,2,0:0:0:0:
448,192,159640,1,0,0:0:0:0:
320,192,159731,1,0,0:0:0:0:
192,192,159822,1,0,0:0:0:0:
320,192,159913,1,2,0:0:0:0:
448,192,159913,1,0,0:0:0:0:
64,192,160004,1,2,0:0:0:0:
192,192,160004,1,0,0:0:0:40:Cymatics - Main Clap 9_Reverb.wav
448,192,160004,1,0,0:0:0:0:
320,192,160186,1,2,0:0:0:0:
448,192,160186,1,0,0:0:0:0:
64,192,160277,1,2,0:0:0:0:
192,192,160277,1,0,0:0:0:0:
64,192,160368,1,2,0:0:0:0:
320,192,160368,128,4,160640:0:0:0:0:
448,192,160368,128,0,160640:0:0:0:0:
64,192,160731,1,2,0:0:0:0:
320,192,160731,1,0,0:0:0:40:Cymatics - Main Clap 9_Reverb.wav
448,192,160731,128,0,161095:0:0:0:0:
192,192,160913,1,0,0:0:0:0:
320,192,161004,1,0,0:0:0:0:
64,192,161095,1,2,0:0:0:0:
192,192,161095,1,0,0:0:0:0:
448,192,161186,1,0,0:0:0:0:
320,192,161277,1,0,0:0:0:0:
64,192,161368,1,2,0:0:0:0:
192,192,161368,1,0,0:0:0:0:
64,192,161458,1,2,0:0:0:0:
320,192,161458,1,0,0:0:0:40:Cymatics - Main Clap 9_Reverb.wav
448,192,161458,1,0,0:0:0:0:
192,192,161549,1,0,0:0:0:0:
64,192,161640,1,2,0:0:0:0:
320,192,161640,128,4,162095:0:0:0:0:
448,192,161640,128,0,162095:0:0:0:0:
192,192,161822,128,0,162095:0:0:0:0:
64,192,162186,1,2,0:0:0:0:
192,192,162186,128,0,162368:0:0:0:40:Cymatics - Main Clap 9_Reverb.wav
448,192,162186,128,0,162368:0:0:0:0:
320,192,162368,1,0,0:0:0:0:
192,192,162458,1,0,0:0:0:0:
64,192,162549,1,2,0:0:0:0:
448,192,162549,128,4,162731:0:0:0:0:
192,192,162731,1,0,0:0:0:0:
64,192,162822,1,2,0:0:0:0:
448,192,162822,1,4,0:0:0:0:
320,192,162913,128,0,163186:0:0:0:0:
64,192,163095,1,2,0:0:0:0:
448,192,163095,1,4,0:0:0:0:
192,192,163186,1,0,0:0:0:0:
64,192,163277,1,2,0:0:0:0:
448,192,163277,128,4,163640:0:0:0:0:
320,192,163368,1,0,0:0:0:0:
192,192,163458,1,0,0:0:0:0:
64,192,163640,1,0,0:0:0:40:Cymatics - Main Clap 9_Reverb.wav
320,192,163640,1,0,0:0:0:0:
320,192,163822,1,0,0:0:0:0:
64,192,164004,1,0,0:0:0:40:Cymatics - Main Clap 9_Reverb.wav
192,192,164004,1,0,0:0:0:0:
448,192,164004,1,0,0:0:0:0:
320,192,164186,1,0,0:0:0:70:LR_Drum Rpd x2.wav
448,192,164186,1,0,0:0:0:0:
64,192,164277,1,0,0:0:0:70:LR_Drum Rpd x2.wav
192,192,164277,1,0,0:0:0:0:
64,192,164368,1,0,0:0:0:40:Cymatics - Main Clap 9_Reverb.wav
448,192,164368,1,0,0:0:0:0:
64,192,164549,1,2,0:0:0:0:
192,192,164549,128,4,164913:0:0:0:0:
320,192,164913,128,2,165277:0:0:0:0:
448,192,164913,1,4,0:0:0:0:
64,192,165095,1,0,0:0:0:40:Cymatics - Main Clap 9_Reverb.wav
448,192,165095,1,0,0:0:0:0:
64,192,165277,1,0,0:0:0:0:
192,192,165277,1,0,0:0:0:0:
448,192,165368,1,2,0:0:0:0:
320,192,165413,1,2,0:0:0:0:
64,192,165458,1,0,0:0:0:40:Cymatics - Main Clap 9_Reverb.wav
192,192,165458,1,0,0:0:0:0:
320,192,165640,1,0,0:0:0:70:LR_Drum Rpd x2.wav
448,192,165640,1,0,0:0:0:0:
192,192,165686,1,0,0:0:0:70:LR_Drum Rpd x2.wav
64,192,165731,1,0,0:0:0:70:LR_Drum Rpd x2.wav
320,192,165777,1,0,0:0:0:70:LR_Drum Rpd x2.wav
64,192,165822,1,0,0:0:0:40:Cymatics - Main Clap 9_Reverb.wav
192,192,165822,1,0,0:0:0:0:
320,192,165913,1,0,0:0:0:70:LR_Drum Rpd x2.wav
64,192,166004,1,0,0:0:0:70:LR_Drum Rpd x2.wav
192,192,166004,1,0,0:0:0:0:
448,192,166095,1,0,0:0:0:70:LR_Drum Rpd x2.wav
64,192,166186,1,2,0:0:0:0:
320,192,166186,128,4,166731:0:0:0:0:
192,192,166368,1,0,0:0:0:0:
192,192,166549,1,0,0:0:0:40:Cymatics - Main Clap 9_Reverb.wav
448,192,166549,1,0,0:0:0:0:
64,192,166731,1,0,0:0:0:0:
192,192,166913,1,0,0:0:0:40:Cymatics - Main Clap 9_Reverb.wav
320,192,166913,1,0,0:0:0:0:
448,192,166913,1,0,0:0:0:0:
64,192,167095,1,0,0:0:0:70:LR_Drum Rpd x2.wav
192,192,167095,1,0,0:0:0:0:
320,192,167186,1,0,0:0:0:70:LR_Drum Rpd x2.wav
448,192,167186,1,0,0:0:0:0:
64,192,167277,1,0,0:0:0:40:Cymatics - Main Clap 9_Reverb.wav
448,192,167277,1,0,0:0:0:0:
64,192,167458,128,2,167822:0:0:0:0:
448,192,167458,1,4,0:0:0:0:
192,192,167640,1,0,0:0:0:0:
320,192,167822,1,2,0:0:0:0:
448,192,167822,128,4,167913:0:0:0:0:
64,192,168004,1,0,0:0:0:40:Cymatics - Main Clap 9_Reverb.wav
448,192,168004,128,0,168186:0:0:0:0:
320,192,168186,1,0,0:0:0:0:
64,192,168277,1,2,0:0:0:0:
192,192,168322,1,2,0:0:0:0:
320,192,168368,1,4,0:0:0:0:
448,192,168368,1,0,0:0:0:40:Cymatics - Main Clap 9_Reverb.wav
64,192,168549,1,0,0:0:0:50:LR_Drum Rpd x2.wav
448,192,168549,1,0,0:0:0:0:
320,192,168595,1,0,0:0:0:50:LR_Drum Rpd x2.wav
192,192,168640,1,0,0:0:0:50:LR_Drum Rpd x2.wav
64,192,168686,1,0,0:0:0:50:LR_Drum Rpd x2.wav
320,192,168731,1,0,0:0:0:40:Cymatics - Main Clap 9_Reverb.wav
448,192,168731,1,0,0:0:0:0:
192,192,168822,1,0,0:0:0:50:LR_Drum Rpd x2.wav
320,192,168913,1,0,0:0:0:50:LR_Drum Rpd x2.wav
448,192,168913,1,0,0:0:0:0:
192,192,169004,1,0,0:0:0:50:LR_Drum Rpd x2.wav
64,192,169095,128,2,169640:0:0:0:0:
320,192,169095,1,4,0:0:0:0:
192,192,169277,1,0,0:0:0:70:LR_Drum Rpd x2.wav
320,192,169458,1,0,0:0:0:40:Cymatics - Main Clap 9_Reverb.wav
448,192,169458,1,0,0:0:0:0:
448,192,169640,128,0,169822:0:0:0:70:LR_Drum Rpd x2.wav
64,192,169822,1,0,0:0:0:40:Cymatics - Main Clap 9_Reverb.wav
192,192,169822,1,0,0:0:0:0:
320,192,169822,1,0,0:0:0:0:
320,192,170004,1,0,0:0:0:70:LR_Drum Rpd x2.wav
448,192,170004,1,0,0:0:0:0:
64,192,170095,1,0,0:0:0:70:LR_Drum Rpd x2.wav
192,192,170095,1,0,0:0:0:0:
64,192,170186,1,0,0:0:0:40:Cymatics - Main Clap 9_Reverb.wav
448,192,170186,1,0,0:0:0:0:
192,192,170368,1,4,0:0:0:0:
448,192,170368,128,2,170731:0:0:0:0:
320,192,170549,1,0,0:0:0:0:
64,192,170731,128,4,170913:0:0:0:0:
192,192,170731,1,2,0:0:0:0:
320,192,170913,1,0,0:0:0:40:Cymatics - Main Clap 9_Reverb.wav
448,192,170913,1,0,0:0:0:0:
64,192,171095,1,0,0:0:0:0:
320,192,171186,1,2,0:0:0:0:
192,192,171231,1,2,0:0:0:0:
64,192,171277,1,0,0:0:0:40:Cymatics - Main Clap 9_Reverb.wav
448,192,171277,1,0,0:0:0:0:
64,192,171458,1,0,0:0:0:70:LR_Drum Rpd x2.wav
192,192,171504,1,0,0:0:0:70:LR_Drum Rpd x2.wav
320,192,171549,1,0,0:0:0:70:LR_Drum Rpd x2.wav
448,192,171595,1,0,0:0:0:70:LR_Drum Rpd x2.wav
64,192,171640,1,0,0:0:0:40:Cymatics - Main Clap 9_Reverb.wav
192,192,171640,1,0,0:0:0:0:
448,192,171822,1,0,0:0:0:70:LR_Drum Rpd x2.wav
320,192,171868,1,0,0:0:0:70:LR_Drum Rpd x2.wav
192,192,171913,1,0,0:0:0:70:LR_Drum Rpd x2.wav
64,192,171958,1,0,0:0:0:70:LR_Drum Rpd x2.wav
320,192,172004,1,2,0:0:0:0:
448,192,172004,128,4,172686:0:0:0:0:
64,192,172186,1,0,0:0:0:0:
192,192,172368,1,0,0:0:0:40:Cymatics - Main Clap 9_Reverb.wav
320,192,172368,1,0,0:0:0:0:
64,192,172549,1,0,0:0:0:0:
64,192,172686,1,0,0:0:0:40:Cymatics - Main Clap 9_Reverb.wav
192,192,172686,1,0,0:0:0:0:
320,192,172686,1,0,0:0:0:0:
448,192,172913,1,0,0:0:0:0:
64,192,173095,1,0,0:0:0:40:Cymatics - Main Clap 9_Reverb.wav
192,192,173095,1,0,0:0:0:0:
64,192,173277,128,4,173640:0:0:0:0:
320,192,173277,1,2,0:0:0:0:
448,192,173277,1,0,0:0:0:0:
192,192,173458,1,0,0:0:0:0:
320,192,173640,1,4,0:0:0:0:
448,192,173640,128,2,174095:0:0:0:0:
64,192,173822,1,0,0:0:0:40:Cymatics - Main Clap 9_Reverb.wav
320,192,173822,1,0,0:0:0:0:
192,192,174095,1,2,0:0:0:0:
320,192,174140,1,2,0:0:0:0:
64,192,174186,128,4,174913:0:0:0:0:
448,192,174186,1,0,0:0:0:40:Cymatics - Main Clap 9_Reverb.wav
192,192,174368,1,0,0:0:0:0:
320,192,174549,1,0,0:0:0:40:Cymatics - Main Clap 9_Reverb.wav
448,192,174549,128,0,174913:0:0:0:0:
192,192,174913,1,4,0:0:0:0:
320,192,174913,1,0,0:0:0:0:
192,192,175095,1,0,0:0:0:0:
192,192,175277,1,0,0:0:0:0:
192,192,175458,1,0,0:0:0:0:
192,192,175640,1,0,0:0:0:0:
192,192,175822,1,0,0:0:0:0:
192,192,176004,128,0,176186:0:0:0:0:
320,192,176186,1,0,0:0:0:0:
448,192,176186,1,0,0:0:0:0:
448,192,176368,1,0,0:0:0:0:
448,192,176549,1,0,0:0:0:0:
448,192,176731,1,0,0:0:0:0:
448,192,176913,1,0,0:0:0:0:
448,192,177095,1,0,0:0:0:0:
448,192,177277,1,0,0:0:0:0:
448,192,177458,128,0,177822:0:0:0:0:
64,192,177640,1,0,0:0:0:0:
64,192,177822,1,0,0:0:0:0:
320,192,177822,1,0,0:0:0:0:
320,192,178004,1,0,0:0:0:0:
320,192,178186,1,0,0:0:0:0:
320,192,178368,1,0,0:0:0:0:
320,192,178549,1,0,0:0:0:0:
320,192,178731,1,0,0:0:0:0:
320,192,178913,128,0,179095:0:0:0:0:
64,192,179095,1,0,0:0:0:0:
448,192,179095,1,0,0:0:0:0:
64,192,179277,1,0,0:0:0:0:
64,192,179458,1,0,0:0:0:0:
64,192,179640,1,0,0:0:0:0:
64,192,179822,1,0,0:0:0:0:
64,192,180004,128,0,180368:0:0:0:0:
320,192,180004,1,0,0:0:0:0:
320,192,180186,1,0,0:0:0:0:
448,192,180368,128,0,180731:0:0:0:0:
192,192,180549,1,0,0:0:0:0:
192,192,180731,1,0,0:0:0:0:
320,192,180731,1,0,0:0:0:0:
320,192,180913,1,0,0:0:0:0:
320,192,181095,1,0,0:0:0:0:
320,192,181277,1,0,0:0:0:0:
320,192,181458,1,0,0:0:0:0:
320,192,181640,1,0,0:0:0:0:
320,192,181822,1,0,0:0:0:0:
64,192,182004,1,0,0:0:0:0:
320,192,182004,128,0,183640:0:0:0:0:
64,192,182186,1,0,0:0:0:0:
64,192,182368,1,0,0:0:0:0:
64,192,182549,1,0,0:0:0:0:
64,192,182731,1,0,0:0:0:0:
64,192,182913,1,0,0:0:0:0:
64,192,183095,1,0,0:0:0:0:
64,192,183277,1,0,0:0:0:0:
64,192,183458,1,0,0:0:0:0:
64,192,183640,1,0,0:0:0:0:
448,192,183640,1,0,0:0:0:0:
448,192,183822,1,0,0:0:0:0:
448,192,184004,1,0,0:0:0:0:
448,192,184186,1,0,0:0:0:0:
448,192,184368,1,0,0:0:0:0:
448,192,184549,1,0,0:0:0:0:
448,192,184731,1,0,0:0:0:0:
64,192,184913,1,0,0:0:0:0:
448,192,184913,128,0,185822:0:0:0:0:
64,192,185095,1,0,0:0:0:0:
64,192,185277,1,0,0:0:0:0:
64,192,185458,1,0,0:0:0:0:
64,192,185640,1,0,0:0:0:0:
64,192,185822,1,0,0:0:0:0:
320,192,185822,1,0,0:0:0:0:
320,192,186004,1,0,0:0:0:0:
320,192,186186,1,0,0:0:0:0:
320,192,186368,1,0,0:0:0:0:
