osu file format v14

[General]
AudioFilename: perjalanan udara cosmic.mp3
AudioLeadIn: 0
PreviewTime: 68773
Countdown: 0
SampleSet: Soft
StackLeniency: 0.7
Mode: 3
LetterboxInBreaks: 0
SpecialStyle: 0
WidescreenStoryboard: 1

[Editor]
DistanceSpacing: 1
BeatDivisor: 2
GridSize: 16
TimelineZoom: 2.200001

[Metadata]
Title:Cosmic Air Ride
TitleUnicode:Cosmic Air Ride
Artist:YUC'e x Snail's House
ArtistUnicode:YUC'e x Snail's House
Creator:Ilham
Version:Normal
Source:
Tags:YUCe-04 GUMIKUMA Records Ujico* Japanese Electronic FAMoss
BeatmapID:3761451
BeatmapSetID:1830144

[Difficulty]
HPDrainRate:7
CircleSize:4
OverallDifficulty:7
ApproachRate:5
SliderMultiplier:1.4
SliderTickRate:1

[Events]
//Background and Video events
0,0,"BG.jpg",0,0
//Break Periods
//Storyboard Layer 0 (Background)
//Storyboard Layer 1 (Fail)
//Storyboard Layer 2 (Pass)
//Storyboard Layer 3 (Foreground)
//Storyboard Layer 4 (Overlay)
//Storyboard Sound Samples
Sample,22186,0,"snare.wav",70
Sample,22549,0,"snare.wav",70
Sample,22913,0,"snare.wav",70
Sample,55640,0,"clap.wav",70
Sample,56368,0,"clap.wav",70
Sample,59277,0,"clap.wav",70
Sample,60004,0,"clap.wav",70
Sample,60731,0,"clap.wav",70
Sample,61458,0,"clap.wav",70
Sample,62186,0,"clap.wav",70
Sample,62913,0,"clap.wav",70
Sample,63640,0,"clap.wav",70
Sample,64368,0,"clap.wav",70
Sample,65095,0,"clap.wav",70
Sample,65822,0,"clap.wav",70
Sample,66549,0,"clap.wav",70
Sample,67277,0,"clap.wav",70
Sample,67640,0,"clap.wav",70
Sample,68004,0,"clap.wav",70
Sample,68368,0,"clap.wav",70
Sample,126186,0,"snare2.wav",70

[TimingPoints]
368,363.636363636364,4,2,1,70,1,0
23640,-100,4,2,1,70,0,1
46913,-100,4,2,1,70,0,0
70186,-100,4,2,1,70,0,1
93458,-100,4,2,1,50,0,0
96367,-100,4,2,1,40,0,0
105094,-100,4,2,1,70,0,0
140004,-100,4,2,1,70,0,1
174913,-100,4,2,1,50,0,0

[HitObjects]
64,192,368,5,2,0:0:0:0:
448,192,368,128,4,1095:0:0:0:0:
192,192,1095,128,0,1822:0:0:0:0:
448,192,1822,128,0,2186:0:0:0:0:
320,192,2186,128,0,2549:0:0:0:0:
192,192,2549,128,0,2913:0:0:0:0:
64,192,2913,128,0,3458:0:0:0:0:
192,192,3822,1,0,0:0:0:0:
320,192,4004,128,0,4549:0:0:0:0:
64,192,4549,1,0,0:0:0:0:
192,192,4731,1,0,0:0:0:0:
320,192,4913,1,0,0:0:0:0:
448,192,5095,1,0,0:0:0:0:
320,192,5822,1,0,0:0:0:0:
192,192,6004,1,0,0:0:0:0:
64,192,6186,1,0,0:0:0:0:
448,192,6186,1,0,0:0:0:0:
192,192,6549,1,0,0:0:0:70:clap.wav
320,192,6549,1,0,0:0:0:0:
448,192,6913,1,0,0:0:0:0:
64,192,7277,1,0,0:0:0:70:clap.wav
320,192,7277,1,0,0:0:0:0:
448,192,7640,1,0,0:0:0:0:
64,192,8004,1,0,0:0:0:70:clap.wav
192,192,8004,1,0,0:0:0:0:
448,192,8368,1,0,0:0:0:0:
64,192,8731,1,0,0:0:0:70:clap.wav
320,192,8731,1,0,0:0:0:0:
192,192,9095,1,0,0:0:0:0:
320,192,9458,1,0,0:0:0:70:clap.wav
448,192,9458,1,0,0:0:0:0:
192,192,9822,1,0,0:0:0:0:
64,192,10186,1,0,0:0:0:70:clap.wav
448,192,10186,1,0,0:0:0:0:
320,192,10549,1,0,0:0:0:0:
192,192,10913,1,0,0:0:0:70:clap.wav
448,192,10913,1,0,0:0:0:0:
64,192,11186,1,0,0:0:0:70:tom01.wav
320,192,11277,1,0,0:0:0:70:tom01.wav
320,192,11549,1,0,0:0:0:70:tom01.wav
320,192,11822,1,0,0:0:0:70:tom02.wav
64,192,12004,1,2,0:0:0:0:
448,192,12004,1,4,0:0:0:0:
192,192,12368,1,0,0:0:0:70:clap.wav
320,192,12368,1,0,0:0:0:0:
64,192,12731,1,0,0:0:0:0:
320,192,13095,1,0,0:0:0:70:clap.wav
448,192,13095,1,0,0:0:0:0:
192,192,13458,1,0,0:0:0:0:
64,192,13822,1,0,0:0:0:70:clap.wav
448,192,13822,1,0,0:0:0:0:
320,192,14186,1,0,0:0:0:0:
192,192,14549,1,0,0:0:0:70:clap.wav
448,192,14549,1,0,0:0:0:0:
320,192,14913,1,0,0:0:0:0:
64,192,15277,1,0,0:0:0:70:clap.wav
192,192,15277,1,0,0:0:0:0:
320,192,15640,1,0,0:0:0:0:
64,192,16004,1,0,0:0:0:70:clap.wav
448,192,16004,1,0,0:0:0:0:
192,192,16368,1,0,0:0:0:0:
320,192,16731,1,0,0:0:0:70:clap.wav
448,192,16731,1,0,0:0:0:0:
64,192,17095,1,0,0:0:0:0:
192,192,17458,1,0,0:0:0:70:clap.wav
448,192,17458,1,0,0:0:0:0:
64,192,17822,1,0,0:0:0:70:clap.wav
448,192,17822,1,0,0:0:0:0:
64,192,18186,1,0,0:0:0:70:clap.wav
320,192,18186,1,0,0:0:0:0:
192,192,18549,1,0,0:0:0:70:clap.wav
448,192,18549,1,0,0:0:0:0:
320,192,18913,1,0,0:0:0:70:clap.wav
448,192,18913,1,0,0:0:0:0:
64,192,19277,1,0,0:0:0:70:clap.wav
192,192,19277,1,0,0:0:0:0:
64,192,19640,1,0,0:0:0:70:clap.wav
448,192,19640,1,0,0:0:0:0:
192,192,20004,1,0,0:0:0:70:clap.wav
320,192,20004,1,0,0:0:0:0:
320,192,20368,1,0,0:0:0:70:clap.wav
448,192,20368,1,0,0:0:0:0:
64,192,20731,1,4,0:0:0:0:
192,192,20731,1,0,0:0:0:70:clap.wav
192,192,21095,1,0,0:0:0:70:clap.wav
448,192,21095,1,0,0:0:0:0:
64,192,21458,1,4,0:0:0:0:
320,192,21458,1,0,0:0:0:70:clap.wav
192,192,21822,1,0,0:0:0:70:clap.wav
320,192,21822,1,0,0:0:0:0:
64,192,22186,128,4,23277:0:0:0:0:
448,192,22186,1,0,0:0:0:70:clap.wav
320,192,22549,1,0,0:0:0:70:clap.wav
192,192,22913,1,0,0:0:0:70:clap.wav
448,192,23277,128,0,23640:0:0:0:0:
192,192,23640,1,4,0:0:0:0:
320,192,23640,1,2,0:0:0:0:
64,192,24368,1,0,0:0:0:70:Cymatics - Main Clap 9_Reverb.wav
320,192,24368,1,0,0:0:0:0:
192,192,24731,1,0,0:0:0:0:
448,192,24913,1,6,0:0:0:0:
448,192,25277,1,6,0:0:0:0:
192,192,25822,1,0,0:0:0:70:Cymatics - Main Clap 9_Reverb.wav
320,192,25822,1,0,0:0:0:0:
64,192,26186,1,0,0:0:0:70:LR_Drum Rpd x2.wav
320,192,26368,1,0,0:0:0:70:snare3.wav
448,192,26368,1,0,0:0:0:0:
64,192,26549,1,4,0:0:0:0:
192,192,26549,1,2,0:0:0:0:
64,192,27277,1,0,0:0:0:70:Cymatics - Main Clap 9_Reverb.wav
448,192,27277,1,0,0:0:0:0:
320,192,27640,1,0,0:0:0:0:
192,192,27822,1,6,0:0:0:0:
192,192,28186,1,6,0:0:0:0:
64,192,28731,1,4,0:0:0:0:
448,192,28731,1,0,0:0:0:70:Cymatics - Main Clap 9_Reverb.wav
320,192,29095,1,0,0:0:0:0:
192,192,29277,1,0,0:0:0:0:
320,192,29458,1,2,0:0:0:0:
448,192,29458,1,4,0:0:0:0:
192,192,30186,1,0,0:0:0:70:Cymatics - Main Clap 9_Reverb.wav
448,192,30186,1,0,0:0:0:0:
64,192,30549,1,0,0:0:0:0:
320,192,30731,1,6,0:0:0:0:
320,192,31095,1,6,0:0:0:0:
64,192,31640,1,0,0:0:0:70:Cymatics - Main Clap 9_Reverb.wav
448,192,31640,1,0,0:0:0:0:
192,192,32004,1,0,0:0:0:70:LR_Drum Rpd x2.wav
64,192,32186,1,0,0:0:0:70:snare3.wav
448,192,32186,1,0,0:0:0:0:
192,192,32368,1,4,0:0:0:0:
320,192,32368,1,2,0:0:0:0:
192,192,33095,1,0,0:0:0:70:Cymatics - Main Clap 9_Reverb.wav
448,192,33095,1,0,0:0:0:0:
320,192,33458,1,0,0:0:0:0:
64,192,33640,1,6,0:0:0:0:
64,192,34004,1,6,0:0:0:0:
192,192,34549,1,4,0:0:0:0:
320,192,34549,128,0,35277:0:0:0:70:Cymatics - Main Clap 9_Reverb.wav
64,192,35277,1,2,0:0:0:0:
448,192,35277,1,4,0:0:0:0:
192,192,36004,1,0,0:0:0:70:Cymatics - Main Clap 9_Reverb.wav
448,192,36004,1,0,0:0:0:0:
64,192,36368,1,0,0:0:0:0:
320,192,36549,1,6,0:0:0:0:
320,192,36913,1,6,0:0:0:0:
192,192,37458,1,0,0:0:0:70:Cymatics - Main Clap 9_Reverb.wav
448,192,37458,1,0,0:0:0:0:
320,192,37822,1,0,0:0:0:70:LR_Drum Rpd x2.wav
192,192,38004,1,0,0:0:0:70:snare3.wav
448,192,38004,1,0,0:0:0:0:
64,192,38186,1,4,0:0:0:0:
320,192,38186,1,2,0:0:0:0:
64,192,38913,1,0,0:0:0:70:Cymatics - Main Clap 9_Reverb.wav
448,192,38913,1,0,0:0:0:0:
320,192,39277,1,0,0:0:0:0:
192,192,39458,1,6,0:0:0:0:
192,192,39822,1,6,0:0:0:0:
64,192,40368,1,4,0:0:0:0:
448,192,40368,1,0,0:0:0:70:Cymatics - Main Clap 9_Reverb.wav
192,192,40731,1,0,0:0:0:0:
448,192,40913,1,0,0:0:0:0:
64,192,41095,1,2,0:0:0:0:
192,192,41095,1,4,0:0:0:0:
192,192,41822,1,0,0:0:0:70:Cymatics - Main Clap 9_Reverb.wav
448,192,41822,1,0,0:0:0:0:
320,192,42186,1,0,0:0:0:0:
64,192,42368,1,6,0:0:0:0:
64,192,42731,1,6,0:0:0:0:
192,192,43277,1,0,0:0:0:70:Cymatics - Main Clap 9_Reverb.wav
448,192,43277,1,0,0:0:0:0:
64,192,43640,1,0,0:0:0:70:LR_Drum Rpd x2.wav
192,192,43822,1,0,0:0:0:70:snare3.wav
320,192,43822,1,0,0:0:0:0:
64,192,44004,1,4,0:0:0:0:
448,192,44004,1,2,0:0:0:0:
320,192,44731,1,0,0:0:0:70:Cymatics - Main Clap 9_Reverb.wav
448,192,44731,1,0,0:0:0:0:
448,192,45095,1,0,0:0:0:0:
192,192,45277,1,6,0:0:0:0:
192,192,45640,1,6,0:0:0:0:
64,192,46186,1,4,0:0:0:0:
320,192,46186,128,0,46913:0:0:0:70:Cymatics - Main Clap 9_Reverb.wav
64,192,46913,1,6,0:0:0:0:
448,192,46913,1,0,0:0:0:70:clap.wav
320,192,47277,1,0,0:0:0:70:clap.wav
192,192,47640,1,0,0:0:0:70:clap.wav
448,192,48004,1,0,0:0:0:70:clap.wav
320,192,48368,1,0,0:0:0:70:clap.wav
64,192,48731,1,0,0:0:0:70:clap.wav
192,192,49095,1,0,0:0:0:70:clap.wav
320,192,49458,1,0,0:0:0:70:clap.wav
192,192,49822,1,0,0:0:0:70:clap.wav
448,192,50186,1,0,0:0:0:70:clap.wav
64,192,50549,1,0,0:0:0:70:clap.wav
320,192,50913,1,0,0:0:0:70:clap.wav
192,192,51277,1,0,0:0:0:70:clap.wav
320,192,51640,1,0,0:0:0:70:clap.wav
64,192,52004,1,0,0:0:0:70:clap.wav
448,192,52368,1,0,0:0:0:70:clap.wav
64,192,52731,1,0,0:0:0:70:clap.wav
192,192,53095,1,0,0:0:0:70:clap.wav
320,192,53458,1,0,0:0:0:70:clap.wav
64,192,53822,1,0,0:0:0:70:clap.wav
192,192,54186,1,0,0:0:0:70:clap.wav
448,192,54549,1,0,0:0:0:70:clap.wav
320,192,54913,1,0,0:0:0:70:clap.wav
192,192,55277,1,0,0:0:0:70:clap.wav
448,192,55640,1,4,0:0:0:0:
64,192,56004,1,0,0:0:0:70:clap.wav
192,192,56368,1,4,0:0:0:0:
320,192,56731,1,0,0:0:0:70:clap.wav
64,192,57095,1,6,0:0:0:0:
448,192,57095,1,0,0:0:0:70:clap.wav
192,192,57458,1,6,0:0:0:0:
320,192,57458,1,0,0:0:0:70:clap.wav
64,192,57822,1,6,0:0:0:0:
320,192,57822,1,0,0:0:0:70:clap.wav
192,192,58186,1,4,0:0:0:0:
448,192,58186,1,0,0:0:0:70:LR_Drum Hit Beat Long.wav
320,192,58549,1,6,0:0:0:0:
448,192,58549,1,0,0:0:0:70:clap.wav
192,192,58731,1,0,0:0:0:0:
64,192,58913,1,2,0:0:0:0:
448,192,58913,1,0,0:0:0:70:clap.wav
320,192,59095,1,0,0:0:0:0:
192,192,59277,1,2,0:0:0:0:
320,192,59458,1,0,0:0:0:0:
192,192,59640,1,2,0:0:0:0:
448,192,59640,1,0,0:0:0:70:clap.wav
64,192,59822,1,0,0:0:0:0:
320,192,60004,1,2,0:0:0:0:
192,192,60186,1,0,0:0:0:0:
320,192,60368,1,2,0:0:0:0:
448,192,60368,1,0,0:0:0:70:clap.wav
192,192,60549,1,0,0:0:0:0:
64,192,60731,1,2,0:0:0:0:
448,192,60913,1,0,0:0:0:0:
192,192,61095,1,2,0:0:0:0:
320,192,61095,1,0,0:0:0:70:clap.wav
64,192,61277,1,0,0:0:0:0:
448,192,61458,1,2,0:0:0:0:
192,192,61640,1,0,0:0:0:0:
320,192,61822,1,2,0:0:0:0:
448,192,61822,1,0,0:0:0:70:clap.wav
64,192,62004,1,0,0:0:0:0:
192,192,62186,1,2,0:0:0:0:
448,192,62368,1,0,0:0:0:0:
64,192,62549,1,2,0:0:0:0:
320,192,62549,1,0,0:0:0:70:clap.wav
192,192,62731,1,0,0:0:0:0:
320,192,62913,1,2,0:0:0:0:
448,192,63095,1,0,0:0:0:0:
64,192,63277,1,2,0:0:0:0:
320,192,63277,1,0,0:0:0:70:clap.wav
192,192,63458,1,0,0:0:0:0:
320,192,63640,1,2,0:0:0:0:
448,192,63822,1,0,0:0:0:0:
64,192,64004,1,2,0:0:0:0:
192,192,64004,1,0,0:0:0:70:clap.wav
320,192,64186,1,0,0:0:0:0:
448,192,64368,1,6,0:0:0:0:
64,192,64549,1,0,0:0:0:0:
320,192,64731,1,2,0:0:0:0:
448,192,64731,1,0,0:0:0:70:clap.wav
64,192,64913,1,0,0:0:0:0:
192,192,65095,1,2,0:0:0:0:
320,192,65277,1,0,0:0:0:0:
64,192,65458,1,2,0:0:0:0:
192,192,65458,1,0,0:0:0:70:clap.wav
320,192,65640,1,0,0:0:0:0:
448,192,65822,1,6,0:0:0:0:
64,192,66004,1,0,0:0:0:0:
192,192,66186,1,2,0:0:0:0:
320,192,66186,1,0,0:0:0:70:clap.wav
448,192,66368,1,0,0:0:0:0:
64,192,66549,1,2,0:0:0:0:
320,192,66731,1,0,0:0:0:0:
192,192,66913,1,2,0:0:0:0:
448,192,66913,1,0,0:0:0:70:clap.wav
64,192,67095,1,0,0:0:0:0:
320,192,67277,1,6,0:0:0:0:
192,192,67458,1,2,0:0:0:0:
320,192,67640,1,2,0:0:0:0:
64,192,67822,1,2,0:0:0:0:
448,192,68004,1,6,0:0:0:0:
64,192,68186,1,2,0:0:0:0:
320,192,68368,1,2,0:0:0:0:
192,192,68549,1,2,0:0:0:0:
64,192,68731,1,0,0:0:0:70:kick.wav
448,192,68731,1,0,0:0:0:0:
320,192,69095,1,0,0:0:0:70:LR_Drum Rpd x2.wav
448,192,69095,1,0,0:0:0:0:
64,192,69277,1,0,0:0:0:70:kick.wav
192,192,69458,1,0,0:0:0:70:kick.wav
64,192,69640,1,0,0:0:0:70:snare.wav
448,192,69640,1,0,0:0:0:0:
320,192,69822,1,0,0:0:0:70:kick.wav
192,192,70004,1,0,0:0:0:70:kick.wav
320,192,70004,1,0,0:0:0:0:
64,192,70186,1,2,0:0:0:0:
448,192,70186,1,4,0:0:0:0:
192,192,70549,1,0,0:0:0:0:
320,192,70731,1,2,0:0:0:0:
192,192,70913,1,8,0:0:0:0:
448,192,70913,1,2,0:0:0:0:
320,192,71277,1,2,0:0:0:0:
320,192,71822,1,2,0:0:0:0:
64,192,72368,1,8,0:0:0:0:
448,192,72368,1,2,0:0:0:0:
192,192,72731,1,2,0:0:0:0:
448,192,73095,1,2,0:0:0:0:
448,192,73458,1,0,0:0:0:0:
192,192,73640,1,2,0:0:0:0:
64,192,73822,1,2,0:0:0:0:
320,192,73822,1,8,0:0:0:0:
192,192,74186,1,2,0:0:0:0:
192,192,74731,1,2,0:0:0:0:
64,192,75277,1,2,0:0:0:0:
448,192,75277,1,8,0:0:0:0:
320,192,75640,1,2,0:0:0:0:
320,192,75822,1,0,0:0:0:0:
64,192,76004,1,2,0:0:0:0:
448,192,76549,1,2,0:0:0:0:
64,192,76731,1,8,0:0:0:0:
320,192,76731,1,2,0:0:0:0:
192,192,77095,1,2,0:0:0:0:
448,192,77640,1,2,0:0:0:0:
64,192,78186,1,8,0:0:0:0:
320,192,78186,1,2,0:0:0:0:
192,192,78549,1,2,0:0:0:0:
448,192,78913,1,2,0:0:0:0:
64,192,79458,1,2,0:0:0:0:
192,192,79640,1,2,0:0:0:0:
448,192,79640,1,8,0:0:0:0:
320,192,80004,128,2,80368:0:0:0:0:
192,192,80368,128,2,80731:0:0:0:0:
448,192,80731,1,6,0:0:0:0:
64,192,80913,1,0,0:0:0:0:
320,192,81095,1,6,0:0:0:0:
192,192,81277,1,0,0:0:0:0:
448,192,81458,1,6,0:0:0:0:
64,192,81640,1,0,0:0:0:0:
192,192,81822,1,2,0:0:0:0:
320,192,81822,1,4,0:0:0:0:
192,192,82186,1,8,0:0:0:0:
448,192,82186,1,2,0:0:0:0:
64,192,82549,1,2,0:0:0:0:
192,192,82822,1,2,0:0:0:0:
320,192,82913,1,2,0:0:0:0:
448,192,82913,1,8,0:0:0:0:
192,192,83095,1,2,0:0:0:0:
448,192,83458,1,2,0:0:0:0:
64,192,83640,1,8,0:0:0:0:
320,192,83640,1,2,0:0:0:0:
64,192,84004,1,2,0:0:0:0:
192,192,84277,1,2,0:0:0:0:
64,192,84368,1,2,0:0:0:0:
448,192,84368,1,8,0:0:0:0:
320,192,84549,1,2,0:0:0:0:
64,192,84731,1,2,0:0:0:0:
192,192,85095,1,2,0:0:0:0:
448,192,85095,1,8,0:0:0:0:
320,192,85458,1,2,0:0:0:0:
448,192,85731,1,2,0:0:0:0:
64,192,85822,1,8,0:0:0:0:
192,192,85822,1,2,0:0:0:0:
448,192,86004,1,2,0:0:0:0:
320,192,86368,1,2,0:0:0:0:
192,192,86549,1,2,0:0:0:0:
448,192,86549,1,8,0:0:0:0:
64,192,86913,1,2,0:0:0:0:
320,192,87186,1,2,0:0:0:0:
64,192,87277,1,8,0:0:0:0:
448,192,87277,1,2,0:0:0:0:
320,192,87458,1,2,0:0:0:0:
192,192,87640,1,6,0:0:0:0:
320,192,87822,1,0,0:0:0:0:
64,192,88004,1,8,0:0:0:0:
448,192,88004,1,2,0:0:0:0:
192,192,88368,1,2,0:0:0:0:
64,192,88731,1,2,0:0:0:0:
448,192,88731,1,8,0:0:0:0:
320,192,88913,1,6,0:0:0:0:
320,192,89277,1,2,0:0:0:0:
64,192,89458,1,8,0:0:0:0:
192,192,89458,1,2,0:0:0:0:
448,192,89640,1,2,0:0:0:0:
64,192,89822,1,8,0:0:0:0:
320,192,89822,1,0,0:0:0:0:
192,192,90004,1,2,0:0:0:0:
448,192,90186,1,0,0:0:0:0:
320,192,90368,1,2,0:0:0:0:
64,192,90549,1,2,0:0:0:0:
192,192,90549,1,0,0:0:0:0:
192,192,90913,1,2,0:0:0:0:
320,192,90913,1,8,0:0:0:0:
320,192,91277,1,2,0:0:0:0:
448,192,91277,128,8,91640:0:0:0:0:
64,192,91640,128,0,92004:0:0:0:0:
320,192,92004,1,2,0:0:0:0:
448,192,92004,1,4,0:0:0:0:
64,192,92186,1,2,0:0:0:0:
192,192,92186,1,0,0:0:0:0:
448,192,92368,1,6,0:0:0:0:
64,192,92549,1,6,0:0:0:0:
320,192,92731,128,8,93095:0:0:0:0:
448,192,92731,1,4,0:0:0:0:
192,192,93095,128,4,93458:0:0:0:0:
64,192,93458,128,4,94549:0:0:0:0:
448,192,93458,1,0,0:0:0:0:
192,192,94549,128,0,94731:0:0:0:0:
320,192,94731,128,0,96004:0:0:0:0:
448,192,96004,128,0,96368:0:0:0:0:
64,192,96368,1,0,0:0:0:0:
320,192,96368,128,0,97458:0:0:0:0:
64,192,97458,128,0,97640:0:0:0:0:
192,192,97640,128,0,98549:0:0:0:0:
448,192,97640,1,0,0:0:0:0:
64,192,98549,1,0,0:0:0:0:
448,192,98549,128,0,98913:0:0:0:0:
320,192,98913,128,0,99277:0:0:0:0:
192,192,99277,128,0,100549:0:0:0:0:
448,192,99277,1,0,0:0:0:0:
64,192,100549,1,0,0:0:0:0:
320,192,100549,128,0,102186:0:0:0:0:
64,192,102186,128,0,103458:0:0:0:0:
448,192,102186,1,0,0:0:0:0:
192,192,103458,1,0,0:0:0:0:
448,192,103458,128,0,104368:0:0:0:0:
64,192,104368,128,0,105095:0:0:0:0:
320,192,104368,1,0,0:0:0:0:
192,192,105095,1,2,0:0:0:0:
448,192,105095,1,4,0:0:0:0:
192,192,105458,1,0,0:0:0:70:snare.wav
320,192,105458,1,0,0:0:0:0:
448,192,106004,1,2,0:0:0:0:
64,192,106186,1,0,0:0:0:70:snare.wav
320,192,106186,1,0,0:0:0:0:
64,192,106549,1,2,0:0:0:0:
320,192,106913,1,0,0:0:0:70:snare.wav
448,192,106913,1,0,0:0:0:0:
192,192,107458,1,2,0:0:0:0:
320,192,107640,1,0,0:0:0:70:snare.wav
448,192,107640,1,0,0:0:0:0:
448,192,108004,1,2,0:0:0:0:
64,192,108368,1,0,0:0:0:70:snare.wav
320,192,108368,1,0,0:0:0:0:
192,192,108913,1,2,0:0:0:0:
64,192,109095,1,0,0:0:0:70:snare.wav
448,192,109095,1,0,0:0:0:0:
320,192,109458,1,2,0:0:0:0:
192,192,109822,1,0,0:0:0:70:snare.wav
448,192,109822,1,0,0:0:0:0:
64,192,110368,1,2,0:0:0:0:
192,192,110549,1,0,0:0:0:70:snare.wav
448,192,110549,1,0,0:0:0:0:
448,192,110913,1,2,0:0:0:0:
64,192,111277,1,0,0:0:0:70:snare.wav
192,192,111277,1,0,0:0:0:0:
448,192,111822,1,2,0:0:0:0:
64,192,112004,1,0,0:0:0:70:snare.wav
320,192,112004,1,0,0:0:0:0:
64,192,112368,1,2,0:0:0:0:
192,192,112731,1,0,0:0:0:70:snare.wav
448,192,112731,1,0,0:0:0:0:
320,192,113277,1,2,0:0:0:0:
64,192,113458,1,0,0:0:0:70:snare.wav
192,192,113458,1,0,0:0:0:0:
192,192,113822,1,2,0:0:0:0:
64,192,114186,1,0,0:0:0:70:snare.wav
320,192,114186,1,0,0:0:0:0:
192,192,114731,1,2,0:0:0:0:
64,192,114913,1,0,0:0:0:70:snare.wav
448,192,114913,1,0,0:0:0:0:
320,192,115277,1,2,0:0:0:0:
64,192,115640,1,0,0:0:0:70:snare.wav
192,192,115640,1,0,0:0:0:0:
448,192,116186,1,2,0:0:0:0:
192,192,116368,1,0,0:0:0:70:snare.wav
320,192,116368,1,0,0:0:0:0:
64,192,116731,1,2,0:0:0:0:
448,192,116731,1,4,0:0:0:0:
192,192,117095,1,2,0:0:0:0:
320,192,117095,1,0,0:0:0:0:
320,192,117458,1,2,0:0:0:0:
448,192,117458,1,0,0:0:0:70:snare2.wav
64,192,117822,1,2,0:0:0:0:
192,192,117822,1,0,0:0:0:0:
64,192,118186,1,2,0:0:0:0:
320,192,118186,1,0,0:0:0:0:
192,192,118549,1,2,0:0:0:0:
448,192,118549,1,0,0:0:0:0:
64,192,118913,1,2,0:0:0:0:
448,192,118913,1,0,0:0:0:70:snare2.wav
192,192,119277,1,2,0:0:0:0:
320,192,119277,1,0,0:0:0:0:
64,192,119640,1,2,0:0:0:0:
192,192,119640,1,0,0:0:0:0:
320,192,120004,1,2,0:0:0:0:
448,192,120004,1,0,0:0:0:0:
64,192,120368,1,2,0:0:0:0:
448,192,120368,1,0,0:0:0:70:snare2.wav
192,192,120731,1,2,0:0:0:0:
320,192,120731,1,0,0:0:0:0:
64,192,121095,1,2,0:0:0:0:
320,192,121095,1,0,0:0:0:0:
192,192,121458,1,2,0:0:0:0:
448,192,121458,1,0,0:0:0:0:
64,192,121822,1,2,0:0:0:0:
448,192,121822,1,0,0:0:0:70:snare2.wav
192,192,122186,1,2,0:0:0:0:
320,192,122186,1,0,0:0:0:0:
320,192,122549,1,2,0:0:0:0:
448,192,122549,1,0,0:0:0:0:
64,192,122731,1,2,0:0:0:0:
192,192,122913,1,2,0:0:0:0:
320,192,122913,1,0,0:0:0:0:
448,192,123095,1,2,0:0:0:0:
64,192,123277,1,2,0:0:0:0:
192,192,123277,1,0,0:0:0:70:snare2.wav
320,192,123458,1,2,0:0:0:0:
64,192,123640,1,2,0:0:0:0:
448,192,123640,1,0,0:0:0:0:
192,192,123822,1,2,0:0:0:0:
320,192,124004,1,2,0:0:0:0:
448,192,124004,1,0,0:0:0:0:
192,192,124186,1,2,0:0:0:0:
64,192,124368,1,2,0:0:0:0:
448,192,124368,1,0,0:0:0:0:
320,192,124549,1,2,0:0:0:0:
64,192,124731,1,2,0:0:0:0:
192,192,124731,1,0,0:0:0:70:snare2.wav
448,192,124913,1,2,0:0:0:0:
192,192,125095,1,2,0:0:0:0:
320,192,125095,1,0,0:0:0:0:
64,192,125277,1,2,0:0:0:0:
320,192,125458,128,2,126913:0:0:0:0:
448,192,125458,1,0,0:0:0:0:
64,192,126186,128,2,126913:0:0:0:0:
192,192,126913,1,2,0:0:0:0:
448,192,126913,1,0,0:0:0:0:
64,192,128368,1,2,0:0:0:0:
448,192,128368,1,0,0:0:0:70:clap.wav
320,192,128731,1,0,0:0:0:70:clap.wav
64,192,129095,1,0,0:0:0:70:clap.wav
448,192,129458,1,0,0:0:0:70:clap.wav
192,192,129822,1,0,0:0:0:70:clap.wav
320,192,130186,1,0,0:0:0:70:clap.wav
64,192,130549,1,0,0:0:0:70:clap.wav
448,192,130913,1,0,0:0:0:70:clap.wav
64,192,131277,1,0,0:0:0:70:clap.wav
192,192,131277,1,0,0:0:0:70:kick.wav
320,192,131640,1,0,0:0:0:70:clap.wav
448,192,132004,1,0,0:0:0:70:clap.wav
64,192,132368,1,0,0:0:0:70:clap.wav
192,192,132731,1,0,0:0:0:70:clap.wav
64,192,133095,1,2,0:0:0:0:
448,192,133095,1,0,0:0:0:70:clap.wav
320,192,133458,1,0,0:0:0:70:clap.wav
192,192,133822,1,0,0:0:0:70:clap.wav
64,192,134186,1,0,0:0:0:70:clap.wav
448,192,134186,1,0,0:0:0:70:kick.wav
320,192,134368,1,0,0:0:0:0:
448,192,134549,1,0,0:0:0:70:clap.wav
64,192,134913,1,0,0:0:0:70:clap.wav
192,192,135186,1,0,0:0:0:0:
320,192,135458,1,0,0:0:0:0:
64,192,135640,1,0,0:0:0:70:clap.wav
448,192,135640,1,0,0:0:0:70:kick.wav
192,192,135822,1,0,0:0:0:0:
64,192,136004,1,0,0:0:0:70:clap.wav
448,192,136368,1,0,0:0:0:70:clap.wav
320,192,136640,1,0,0:0:0:0:
192,192,136913,1,0,0:0:0:0:
64,192,137095,1,0,0:0:0:70:clap.wav
448,192,137095,1,0,0:0:0:70:kick.wav
320,192,137277,1,0,0:0:0:0:
192,192,137458,1,0,0:0:0:70:clap.wav
64,192,137822,1,0,0:0:0:70:clap.wav
320,192,137822,1,0,0:0:0:70:kick.wav
192,192,138186,1,6,0:0:0:0:
448,192,138186,128,0,138549:0:0:0:70:clap.wav
64,192,138549,128,2,138913:0:0:0:0:
320,192,138549,1,0,0:0:0:0:
320,192,138913,1,10,0:0:0:0:
448,192,138913,1,4,0:0:0:0:
64,192,139095,1,0,0:0:0:70:kick.wav
192,192,139277,1,2,0:0:0:0:
320,192,139277,1,0,0:0:0:0:
448,192,139458,1,0,0:0:0:70:Cymatics - Main Clap 9_Reverb.wav
64,192,139640,1,2,0:0:0:0:
192,192,139640,1,0,0:0:0:0:
320,192,139822,1,0,0:0:0:70:kick.wav
64,192,140004,1,2,0:0:0:0:
448,192,140004,1,4,0:0:0:0:
64,192,140368,1,8,0:0:0:0:
320,192,140368,1,2,0:0:0:0:
192,192,140731,1,2,0:0:0:0:
192,192,141004,1,2,0:0:0:0:
320,192,141095,1,2,0:0:0:0:
448,192,141095,1,8,0:0:0:0:
64,192,141277,1,2,0:0:0:0:
320,192,141458,1,8,0:0:0:0:
64,192,141640,1,2,0:0:0:0:
192,192,141822,1,8,0:0:0:0:
448,192,141822,1,2,0:0:0:0:
320,192,142186,1,2,0:0:0:0:
320,192,142458,1,2,0:0:0:0:
64,192,142549,1,2,0:0:0:0:
448,192,142549,1,8,0:0:0:0:
192,192,142731,1,2,0:0:0:0:
64,192,142913,1,2,0:0:0:0:
448,192,142913,1,0,0:0:0:0:
64,192,143277,1,2,0:0:0:0:
192,192,143277,1,8,0:0:0:0:
320,192,143640,1,2,0:0:0:0:
448,192,143913,1,2,0:0:0:0:
64,192,144004,1,8,0:0:0:0:
192,192,144004,1,2,0:0:0:0:
448,192,144186,1,2,0:0:0:0:
192,192,144368,1,8,0:0:0:0:
448,192,144549,1,2,0:0:0:0:
64,192,144731,1,2,0:0:0:0:
320,192,144731,1,8,0:0:0:0:
192,192,145095,1,2,0:0:0:0:
192,192,145368,1,2,0:0:0:0:
64,192,145458,1,8,0:0:0:0:
448,192,145458,1,2,0:0:0:0:
320,192,145640,1,6,0:0:0:0:
64,192,145822,1,6,0:0:0:0:
192,192,145822,1,8,0:0:0:0:
320,192,146004,1,8,0:0:0:0:
64,192,146186,1,10,0:0:0:0:
448,192,146368,1,8,0:0:0:0:
192,192,146549,1,10,0:0:0:0:
320,192,146731,1,8,0:0:0:0:
64,192,146913,1,10,0:0:0:0:
192,192,147095,1,6,0:0:0:0:
448,192,147095,1,8,0:0:0:0:
64,192,147277,1,10,0:0:0:0:
320,192,147458,1,8,0:0:0:0:
192,192,147640,1,10,0:0:0:0:
320,192,147822,1,8,0:0:0:0:
192,192,148004,1,10,0:0:0:0:
448,192,148186,1,8,0:0:0:0:
64,192,148368,1,10,0:0:0:0:
192,192,148549,1,8,0:0:0:0:
320,192,148731,1,12,0:0:0:0:
448,192,148731,1,2,0:0:0:0:
192,192,148913,1,8,0:0:0:0:
448,192,149095,1,10,0:0:0:0:
64,192,149277,1,8,0:0:0:0:
320,192,149458,1,10,0:0:0:0:
192,192,149640,1,8,0:0:0:0:
448,192,149822,1,10,0:0:0:0:
64,192,150004,1,8,0:0:0:0:
192,192,150186,1,8,0:0:0:0:
448,192,150186,128,2,150549:0:0:0:0:
320,192,150549,128,0,150913:0:0:0:35:clap.wav
64,192,150913,128,0,151277:0:0:0:35:clap.wav
192,192,151277,128,0,151640:0:0:0:35:clap.wav
320,192,151640,1,2,0:0:0:0:
448,192,151640,1,4,0:0:0:0:
64,192,152004,1,2,0:0:0:0:
448,192,152004,1,0,0:0:0:40:Cymatics - Main Clap 9_Reverb.wav
192,192,152368,1,2,0:0:0:0:
192,192,152640,1,2,0:0:0:0:
320,192,152731,1,2,0:0:0:0:
448,192,152731,1,0,0:0:0:40:Cymatics - Main Clap 9_Reverb.wav
64,192,152913,1,2,0:0:0:0:
192,192,152913,1,4,0:0:0:0:
64,192,153458,1,2,0:0:0:0:
448,192,153458,1,0,0:0:0:40:Cymatics - Main Clap 9_Reverb.wav
192,192,153822,1,2,0:0:0:0:
320,192,154095,1,2,0:0:0:0:
64,192,154186,1,2,0:0:0:0:
192,192,154186,1,0,0:0:0:40:Cymatics - Main Clap 9_Reverb.wav
320,192,154368,1,2,0:0:0:0:
64,192,154549,1,2,0:0:0:0:
448,192,154549,1,4,0:0:0:0:
64,192,154913,1,2,0:0:0:0:
320,192,154913,1,0,0:0:0:40:Cymatics - Main Clap 9_Reverb.wav
192,192,155277,1,2,0:0:0:0:
192,192,155549,1,2,0:0:0:0:
320,192,155640,1,2,0:0:0:0:
448,192,155640,1,0,0:0:0:40:Cymatics - Main Clap 9_Reverb.wav
64,192,155822,1,2,0:0:0:0:
192,192,155822,1,4,0:0:0:0:
64,192,156368,1,2,0:0:0:0:
320,192,156368,1,0,0:0:0:40:Cymatics - Main Clap 9_Reverb.wav
64,192,156731,1,6,0:0:0:0:
192,192,156731,1,0,0:0:0:40:Cymatics - Main Clap 9_Reverb.wav
192,192,157004,1,6,0:0:0:0:
320,192,157004,1,0,0:0:0:40:Cymatics - Main Clap 9_Reverb.wav
320,192,157277,1,6,0:0:0:0:
448,192,157277,1,0,0:0:0:40:Cymatics - Main Clap 9_Reverb.wav
64,192,157458,1,2,0:0:0:0:
192,192,157458,1,4,0:0:0:0:
192,192,157822,1,0,0:0:0:40:Cymatics - Main Clap 9_Reverb.wav
448,192,157822,1,0,0:0:0:0:
64,192,158004,1,0,0:0:0:40:Cymatics - Main Clap 9_Reverb.wav
320,192,158004,1,0,0:0:0:0:
192,192,158186,128,0,158549:0:0:0:70:LR_Drum Rpd x2.wav
448,192,158186,1,0,0:0:0:0:
64,192,158549,1,0,0:0:0:40:Cymatics - Main Clap 9_Reverb.wav
320,192,158549,1,0,0:0:0:0:
192,192,158731,1,2,0:0:0:0:
448,192,158731,1,4,0:0:0:0:
64,192,159277,1,2,0:0:0:0:
448,192,159277,1,0,0:0:0:40:Cymatics - Main Clap 9_Reverb.wav
320,192,159640,1,2,0:0:0:0:
320,192,159913,1,2,0:0:0:0:
64,192,160004,1,2,0:0:0:0:
448,192,160004,1,0,0:0:0:40:Cymatics - Main Clap 9_Reverb.wav
192,192,160186,1,2,0:0:0:0:
320,192,160368,1,2,0:0:0:0:
448,192,160368,1,4,0:0:0:0:
64,192,160731,1,2,0:0:0:0:
320,192,160731,1,0,0:0:0:40:Cymatics - Main Clap 9_Reverb.wav
192,192,161095,1,2,0:0:0:0:
192,192,161368,1,2,0:0:0:0:
64,192,161458,1,2,0:0:0:0:
448,192,161458,1,0,0:0:0:40:Cymatics - Main Clap 9_Reverb.wav
192,192,161640,1,2,0:0:0:0:
320,192,161640,1,4,0:0:0:0:
192,192,162186,1,2,0:0:0:0:
448,192,162186,1,0,0:0:0:40:Cymatics - Main Clap 9_Reverb.wav
64,192,162549,1,2,0:0:0:0:
448,192,162549,1,4,0:0:0:0:
64,192,162822,1,2,0:0:0:0:
320,192,162822,1,4,0:0:0:0:
320,192,163095,1,2,0:0:0:0:
448,192,163095,1,4,0:0:0:0:
64,192,163277,128,2,163822:0:0:0:0:
192,192,163277,1,4,0:0:0:0:
448,192,163640,1,0,0:0:0:40:Cymatics - Main Clap 9_Reverb.wav
320,192,163822,1,0,0:0:0:0:
192,192,164004,1,0,0:0:0:40:Cymatics - Main Clap 9_Reverb.wav
448,192,164004,1,0,0:0:0:0:
64,192,164368,1,0,0:0:0:40:Cymatics - Main Clap 9_Reverb.wav
192,192,164549,128,2,164913:0:0:0:0:
448,192,164549,1,4,0:0:0:0:
64,192,164913,1,2,0:0:0:0:
448,192,164913,1,4,0:0:0:0:
320,192,165095,1,0,0:0:0:40:Cymatics - Main Clap 9_Reverb.wav
64,192,165277,1,0,0:0:0:0:
192,192,165458,1,0,0:0:0:40:Cymatics - Main Clap 9_Reverb.wav
448,192,165458,1,0,0:0:0:0:
320,192,165640,1,0,0:0:0:70:LR_Drum Rpd x2.wav
64,192,165822,1,0,0:0:0:40:Cymatics - Main Clap 9_Reverb.wav
448,192,166004,1,0,0:0:0:70:LR_Drum Rpd x2.wav
192,192,166186,1,2,0:0:0:0:
320,192,166186,128,4,166731:0:0:0:0:
64,192,166549,1,0,0:0:0:40:Cymatics - Main Clap 9_Reverb.wav
192,192,166731,1,0,0:0:0:0:
64,192,166913,1,0,0:0:0:40:Cymatics - Main Clap 9_Reverb.wav
448,192,166913,1,0,0:0:0:0:
320,192,167095,1,0,0:0:0:70:LR_Drum Rpd x2.wav
448,192,167277,1,0,0:0:0:40:Cymatics - Main Clap 9_Reverb.wav
64,192,167458,1,2,0:0:0:0:
192,192,167458,128,4,167822:0:0:0:0:
320,192,167822,1,2,0:0:0:0:
448,192,167822,1,4,0:0:0:0:
64,192,168004,1,0,0:0:0:40:Cymatics - Main Clap 9_Reverb.wav
448,192,168186,1,0,0:0:0:0:
64,192,168368,1,4,0:0:0:0:
320,192,168368,1,0,0:0:0:40:Cymatics - Main Clap 9_Reverb.wav
448,192,168549,1,0,0:0:0:50:LR_Drum Rpd x2.wav
192,192,168731,1,0,0:0:0:40:Cymatics - Main Clap 9_Reverb.wav
320,192,168913,1,0,0:0:0:50:LR_Drum Rpd x2.wav
64,192,169095,128,2,169640:0:0:0:0:
448,192,169095,1,4,0:0:0:0:
320,192,169458,1,0,0:0:0:40:Cymatics - Main Clap 9_Reverb.wav
192,192,169640,1,0,0:0:0:70:LR_Drum Rpd x2.wav
320,192,169822,1,0,0:0:0:40:Cymatics - Main Clap 9_Reverb.wav
448,192,169822,1,0,0:0:0:0:
64,192,170004,1,0,0:0:0:70:LR_Drum Rpd x2.wav
192,192,170186,1,0,0:0:0:40:Cymatics - Main Clap 9_Reverb.wav
64,192,170368,128,4,170731:0:0:0:0:
320,192,170368,1,2,0:0:0:0:
320,192,170731,1,4,0:0:0:0:
448,192,170731,1,2,0:0:0:0:
192,192,170913,1,0,0:0:0:40:Cymatics - Main Clap 9_Reverb.wav
448,192,171095,1,0,0:0:0:0:
64,192,171277,1,0,0:0:0:40:Cymatics - Main Clap 9_Reverb.wav
320,192,171277,1,0,0:0:0:0:
448,192,171458,1,0,0:0:0:70:LR_Drum Rpd x2.wav
64,192,171640,1,0,0:0:0:40:Cymatics - Main Clap 9_Reverb.wav
192,192,171822,1,0,0:0:0:70:LR_Drum Rpd x2.wav
320,192,172004,128,2,172686:0:0:0:0:
448,192,172004,1,4,0:0:0:0:
192,192,172368,1,0,0:0:0:40:Cymatics - Main Clap 9_Reverb.wav
64,192,172686,1,0,0:0:0:40:Cymatics - Main Clap 9_Reverb.wav
448,192,172686,1,0,0:0:0:0:
320,192,173095,1,0,0:0:0:40:Cymatics - Main Clap 9_Reverb.wav
64,192,173277,128,4,173640:0:0:0:0:
192,192,173277,1,2,0:0:0:0:
192,192,173640,1,4,0:0:0:0:
448,192,173640,1,2,0:0:0:0:
320,192,173822,1,0,0:0:0:40:Cymatics - Main Clap 9_Reverb.wav
64,192,174186,1,4,0:0:0:0:
448,192,174186,1,0,0:0:0:40:Cymatics - Main Clap 9_Reverb.wav
192,192,174549,1,0,0:0:0:40:Cymatics - Main Clap 9_Reverb.wav
64,192,174913,1,4,0:0:0:0:
448,192,174913,128,0,176004:0:0:0:0:
64,192,176004,128,0,176186:0:0:0:0:
192,192,176186,128,0,177458:0:0:0:0:
320,192,177458,128,0,177822:0:0:0:0:
192,192,177822,1,0,0:0:0:0:
448,192,177822,128,0,178913:0:0:0:0:
320,192,178913,128,0,179095:0:0:0:0:
64,192,179095,128,0,180004:0:0:0:0:
192,192,179095,1,0,0:0:0:0:
320,192,180004,1,0,0:0:0:0:
448,192,180004,128,0,180368:0:0:0:0:
64,192,180368,128,0,180731:0:0:0:0:
320,192,180731,128,0,182004:0:0:0:0:
448,192,180731,1,0,0:0:0:0:
64,192,182004,128,0,183640:0:0:0:0:
192,192,182004,1,0,0:0:0:0:
192,192,183640,1,0,0:0:0:0:
448,192,183640,128,0,184913:0:0:0:0:
64,192,184913,128,0,185822:0:0:0:0:
320,192,184913,1,0,0:0:0:0:
448,192,185822,1,0,0:0:0:0:
