osu file format v14

[General]
AudioFilename: audio.mp3
AudioLeadIn: 0
PreviewTime: 17192
Countdown: 0
SampleSet: Soft
StackLeniency: 0.9
Mode: 0
LetterboxInBreaks: 0
WidescreenStoryboard: 1

[Editor]
Bookmarks: 11960,13372,16666,22666,24784,30784,33572,36431,42078,45254,49137,56196,61137,63490,64313,65019,79137,80431,83254,85372,88196,89372,94549,95607,96078,101725,109843,124313,146902
DistanceSpacing: 2
BeatDivisor: 12
GridSize: 8
TimelineZoom: 6.099997

[Metadata]
Title:macaron moon
TitleUnicode:macaron moon
Artist:YUC'e
ArtistUnicode:YUC'e
Creator:Firinael
Version:it's not a spaghetti sun
Source:
Tags:
BeatmapID:1359896
BeatmapSetID:641303

[Difficulty]
HPDrainRate:6
CircleSize:3.5
OverallDifficulty:7
ApproachRate:9.2
SliderMultiplier:1.4
SliderTickRate:1

[Events]
//Background and Video events
0,0,"macaron moon.jpg",0,0
//Break Periods
2,68043,78567
//Storyboard Layer 0 (Background)
//Storyboard Layer 1 (Fail)
//Storyboard Layer 2 (Pass)
//Storyboard Layer 3 (Foreground)
//Storyboard Sound Samples

[TimingPoints]
78.5,352.941176470588,4,2,0,40,1,0
564,-66.6666666666667,4,2,0,40,0,0
18431,-57.1428571428571,4,2,0,40,0,0
19357,-50,4,2,0,40,0,0
20902,-50,4,2,0,40,0,0
21254,-80,4,2,0,40,0,0
24254,-50,4,2,0,40,0,0
24784,-66.6666666666667,4,2,0,40,0,0
25137,-50,4,2,0,40,0,0
25490,-100,4,2,0,40,0,0
26549,-66.6666666666667,4,2,0,40,0,0
26902,-80,4,2,0,40,0,0
27960,-50,4,2,0,40,0,0
28313,-80,4,2,0,40,0,0
30019,-50,4,2,0,40,0,0
30431,-66.6666666666667,4,2,0,40,0,0
30784,-50,4,2,0,40,0,0
32196,-66.6666666666667,4,2,0,40,0,0
33960,-100,4,2,0,40,0,0
36431,-50,4,2,0,40,0,0
36784,-100,4,2,0,40,0,0
39475,-50,4,2,0,40,0,0
43843,-57.1428571428571,4,2,0,40,0,0
44402,-66.6666666666667,4,2,0,40,0,0
45254,-200,4,2,0,40,0,0
45607,-50,4,2,0,40,0,0
46313,-66.6666666666667,4,2,0,40,0,0
46666,-50,4,2,0,40,0,0
47490,-200,4,2,0,40,0,0
47607,-50,4,2,0,40,0,0
48078,-200,4,2,0,40,0,0
48784,-100,4,2,0,40,0,0
49137,-66.6666666666667,4,2,0,40,0,0
49490,-200,4,2,0,40,0,0
49843,-50,4,2,0,40,0,0
50549,-200,4,2,0,40,0,0
51254,-50,4,2,0,40,0,0
51843,-66.6666666666667,4,2,0,40,0,0
52313,-50,4,2,0,40,0,0
53019,-200,4,2,0,40,0,0
53254,-50,4,2,0,40,0,0
53725,-200,4,2,0,40,0,0
54078,-50,4,2,0,40,0,0
54431,-200,4,2,0,40,0,0
54784,-50,4,2,0,40,0,0
55490,-66.6666666666667,4,2,0,40,0,0
55843,-50,4,2,0,40,0,0
56549,-200,4,2,0,40,0,0
56902,-50,4,2,0,40,0,0
57254,-66.6666666666667,4,2,0,40,0,0
57607,-50,4,2,0,40,0,0
57960,-200,4,2,0,40,0,0
58313,-50,4,2,0,40,0,0
58784,-200,4,2,0,40,0,0
58902,-50,4,2,0,40,0,0
59372,-200,4,2,0,40,0,0
60078,-100,4,2,0,40,0,0
60431,-66.6666666666667,4,2,0,40,0,0
60784,-200,4,2,0,40,0,0
61137,-50,4,2,0,40,0,0
61843,-200,4,2,0,40,0,0
62784,-100,4,2,0,40,0,0
63254,-200,4,2,0,40,0,0
63490,-50,4,2,0,40,0,0
65019,-133.333333333333,4,2,0,40,0,0
66431,-50,4,2,0,40,0,0
66784,-66.6666666666667,4,2,0,40,0,0
67137,-50,4,2,0,40,0,0
79137,-66.6666666666667,4,2,0,40,0,0
96078,-50,4,2,0,40,0,0
101725,-200,4,2,0,40,0,0
102078,-66.6666666666667,4,2,0,40,0,0
103137,-200,4,2,0,40,0,0
103490,-66.6666666666667,4,2,0,40,0,0
104549,-200,4,2,0,40,0,0
104902,-66.6666666666667,4,2,0,40,0,0
105960,-200,4,2,0,40,0,0
106313,-66.6666666666667,4,2,0,40,0,0
106666,-200,4,2,0,40,0,0
107019,-66.6666666666667,4,2,0,40,0,0
107372,-200,4,2,0,40,0,0
107725,-50,4,2,0,40,0,0
108078,-66.6666666666667,4,2,0,40,0,0
108784,-200,4,2,0,40,0,0
109490,-66.6666666666667,4,2,0,40,0,0
110196,-100,4,2,0,40,0,0
111607,-200,4,2,0,40,0,0
111960,-66.6666666666667,4,2,0,40,0,0
112313,-200,4,2,0,40,0,0
112666,-66.6666666666667,4,2,0,40,0,0
113019,-200,4,2,0,40,0,0
113372,-66.6666666666667,4,2,0,40,0,0
114431,-200,4,2,0,40,0,0
114784,-50,4,2,0,40,0,0
115137,-66.6666666666667,4,2,0,40,0,0
115843,-50,4,2,0,40,0,0
117607,-66.6666666666667,4,2,0,40,0,0
118313,-50,4,2,0,40,0,0
118666,-200,4,2,0,40,0,0
119019,-50,4,2,0,40,0,0
119372,-200,4,2,0,40,0,0
119725,-50,4,2,0,40,0,0
120078,-200,4,2,0,40,0,0
122902,-80,4,2,0,40,0,0
126078,-50,4,2,0,40,0,0
126431,-66.6666666666667,4,2,0,40,0,0
126784,-50,4,2,0,40,0,0
127137,-100,4,2,0,40,0,0
128196,-66.6666666666667,4,2,0,40,0,0
129607,-50,4,2,0,40,0,0
129960,-80,4,2,0,40,0,0
131019,-80,4,2,0,40,0,0
131725,-50,4,2,0,40,0,0
132078,-66.6666666666667,4,2,0,40,0,0
132431,-50,4,2,0,40,0,0
133843,-66.6666666666667,4,2,0,40,0,0
134196,-80,4,2,0,40,0,0
135254,-66.6666666666667,4,2,0,40,0,0
135607,-100,4,2,0,40,0,0
138078,-50,4,2,0,40,0,0
138431,-100,4,2,0,40,0,0
141137,-50,4,2,0,40,0,0
145490,-57.1428571428571,4,2,0,40,0,0
146902,-200,4,2,0,40,0,0
147254,-50,4,2,0,40,0,0
147960,-66.6666666666667,4,2,0,40,0,0
148313,-50,4,2,0,40,0,0
149137,-200,4,2,0,40,0,0
149254,-50,4,2,0,40,0,0
149372,-57.1428571428571,4,2,0,40,0,0
149725,-100,4,2,0,40,0,0
150781,-50,4,2,0,40,0,0
150784,-66.6666666666667,4,2,0,40,0,0
151137,-200,4,2,0,40,0,0
151490,-50,4,2,0,40,0,0
152196,-200,4,2,0,40,0,0
152902,-50,4,2,0,40,0,0
154313,-50,4,2,0,40,0,0
154663,-200,4,2,0,40,0,0
154902,-50,4,2,0,40,0,0
155369,-200,4,2,0,40,0,0
155722,-50,4,2,0,40,0,0
156078,-200,4,2,0,40,0,0
156431,-66.6666666666667,4,2,0,40,0,0
156781,-50,4,2,0,40,0,0
158196,-200,4,2,0,40,0,0
158545,-50,4,2,0,40,0,0
159607,-200,4,2,0,40,0,0
159960,-50,4,2,0,40,0,0
161016,-100,4,2,0,40,0,0
161722,-100,4,2,0,40,0,0
162075,-66.6666666666667,4,2,0,40,0,0
162784,-50,4,2,0,40,0,0
163490,-200,4,2,0,40,0,0
164431,-100,4,2,0,40,0,0
164902,-200,4,2,0,40,0,0
165137,-50,4,2,0,40,0,0
168431,-66.6666666666667,4,2,0,40,0,0
168784,-50,4,2,0,40,0,0
170196,-80,4,2,0,40,0,0
171607,-50,4,2,0,40,0,0
171960,-80,4,2,0,40,0,0
174431,-50,4,2,0,40,0,0
174784,-80,4,2,0,40,0,0
177254,-50,4,2,0,40,0,0
177607,-80,4,2,0,40,0,0
180431,-50,4,2,0,40,0,0

[Colours]
Combo1 : 149,255,149
Combo2 : 255,255,128
Combo3 : 151,226,255
Combo4 : 255,138,132
Combo5 : 157,157,255
Combo6 : 179,132,132

[HitObjects]
202,87,78,37,8,0:0:0:0:
104,216,431,1,8,0:0:0:0:
232,152,666,5,8,0:0:0:0:
232,48,784,2,8,P|289:77|334:149,1,140.000005340576
248,256,1372,5,8,0:0:0:0:
232,152,1490,2,8,P|184:172|137:249,1,140.000005340576
100,139,2078,21,8,0:0:0:0:
184,312,2431,5,8,0:0:0:0:
296,232,2549,2,8,P|241:234|176:175,1,140.000005340576
290,152,2902,1,8,0:0:0:0:
344,56,3490,6,8,P|365:84|377:117,1,70.0000026702882
208,168,3843,1,8,0:0:0:0:
277,47,4196,5,8,0:0:0:0:
343,66,4313,1,8,0:0:0:0:
402,102,4431,1,8,0:0:0:0:
435,163,4549,1,8,0:0:0:0:
439,232,4666,1,8,0:0:0:0:
403,292,4784,1,8,0:0:0:0:
336,314,4902,1,8,0:0:0:0:
259,314,5019,5,8,0:0:0:0:
183,297,5137,1,8,0:0:0:0:
115,260,5254,1,8,0:0:0:0:
78,191,5372,1,8,0:0:0:0:
72,113,5490,1,8,0:0:0:0:
117,51,5607,1,8,0:0:0:0:
188,21,5725,1,8,0:0:0:0:
304,176,6313,5,8,0:0:0:0:
400,288,6431,2,8,P|441:239|439:161,1,140.000005340576
280,88,7019,5,8,0:0:0:0:
248,200,7137,2,8,P|200:180|154:87,1,140.000005340576
168,114,7725,5,8,0:0:0:0:
64,192,7843,1,8,0:0:0:0:
272,256,8078,1,8,0:0:0:0:
288,136,8196,2,8,P|233:134|168:193,1,140.000005340576
88,88,8549,1,8,0:0:0:0:
104,206,9137,5,8,0:0:0:0:
142,271,9254,1,8,0:0:0:0:
205,315,9372,1,8,0:0:0:0:
280,329,9490,1,8,0:0:0:0:
352,285,9607,5,8,0:0:0:0:
382,206,9725,1,8,0:0:0:0:
368,122,9843,1,8,0:0:0:0:
319,53,9960,1,8,0:0:0:0:
200,112,10313,5,8,0:0:0:0:
324,112,10666,5,8,0:0:0:0:
200,268,11019,5,8,0:0:0:0:
324,268,11372,5,8,0:0:0:0:
192,184,11960,5,8,0:0:0:0:
277,78,12078,1,8,0:0:0:0:
345,241,12313,1,8,0:0:0:0:
264,176,12666,5,8,0:0:0:0:
248,290,12784,1,8,0:0:0:0:
380,144,13019,1,8,0:0:0:0:
216,176,13372,5,8,0:0:0:0:
105,275,13490,1,8,0:0:0:0:
105,275,13725,5,8,0:0:0:0:
211,294,13843,1,8,0:0:0:0:
211,294,14078,5,8,0:0:0:0:
115,166,14196,1,8,0:0:0:0:
344,200,14784,5,8,0:0:0:0:
296,304,14902,1,8,0:0:0:0:
464,200,15137,1,8,0:0:0:0:
352,120,15490,5,8,0:0:0:0:
240,51,15607,1,8,0:0:0:0:
235,51,15843,5,8,0:0:0:0:
256,180,15960,1,8,0:0:0:0:
256,180,16196,5,8,0:0:0:0:
125,140,16313,1,8,0:0:0:0:
325,78,16666,5,8,0:0:0:0:
257,59,16784,1,8,0:0:0:0:
187,51,16902,1,8,0:0:0:0:
120,70,17019,1,8,0:0:0:0:
66,114,17137,1,8,0:0:0:0:
43,180,17254,1,8,0:0:0:0:
98,222,17372,1,8,0:0:0:0:
167,231,17490,1,8,0:0:0:0:
236,232,17607,1,8,0:0:0:0:
302,209,17725,1,8,0:0:0:0:
362,174,17843,1,8,0:0:0:0:
431,171,17960,1,8,0:0:0:0:
481,229,18078,5,8,0:0:0:0:
438,293,18196,1,8,0:0:0:0:
374,335,18313,1,8,0:0:0:0:
283,332,18431,1,8,0:0:0:0:
198,301,18549,1,8,0:0:0:0:
126,248,18666,1,8,0:0:0:0:
94,163,18784,1,8,0:0:0:0:
132,81,18902,1,8,0:0:0:0:
214,46,19019,1,8,0:0:0:0:
303,59,19137,1,8,0:0:0:0:
384,96,19254,1,8,0:0:0:0:
437,183,19372,1,8,0:0:0:0:
416,293,19490,5,8,0:0:0:0:
306,315,19607,1,8,0:0:0:0:
195,292,19725,1,8,0:0:0:0:
112,215,19843,1,8,0:0:0:0:
90,105,19960,1,8,0:0:0:0:
191,57,20078,1,8,0:0:0:0:
303,59,20196,1,8,0:0:0:0:
392,125,20313,1,8,0:0:0:0:
420,233,20431,1,8,0:0:0:0:
329,299,20549,1,8,0:0:0:0:
233,241,20666,1,8,0:0:0:0:
190,136,20784,1,8,0:0:0:0:
291,68,20902,6,8,L|267:27,5,46.6666666666667
324,143,21254,6,8,P|396:119|420:70,1,116.666666666667
428,79,21607,6,8,P|419:161|434:198,1,116.666666666667
440,210,21960,6,8,P|385:151|288:159,1,175
96,154,22666,6,8,P|138:198|142:254,1,116.666666666667
241,130,23019,5,8,0:0:0:0:
319,78,23137,1,8,0:0:0:0:
411,80,23254,1,8,0:0:0:0:
463,157,23372,1,8,0:0:0:0:
419,240,23490,1,8,0:0:0:0:
334,277,23607,1,8,0:0:0:0:
248,314,23725,6,8,B|310:354|310:354|344:324|399:307|430:375|303:266,1,262.5
306,122,24431,6,8,L|266:106,2,23.3333333333333
80,169,24784,6,8,B|192:54,1,157.500006008148
225,163,25137,2,8,B|246:202|246:202|257:231|257:231|226:239|226:239|254:235|254:235|189:304,1,210
129,182,25490,2,8,P|78:216|63:253,1,93.3333333333333
38,126,25843,5,8,0:0:0:0:
24,226,25961,1,8,0:0:0:0:
87,303,26078,1,8,0:0:0:0:
184,332,26196,1,8,0:0:0:0:
268,291,26314,1,8,0:0:0:0:
317,212,26431,1,8,0:0:0:0:
348,117,26549,6,8,B|304:145|304:145|280:124|243:112|221:159|309:83,1,175.00000667572
392,48,26902,6,8,P|339:71|316:125,1,116.666666666667
322,154,27254,6,8,P|378:168|435:156,1,116.666666666667
452,143,27607,6,8,P|436:90|378:45,1,116.666666666667
339,42,27960,6,8,L|291:136,2,93.3333333333333
173,192,28313,6,8,P|130:236|126:292,1,116.666666666667
48,197,28666,5,8,0:0:0:0:
92,114,28784,1,8,0:0:0:0:
174,73,28901,1,8,0:0:0:0:
274,100,29019,1,8,0:0:0:0:
338,176,29137,1,8,0:0:0:0:
370,260,29254,1,8,0:0:0:0:
373,353,29372,6,8,B|430:304|430:304|411:263|411:206|485:196|343:285,1,262.5
174,141,30078,6,8,L|190:104,2,23.3333333333333
233,166,30431,6,8,B|345:51,1,157.500006008148
194,52,30784,2,8,B|176:136|131:158|90:164|67:170,1,186.666666666667
181,221,31137,2,8,B|160:262|160:262|206:275|206:275|204:330|204:330|252:307,1,186.666666666667
325,260,31490,5,8,0:0:0:0:
238,313,31608,1,8,0:0:0:0:
142,286,31725,1,8,0:0:0:0:
66,216,31843,1,8,0:0:0:0:
43,128,31961,1,8,0:0:0:0:
108,56,32078,1,8,0:0:0:0:
201,27,32196,6,8,B|155:51|155:51|162:82|153:120|102:116|211:76,1,175.00000667572
311,74,32549,6,8,P|279:143|231:165,1,116.666666666667
236,170,32902,6,8,P|318:170|357:192,1,116.666666666667
354,191,33254,6,8,P|313:130|333:52,1,145.833333333333
222,87,33607,6,8,P|192:87|206:113,2,70.0000026702882
164,219,33960,6,8,B|117:176|117:176|128:137,1,93.3333333333333
164,219,34313,6,8,B|110:253|110:253|75:232,1,93.3333333333333
164,219,34666,6,8,B|189:277|189:277|163:308,1,93.3333333333333
164,219,35019,6,8,B|225:204|225:204|252:235,1,93.3333333333333
111,160,35372,5,8,0:0:0:0:
255,58,35725,1,8,0:0:0:0:
314,211,36078,1,8,0:0:0:0:
122,232,36431,6,8,B|134:274|134:274|147:302|147:302|175:286|175:286|152:303|152:303|226:305,1,210
257,131,36784,2,8,P|236:172|234:218,1,93.3333333333333
348,219,37137,6,8,B|395:176|395:176|384:137,1,93.3333333333333
348,219,37490,6,8,B|398:257|398:257|435:240,1,93.3333333333333
348,219,37843,6,8,B|318:275|318:275|342:308,1,93.3333333333333
348,219,38196,6,8,B|287:199|287:199|258:228,1,93.3333333333333
381,130,38549,5,8,0:0:0:0:
256,140,38902,2,8,B|296:94|339:99|391:136,1,140
196,221,39475,6,8,B|154:208|154:208|147:132,1,105
279,98,39960,5,8,0:0:0:0:
366,164,40078,1,8,0:0:0:0:
205,44,40196,1,8,0:0:0:0:
366,164,40313,2,8,L|389:177,1,23.3333333333333
264,189,40666,5,8,0:0:0:0:
202,297,40784,1,8,0:0:0:0:
314,93,40902,1,8,0:0:0:0:
202,297,41019,2,8,L|190:325,1,23.3333333333333
232,186,41372,5,8,0:0:0:0:
98,82,41490,1,8,0:0:0:0:
340,273,41608,1,8,0:0:0:0:
98,82,41725,2,8,L|69:53,1,23.3333333333333
234,99,42078,5,8,0:0:0:0:
157,198,42196,1,8,0:0:0:0:
323,143,42313,1,8,0:0:0:0:
263,244,42431,2,8,L|255:265,1,23.3333333333333
67,42,42784,6,8,P|40:103|87:151,1,140
142,74,43137,6,8,P|81:41|40:98,1,140
100,150,43490,6,8,P|150:99|120:49,1,140
256,136,43843,54,8,B|195:80|131:201|264:256,1,224.583335475127
256,136,44490,2,8,B|312:76|413:194|256:256,1,245.000009346009
144,136,45254,6,8,L|144:184,1,46.6666666666667
267,199,45607,2,8,L|211:55,1,140
304,48,45843,6,8,L|332:43,1,23.3333333333333
337,138,45960,2,8,L|363:132,1,23.3333333333333
366,230,46078,2,8,L|408:224,1,23.3333333333333
402,328,46196,2,8,L|432:320,1,23.3333333333333
280,328,46313,6,8,P|291:293|254:200,1,140.000005340576
184,280,46666,6,8,B|264:255|322:280|322:280|363:252|363:252,1,186.666666666667
320,176,47019,2,8,L|334:158,1,23.3333333333333
248,128,47137,2,8,L|264:104,1,23.3333333333333
176,80,47254,2,8,L|191:58,1,23.3333333333333
95,38,47372,1,8,0:0:0:0:
95,196,47490,6,8,L|90:185,1,11.6666666666667
24,53,47607,2,8,L|49:69,2,23.3333333333333
143,124,47725,2,8,B|223:149|282:120|282:120|327:163|327:163,1,186.666666666667
219,66,48078,6,8,P|208:104|208:112,1,46.6666666666667
302,162,48431,1,8,0:0:0:0:
194,228,48549,1,8,0:0:0:0:
116,102,48666,1,8,0:0:0:0:
112,216,48784,6,8,L|112:328,1,105
224,253,49137,6,8,P|211:202|267:138,1,140.000005340576
224,168,49490,6,8,P|247:147|263:139,1,46.6666666666667
384,288,49843,6,8,L|360:283,2,23.3333333333333
264,266,49960,1,8,0:0:0:0:
318,212,50078,1,8,0:0:0:0:
368,154,50196,1,8,0:0:0:0:
413,93,50313,1,8,0:0:0:0:
462,32,50431,1,8,0:0:0:0:
328,72,50549,6,8,L|270:72,1,58.3333333333333
282,151,50902,6,8,L|282:213,1,58.3333333333333
282,291,51254,2,8,L|282:147,1,140
216,120,51490,6,8,L|157:47,1,93.3333333333333
124,159,51666,2,8,L|103:141,4,23.3333333333333
43,83,51843,2,8,L|43:35,1,35.0000013351441
152,48,51960,5,8,0:0:0:0:
240,48,52078,1,8,0:0:0:0:
328,48,52196,1,8,0:0:0:0:
293,161,52313,2,8,B|220:118|200:58|200:58|152:46|152:46,1,186.666666666667
104,136,52666,6,8,L|90:154,2,23.3333333333333
184,184,52784,2,8,L|170:202,2,23.3333333333333
264,232,52902,2,8,L|250:250,2,23.3333333333333
316,178,53019,22,8,B|335:172|335:172|351:181,1,35
444,210,53254,70,8,L|460:178,2,23.3333333333333
480,112,53372,2,8,B|400:87|348:117|348:117|301:84|301:84,1,186.666666666667
144,88,53725,6,8,L|144:147,1,58.3333333333333
269,119,54078,2,8,L|269:146,2,23.3333333333333
400,160,54196,2,8,L|376:176,2,23.3333333333333
437,285,54313,2,8,L|413:285,2,23.3333333333333
320,232,54431,6,8,L|320:295,1,58.3333333333333
243,212,54784,2,8,L|214:175,2,46.6666666666667
152,104,55019,1,8,0:0:0:0:
56,200,55137,6,8,P|168:200|232:304,1,233.333333333333
144,192,55490,2,8,P|224:264|232:336,1,175.00000667572
232,336,55843,2,8,P|174:205|48:200,1,280
144,136,56549,6,8,L|144:194,1,58.3333333333333
160,288,56902,2,8,L|180:299,1,23.3333333333333
219,203,57019,2,8,L|240:212,1,23.3333333333333
272,121,57137,2,8,L|292:131,1,23.3333333333333
320,240,57254,2,8,L|285:101,1,140.000005340576
392,96,57607,2,8,L|422:123,2,23.3333333333333
340,184,57725,2,8,L|367:209,2,23.3333333333333
285,266,57843,2,8,L|313:283,2,23.3333333333333
408,224,57960,6,8,L|409:282,1,58.3333333333333
312,224,58313,2,8,L|326:206,1,23.3333333333333
240,176,58431,2,8,L|256:152,1,23.3333333333333
168,128,58549,2,8,L|183:106,1,23.3333333333333
72,79,58666,1,8,0:0:0:0:
217,51,58784,6,8,L|225:40,1,11.6666666666667
63,208,58902,2,8,L|81:187,2,23.3333333333333
143,124,59019,2,8,B|223:149|282:120|282:120|327:163|327:163,1,186.666666666667
384,72,59372,6,8,L|384:122,1,46.6666666666667
301,205,59725,1,8,0:0:0:0:
474,127,59843,1,8,0:0:0:0:
470,266,59960,1,8,0:0:0:0:
384,128,60078,6,8,L|384:240,1,105
400,208,60431,6,8,P|347:205|296:273,1,140.000005340576
324,216,60784,6,8,P|304:243|296:271,1,58.3333333333333
266,338,61137,6,8,L|248:324,2,23.3333333333333
152,276,61254,1,8,0:0:0:0:
207,223,61372,1,8,0:0:0:0:
257,169,61490,1,8,0:0:0:0:
307,106,61607,1,8,0:0:0:0:
372,47,61725,1,8,0:0:0:0:
239,56,61843,6,8,L|188:55,1,46.6666666666667
144,96,62196,5,8,0:0:0:0:
200,56,62313,1,8,0:0:0:0:
272,48,62431,1,8,0:0:0:0:
344,64,62549,1,8,0:0:0:0:
392,120,62666,1,8,0:0:0:0:
408,192,62784,54,8,L|400:216,1,23.3333333333333
368,272,62902,1,8,0:0:0:0:
304,320,63019,1,8,0:0:0:0:
232,328,63137,1,8,0:0:0:0:
152,328,63254,2,8,L|149:301,1,23.3333333333333
256,136,63490,38,8,B|256:64|120:64|128:192|256:296|256:296|384:192|392:64|256:64|256:136,1,653.333333333333
256,167,64372,2,8,B|256:142|200:136|216:184|256:232|256:232|296:184|312:136|256:142|256:167,1,233.333333333333
144,88,65019,6,8,P|134:156|140:180,1,87.5000033378602
232,128,65372,1,8,0:0:0:0:
328,128,65490,1,8,0:0:0:0:
424,128,65607,1,8,0:0:0:0:
320,232,65725,6,8,P|310:300|316:324,1,87.5000033378602
216,280,66078,1,8,0:0:0:0:
120,280,66196,1,8,0:0:0:0:
24,280,66313,1,8,0:0:0:0:
144,120,66431,6,8,P|256:120|320:224,1,233.333333333333
352,128,66784,2,8,P|283:179|262:262,1,175.00000667572
224,256,67137,2,8,P|363:223|443:321,1,280
258,189,67843,5,8,0:0:0:0:
157,84,79137,37,8,0:0:0:0:
192,235,79490,1,8,0:0:0:0:
288,112,79725,5,8,0:0:0:0:
380,92,79843,2,8,P|370:155|315:220,1,140.000005340576
176,264,80431,5,8,0:0:0:0:
265,254,80549,2,8,P|242:207|163:164,1,140.000005340576
352,192,81137,5,8,0:0:0:0:
430,87,81254,1,8,0:0:0:0:
424,88,81490,5,8,0:0:0:0:
293,93,81607,1,8,0:0:0:0:
288,104,81843,5,8,0:0:0:0:
355,213,81960,1,8,0:0:0:0:
216,240,82549,5,8,0:0:0:0:
130,276,82666,2,8,P|127:212|177:151,1,140.000005340576
152,112,83254,5,8,0:0:0:0:
279,82,83372,1,8,0:0:0:0:
272,80,83607,5,8,0:0:0:0:
265,209,83725,1,8,0:0:0:0:
256,200,83960,5,8,0:0:0:0:
141,123,84078,1,8,0:0:0:0:
392,96,84431,1,8,0:0:0:0:
176,256,84784,1,8,0:0:0:0:
136,136,85372,5,8,0:0:0:0:
255,179,85490,2,8,P|207:199|161:292,1,140.000005340576
104,144,86078,5,8,0:0:0:0:
134,271,86196,1,8,0:0:0:0:
138,275,86431,5,8,0:0:0:0:
214,169,86549,1,8,0:0:0:0:
214,169,86784,5,8,0:0:0:0:
279,290,86902,1,8,0:0:0:0:
368,248,87254,1,8,0:0:0:0:
136,88,87607,1,8,0:0:0:0:
270,75,88196,5,8,0:0:0:0:
341,96,88313,1,8,0:0:0:0:
398,148,88431,1,8,0:0:0:0:
428,218,88549,1,8,0:0:0:0:
402,298,88666,5,8,0:0:0:0:
331,345,88784,1,8,0:0:0:0:
247,350,88902,1,8,0:0:0:0:
168,318,89019,1,8,0:0:0:0:
240,240,89372,5,8,0:0:0:0:
249,79,89725,5,8,0:0:0:0:
165,173,90078,5,8,0:0:0:0:
320,144,90431,5,8,0:0:0:0:
210,241,91019,5,8,0:0:0:0:
291,302,91137,1,8,0:0:0:0:
282,132,91372,1,8,0:0:0:0:
191,108,91725,5,8,0:0:0:0:
282,132,91843,1,8,0:0:0:0:
167,237,92078,1,8,0:0:0:0:
296,216,92431,5,8,0:0:0:0:
197,130,92549,1,8,0:0:0:0:
191,130,92784,5,8,0:0:0:0:
192,260,92902,1,8,0:0:0:0:
192,260,93137,5,8,0:0:0:0:
79,196,93254,1,8,0:0:0:0:
240,296,93843,5,8,0:0:0:0:
248,202,93960,1,8,0:0:0:0:
372,297,94196,1,8,0:0:0:0:
227,317,94549,5,8,0:0:0:0:
157,319,94666,1,8,0:0:0:0:
91,303,94784,1,8,0:0:0:0:
40,255,94902,1,8,0:0:0:0:
15,191,95019,1,8,0:0:0:0:
31,122,95137,1,8,0:0:0:0:
87,81,95255,1,8,0:0:0:0:
161,57,95372,5,8,0:0:0:0:
238,49,95490,1,8,0:0:0:0:
314,64,95607,1,8,0:0:0:0:
371,118,95725,1,8,0:0:0:0:
400,190,95843,1,8,0:0:0:0:
377,263,95960,1,8,0:0:0:0:
316,313,96078,5,8,0:0:0:0:
241,300,96196,2,8,L|241:268,1,23.3333333333333
164,279,96313,2,8,L|164:247,1,23.3333333333333
93,222,96431,2,8,L|93:190,1,23.3333333333333
48,134,96549,2,8,L|48:102,1,23.3333333333333
115,73,96666,2,8,L|115:41,1,23.3333333333333
192,53,96784,2,8,L|192:21,1,23.3333333333333
266,52,96902,2,8,L|266:20,1,23.3333333333333
336,58,97019,2,8,L|336:26,1,23.3333333333333
399,79,97137,2,8,L|399:47,1,23.3333333333333
450,112,97254,2,8,L|458:72,1,23.3333333333333
489,158,97372,2,8,L|489:126,1,23.3333333333333
435,191,97490,6,8,L|435:151,1,23.3333333333333
351,157,97607,2,8,L|351:125,1,23.3333333333333
266,131,97725,2,8,L|266:99,1,23.3333333333333
182,121,97843,2,8,L|182:89,1,23.3333333333333
107,135,97960,2,8,L|107:103,1,23.3333333333333
52,176,98078,2,8,L|52:144,1,23.3333333333333
42,236,98196,2,8,L|42:204,1,23.3333333333333
107,264,98313,2,8,L|107:232,1,23.3333333333333
178,286,98431,2,8,L|178:254,1,23.3333333333333
255,297,98549,2,8,L|255:265,1,23.3333333333333
333,303,98666,2,8,L|333:271,1,23.3333333333333
415,260,98784,2,8,L|415:220,1,23.3333333333333
463,158,98902,6,8,L|463:126,1,23.3333333333333
373,117,99019,2,8,L|373:85,1,23.3333333333333
283,72,99137,2,8,L|283:40,1,23.3333333333333
192,56,99254,2,8,L|192:24,1,23.3333333333333
108,71,99372,2,8,L|108:39,1,23.3333333333333
44,114,99490,2,8,L|44:82,1,23.3333333333333
86,170,99607,2,8,L|86:138,1,23.3333333333333
160,200,99725,2,8,L|160:168,1,23.3333333333333
242,216,99843,2,8,L|242:184,1,23.3333333333333
326,226,99960,2,8,L|326:194,1,23.3333333333333
412,234,100078,2,8,L|412:194,1,23.3333333333333
492,255,100196,2,8,L|492:223,1,23.3333333333333
388,325,100313,22,8,L|388:293,2,23.3333333333333
292,319,100431,2,8,L|292:287,2,23.3333333333333
200,291,100549,2,8,L|200:259,2,23.3333333333333
111,261,100666,2,8,L|111:229,2,23.3333333333333
43,193,100784,2,8,L|43:161,2,23.3333333333333
79,105,100902,2,8,L|79:73,2,23.3333333333333
165,68,101019,2,8,L|165:36,2,23.3333333333333
258,52,101137,2,8,L|258:20,2,23.3333333333333
351,54,101254,2,8,L|351:22,2,23.3333333333333
444,72,101372,2,8,L|444:40,2,23.3333333333333
411,161,101490,2,8,L|411:129,2,23.3333333333333
321,188,101607,2,8,L|321:156,2,23.3333333333333
240,176,101725,6,8,L|240:234,1,58.3333333333333
56,103,102078,6,8,P|51:167|103:225,1,140.000005340576
196,246,102431,2,8,P|267:215|289:146,1,140.000005340576
328,79,102784,2,8,P|422:101|456:132,1,140.000005340576
424,216,103137,6,8,L|424:275,1,58.3333333333333
312,248,103490,2,8,P|236:226|204:202,1,105.000004005432
184,88,103843,2,8,P|248:46|311:45,1,140.000005340576
392,104,104196,2,8,P|444:180|451:238,1,140.000005340576
336,208,104549,6,8,L|336:256,1,46.6666666666667
240,296,104902,2,8,P|313:314|375:284,1,140.000005340576
448,192,105254,2,8,P|399:143|264:160,1,210.000008010865
262,259,105784,1,8,0:0:0:0:
264,128,105960,6,8,L|264:184,1,52.5
200,272,106313,2,8,P|276:290|342:265,1,140.000005340576
432,200,106666,6,8,L|432:248,1,46.6666666666667
328,288,107019,2,8,P|334:207|371:159,1,140.000005340576
385,105,107372,6,8,L|385:167,1,58.3333333333333
385,245,107725,2,8,L|385:85,1,140
300,121,108078,2,8,P|298:195|259:257,1,140.000005340576
200,176,108431,2,8,P|130:148|67:175,1,140.000005340576
80,112,108784,6,8,L|80:160,1,46.6666666666667
104,264,109137,1,8,0:0:0:0:
208,264,109254,1,8,0:0:0:0:
304,264,109372,1,8,0:0:0:0:
408,264,109490,2,8,P|418:191|371:155,1,140.000005340576
240,120,109843,5,8,0:0:0:0:
144,200,110196,1,8,0:0:0:0:
144,216,110431,2,8,P|152:248|200:288,1,93.3333333333333
304,224,110902,5,8,0:0:0:0:
304,208,111137,2,8,P|296:176|248:136,1,93.3333333333333
424,120,111607,6,8,L|424:168,1,46.6666666666667
392,264,111960,2,8,P|320:304|264:272,1,140.000005340576
176,200,112313,6,8,L|176:248,1,46.6666666666667
72,200,112666,2,8,P|80:128|136:72,1,140.000005340576
240,48,113019,6,8,L|240:96,1,46.6666666666667
160,104,113372,2,8,P|104:168|128:224,1,140.000005340576
208,184,113725,2,8,P|272:216|288:288,1,140.000005340576
240,344,114107,2,8,P|184:296|128:280,1,122.500004673004
56,160,114431,6,8,L|56:208,1,46.6666666666667
176,120,114784,2,8,L|176:168,4,46.6666666666667
208,264,115137,6,8,P|272:232|296:168,1,140.000005340576
360,80,115490,2,8,P|392:152|392:216,1,140.000005340576
120,88,115843,6,8,P|130:156|124:180,1,87.5000033378602
232,128,116078,1,8,0:0:0:0:
328,128,116196,1,8,0:0:0:0:
424,128,116313,1,8,0:0:0:0:
320,232,116549,6,8,P|310:300|316:324,1,87.5000033378602
216,280,116784,1,8,0:0:0:0:
120,280,116902,1,8,0:0:0:0:
24,280,117019,1,8,0:0:0:0:
56,197,117137,6,8,L|80:213,1,23.3333333333333
120,133,117254,2,8,L|144:149,1,23.3333333333333
192,77,117372,2,8,L|216:93,1,23.3333333333333
257,12,117490,1,8,0:0:0:0:
440,144,117607,6,8,P|400:208|336:232,1,140.000005340576
264,168,117960,2,8,P|192:216|192:272,1,140.000005340576
280,256,118313,6,8,L|280:64,1,186.666666666667
64,96,118666,6,8,L|64:157,1,58.3333333333333
168,200,119019,2,8,L|168:176,2,23.3333333333333
376,112,119372,6,8,L|376:175,1,58.3333333333333
296,80,119725,2,8,L|296:120,2,23.3333333333333
96,112,120078,6,8,L|95:172,1,58.3333333333333
152,256,120431,1,8,0:0:0:0:
256,256,120549,1,8,0:0:0:0:
360,256,120666,1,8,0:0:0:0:
416,112,120784,6,8,L|417:173,1,58.3333333333333
320,40,121137,1,8,0:0:0:0:
200,40,121254,1,8,0:0:0:0:
80,40,121372,1,8,0:0:0:0:
80,144,121490,6,8,L|80:205,1,58.3333333333333
224,192,121843,2,8,L|225:253,1,58.3333333333333
360,248,122196,2,8,L|360:320,1,70
324,143,122902,6,8,P|396:119|420:70,1,116.666666666667
428,79,123254,6,8,P|419:161|434:198,1,116.666666666667
440,216,123607,6,8,P|400:144|312:144,1,175
416,154,124313,6,8,P|374:198|370:254,1,116.666666666667
271,130,124666,5,8,0:0:0:0:
193,78,124784,1,8,0:0:0:0:
101,80,124901,1,8,0:0:0:0:
49,157,125019,1,8,0:0:0:0:
93,240,125137,1,8,0:0:0:0:
178,277,125254,1,8,0:0:0:0:
264,314,125372,6,8,B|202:354|202:354|168:324|113:307|82:375|209:266,1,262.5
200,152,126078,6,8,L|240:136,2,23.3333333333333
80,169,126431,6,8,B|192:54,1,157.500006008148
225,163,126784,2,8,B|246:202|246:202|257:231|257:231|226:239|226:239|254:235|254:235|189:304,1,210
129,182,127137,2,8,P|78:216|63:253,1,93.3333333333333
38,126,127490,5,8,0:0:0:0:
24,226,127608,1,8,0:0:0:0:
87,303,127725,1,8,0:0:0:0:
184,332,127843,1,8,0:0:0:0:
268,291,127961,1,8,0:0:0:0:
317,212,128078,1,8,0:0:0:0:
348,117,128196,6,8,B|304:145|304:145|280:124|243:112|221:159|309:83,1,175.00000667572
180,147,128549,6,8,P|124:135|72:64,1,140.000005340576
90,60,128902,6,8,P|142:34|232:40,1,140.000005340576
219,44,129254,6,8,P|215:99|160:160,1,140.000005340576
339,42,129607,6,8,L|291:136,2,93.3333333333333
173,192,129960,6,8,P|130:236|126:292,1,116.666666666667
48,197,130313,5,8,0:0:0:0:
92,114,130431,1,8,0:0:0:0:
174,73,130548,1,8,0:0:0:0:
274,100,130666,1,8,0:0:0:0:
338,176,130784,1,8,0:0:0:0:
370,260,130901,1,8,0:0:0:0:
373,353,131019,6,8,B|430:304|430:304|411:263|411:206|485:196|343:285,1,262.5
338,141,131725,6,8,L|320:104,2,23.3333333333333
233,166,132078,6,8,B|345:51,1,157.500006008148
194,52,132431,2,8,B|176:136|131:158|90:164|67:170,1,186.666666666667
181,221,132784,2,8,B|160:262|160:262|206:275|206:275|204:330|204:330|252:307,1,186.666666666667
325,260,133137,5,8,0:0:0:0:
238,313,133255,1,8,0:0:0:0:
142,286,133372,1,8,0:0:0:0:
66,216,133490,1,8,0:0:0:0:
43,128,133608,1,8,0:0:0:0:
108,56,133725,1,8,0:0:0:0:
201,27,133843,6,8,B|155:51|155:51|162:82|153:120|102:116|211:76,1,175.00000667572
185,195,134196,6,8,P|257:171|284:125,1,116.666666666667
289,131,134549,6,8,P|281:213|299:254,1,116.666666666667
297,251,134902,6,8,P|241:204|161:216,1,145.833333333333
222,87,135254,6,8,P|192:87|206:113,2,70.0000026702882
348,219,135607,6,8,B|395:176|395:176|384:137,1,93.3333333333333
348,219,135960,6,8,B|402:253|402:253|437:232,1,93.3333333333333
348,219,136313,6,8,B|323:277|323:277|349:308,1,93.3333333333333
348,219,136666,6,8,B|287:204|287:204|260:235,1,93.3333333333333
111,160,137019,5,8,0:0:0:0:
255,58,137372,1,8,0:0:0:0:
314,211,137725,1,8,0:0:0:0:
122,232,138078,6,8,B|134:274|134:274|147:302|147:302|175:286|175:286|152:303|152:303|226:305,1,210
257,131,138431,2,8,P|236:172|234:218,1,93.3333333333333
348,219,138784,6,8,B|395:176|395:176|384:137,1,93.3333333333333
348,219,139137,6,8,B|398:257|398:257|435:240,1,93.3333333333333
348,219,139490,6,8,B|318:275|318:275|342:308,1,93.3333333333333
348,219,139843,6,8,B|287:199|287:199|258:228,1,93.3333333333333
381,130,140196,5,8,0:0:0:0:
256,140,140549,2,8,B|296:94|339:99|391:136,1,140
312,224,141137,6,8,B|354:211|354:211|360:144,1,93.3333333333333
227,94,141607,5,8,0:0:0:0:
112,54,141725,1,8,0:0:0:0:
142,167,141843,1,8,0:0:0:0:
227,94,141960,2,8,L|204:107,1,23.3333333333333
151,169,142313,5,8,0:0:0:0:
163,314,142431,1,8,0:0:0:0:
272,225,142549,1,8,0:0:0:0:
151,169,142666,2,8,L|172:179,1,23.3333333333333
255,228,143019,5,8,0:0:0:0:
403,328,143137,1,8,0:0:0:0:
402,155,143254,1,8,0:0:0:0:
255,228,143372,2,8,L|276:219,1,23.3333333333333
348,150,143725,5,8,0:0:0:0:
480,161,143843,1,8,0:0:0:0:
401,260,143960,1,8,0:0:0:0:
348,150,144078,2,8,L|356:171,1,23.3333333333333
445,42,144431,6,8,P|472:103|425:151,1,140
370,74,144784,6,8,P|431:41|472:98,1,140
412,150,145137,38,8,P|362:99|392:49,1,140
256,136,145490,54,8,B|317:80|381:201|248:256,1,224.583335475127
256,136,146166,2,8,B|200:76|99:194|256:256,1,245.000009346009
368,136,146902,6,8,L|368:199,1,58.3333333333333
256,216,147254,2,8,L|312:72,1,140
208,48,147490,2,8,L|180:43,1,23.3333333333333
175,138,147607,2,8,L|149:132,1,23.3333333333333
146,230,147725,2,8,L|104:224,1,23.3333333333333
110,328,147843,2,8,L|80:320,1,23.3333333333333
232,328,147960,6,8,P|221:293|258:200,1,140.000005340576
328,280,148313,2,8,B|248:255|190:280|190:280|149:252|149:252,1,186.666666666667
192,176,148666,2,8,L|178:158,1,23.3333333333333
264,128,148784,2,8,L|248:104,1,23.3333333333333
336,80,148902,2,8,L|321:58,1,23.3333333333333
408,40,149019,1,8,0:0:0:0:
361,205,149137,2,8,L|367:187,1,17.5
484,86,149254,2,8,L|460:94,2,23.3333333333333
369,124,149372,2,8,B|289:149|230:120|230:120|208:144|208:144,1,163.333334891001
293,66,149725,6,8,P|303:134|296:160,1,93.3333333333333
384,206,150078,1,8,0:0:0:0:
209,127,150196,1,8,0:0:0:0:
397,107,150313,1,8,0:0:0:0:
400,216,150431,6,8,L|400:328,1,105
288,253,150784,6,8,P|301:202|245:138,1,140.000005340576
294,179,151137,6,8,P|270:154|250:140,1,58.3333333333333
216,239,151490,2,8,L|228:220,2,23.3333333333333
152,325,151607,1,8,0:0:0:0:
117,256,151725,1,8,0:0:0:0:
88,188,151843,1,8,0:0:0:0:
65,123,151960,1,8,0:0:0:0:
37,58,152078,1,8,0:0:0:0:
199,103,152196,6,8,L|262:103,1,58.3333333333333
240,176,152549,6,8,L|239:234,1,58.3333333333333
240,316,152902,2,8,L|240:172,1,140
296,120,153137,6,8,L|355:47,1,93.3333333333333
392,128,153313,2,8,L|409:143,4,23.3333333333333
456,80,153490,2,8,L|456:32,1,46.6666666666667
360,48,153607,5,8,0:0:0:0:
272,48,153725,1,8,0:0:0:0:
184,48,153843,1,8,0:0:0:0:
219,161,153960,2,8,B|292:118|312:58|312:58|360:46|360:46,1,186.666666666667
408,136,154313,6,8,L|422:154,2,23.3333333333333
328,184,154431,2,8,L|342:202,2,23.3333333333333
248,232,154549,2,8,L|262:250,2,23.3333333333333
212,189,154666,6,8,B|189:177|189:177|177:181,1,35
89,179,154902,2,8,L|73:147,2,23.3333333333333
18,90,155019,2,8,B|98:65|150:95|150:95|197:62|197:62,1,186.666666666667
368,88,155372,6,8,L|368:150,1,58.3333333333333
239,103,155725,2,8,L|239:130,2,23.3333333333333
120,160,155843,2,8,L|144:176,2,23.3333333333333
99,286,155960,2,8,L|123:286,2,23.3333333333333
204,232,156078,6,8,L|205:291,1,58.3333333333333
296,248,156431,2,8,L|328:208,2,35.0000013351441
360,104,156666,1,8,0:0:0:0:
456,200,156784,2,8,P|344:200|280:304,1,233.333333333333
368,192,157137,2,8,P|288:264|280:336,1,175.00000667572
280,336,157490,2,8,P|338:205|464:200,1,280
368,136,158196,6,8,L|368:198,1,58.3333333333333
352,288,158549,2,8,L|332:299,1,23.3333333333333
296,200,158666,2,8,L|272:212,1,23.3333333333333
240,121,158784,2,8,L|220:131,1,23.3333333333333
192,240,158902,2,8,L|227:101,1,140.000005340576
120,96,159254,6,8,L|90:123,2,23.3333333333333
172,184,159372,2,8,L|145:209,2,23.3333333333333
227,266,159490,2,8,L|199:283,2,23.3333333333333
104,224,159607,2,8,L|104:287,1,58.3333333333333
200,224,159960,2,8,L|186:206,1,23.3333333333333
272,176,160078,2,8,L|256:152,1,23.3333333333333
344,128,160196,2,8,L|329:106,1,23.3333333333333
430,74,160313,1,8,0:0:0:0:
304,56,160431,6,8,L|289:32,1,23.3333333333333
445,199,160549,2,8,L|429:178,2,23.3333333333333
365,133,160666,2,8,B|285:158|226:129|226:129|181:172|181:172,1,186.666666666667
128,72,161019,6,8,P|118:140|124:164,1,87.5000033378602
23,210,161372,1,8,0:0:0:0:
199,132,161490,1,8,0:0:0:0:
39,71,161607,1,8,0:0:0:0:
128,128,161725,6,8,L|128:224,1,93.3333333333333
112,208,162078,6,8,P|165:205|216:273,1,140.000005340576
188,219,162431,6,8,P|215:258|216:286,1,70.0000026702882
312,307,162784,6,8,L|335:298,2,23.3333333333333
430,275,162916,1,8,0:0:0:0:
376,221,163019,1,8,0:0:0:0:
328,165,163137,1,8,0:0:0:0:
286,107,163254,1,8,0:0:0:0:
245,56,163372,1,8,0:0:0:0:
340,39,163490,6,8,L|398:39,1,58.3333333333333
368,96,163843,5,8,0:0:0:0:
312,56,163960,1,8,0:0:0:0:
240,48,164078,1,8,0:0:0:0:
168,64,164196,1,8,0:0:0:0:
120,120,164313,1,8,0:0:0:0:
104,192,164431,6,8,L|112:224,1,23.3333333333333
144,272,164549,1,8,0:0:0:0:
208,320,164666,1,8,0:0:0:0:
280,328,164784,1,8,0:0:0:0:
360,328,164902,2,8,L|360:290,1,35
256,136,165137,70,8,B|256:64|120:64|128:192|256:296|256:296|384:192|392:64|256:64|256:136,1,653.333333333333
256,167,166019,2,8,B|256:142|200:136|216:184|256:232|256:232|296:184|312:136|256:142|256:167,1,233.333333333333
368,88,166666,6,8,P|378:156|372:180,1,87.5000033378602
280,128,167019,1,8,0:0:0:0:
184,128,167137,1,8,0:0:0:0:
88,128,167254,1,8,0:0:0:0:
192,232,167372,6,8,P|202:300|196:324,1,87.5000033378602
296,280,167725,1,8,0:0:0:0:
392,280,167843,1,8,0:0:0:0:
488,280,167960,1,8,0:0:0:0:
368,120,168078,2,8,P|256:120|192:224,1,233.333333333333
160,128,168431,2,8,P|229:179|250:262,1,175.00000667572
288,256,168784,2,8,P|149:223|69:321,1,280
149,155,170078,5,8,0:0:0:0:
159,159,170196,2,8,P|235:121|288:125,1,131.25
184,232,170784,5,8,0:0:0:0:
194,236,170902,2,8,P|270:198|318:198,1,131.25
408,128,171254,1,8,0:0:0:0:
416,216,171372,1,8,0:0:0:0:
368,288,171490,1,8,0:0:0:0:
264,296,171607,2,8,L|264:52,1,233.333333333333
191,54,171960,2,8,L|191:177,1,116.666666666667
363,155,172902,5,8,0:0:0:0:
353,159,173019,2,8,P|277:121|224:125,1,131.25
328,232,173607,5,8,0:0:0:0:
318,236,173725,2,8,P|242:198|194:198,1,131.25
104,128,174078,1,8,0:0:0:0:
96,216,174196,1,8,0:0:0:0:
144,288,174313,1,8,0:0:0:0:
248,296,174431,2,8,L|248:52,1,233.333333333333
321,54,174784,2,8,L|321:177,1,116.666666666667
149,155,175725,5,8,0:0:0:0:
159,159,175843,2,8,P|235:121|288:125,1,131.25
328,232,176431,5,8,0:0:0:0:
318,236,176549,2,8,P|242:198|194:198,1,131.25
146,288,176902,1,8,0:0:0:0:
307,160,177019,1,8,0:0:0:0:
140,154,177137,1,8,0:0:0:0:
264,296,177254,2,8,L|264:52,1,233.333333333333
191,54,177607,2,8,L|191:177,1,116.666666666667
149,155,178549,5,8,0:0:0:0:
159,158,178666,2,8,P|214:125|279:120,1,131.25
279,120,179019,2,8,P|229:162|203:221,1,131.25
203,222,179372,2,8,P|266:212|328:232,1,131.25
368,272,179725,1,8,0:0:0:0:
289,217,179843,1,8,0:0:0:0:
211,165,179960,1,8,0:0:0:0:
139,111,180078,1,8,0:0:0:0:
256,167,180431,38,8,B|256:135|184:128|208:192|256:238|256:238|304:192|320:128|256:135|256:167,1,280
