osu file format v14

[General]
AudioFilename: audio.mp3
AudioLeadIn: 0
PreviewTime: 47916
Countdown: 0
SampleSet: Soft
StackLeniency: 0.3
Mode: 0
LetterboxInBreaks: 0
WidescreenStoryboard: 0

[Editor]
Bookmarks: 13463,25463,37463,49463,61463,73463,85463,97463,109463,119963,133463,145463,157463,166463,169463
DistanceSpacing: 1.1
BeatDivisor: 4
GridSize: 32
TimelineZoom: 1.300001

[Metadata]
Title:Sunset Tea Cup
TitleUnicode:Sunset Tea Cup
Artist:YUC'e
ArtistUnicode:YUC'e
Creator:Rumia-
Version:Walao's Beginner
Source:
Tags:MoeMoeKyunNN walaowey [ -Scarlet- ] FREQUENCY BLITZ 5 Attack the Music [ATK-0014] yuce
BeatmapID:1361483
BeatmapSetID:634949

[Difficulty]
HPDrainRate:3
CircleSize:3
OverallDifficulty:3
ApproachRate:4
SliderMultiplier:0.799999999999999
SliderTickRate:1

[Events]
//Background and Video events
0,0,"bg.jpg",0,0
//Break Periods
2,73712,84192
//Storyboard Layer 0 (Background)
//Storyboard Layer 1 (Fail)
//Storyboard Layer 2 (Pass)
//Storyboard Layer 3 (Foreground)
//Storyboard Sound Samples

[TimingPoints]
1512,375,4,2,0,50,1,0
48012,-100,4,2,10,30,0,0
49512,-100,4,2,10,80,0,1
73512,-100,4,2,10,50,0,0
85512,-100,4,2,10,60,0,0
86918,-100,4,2,10,5,0,0
87012,-100,4,2,10,60,0,0
88418,-100,4,2,10,5,0,0
88512,-100,4,2,10,60,0,0
89918,-100,4,2,10,5,0,0
90012,-100,4,2,10,60,0,0
91418,-100,4,2,10,5,0,0
91512,-100,4,2,10,60,0,0
91793,-100,4,2,10,5,0,0
91887,-100,4,2,10,60,0,0
92168,-100,4,2,10,5,0,0
92262,-100,4,2,10,60,0,0
92918,-100,4,2,10,5,0,0
93012,-100,4,2,10,60,0,0
94418,-100,4,2,10,5,0,0
94512,-100,4,2,10,60,0,0
95262,-100,4,2,10,45,0,0
96012,-100,4,2,10,60,0,0
97137,-100,4,2,10,80,0,0
97512,-100,4,2,10,70,0,0
120012,-100,4,2,10,30,0,0
121512,-100,4,2,10,80,0,1
145512,-100,4,2,10,75,0,0
145887,-100,4,2,11,75,0,0
160887,-100,4,2,0,75,0,0
160980,-100,4,2,11,75,0,0
167262,-100,4,2,11,75,0,0
168012,-100,4,2,11,60,0,0
168762,-100,4,2,11,50,0,0
169512,-100,4,2,11,60,0,0

[Colours]
Combo1 : 5,49,122
Combo2 : 224,163,71
Combo3 : 162,164,164
Combo4 : 0,191,255
Combo5 : 255,255,255
Combo6 : 249,79,125

[HitObjects]
105,124,1512,6,0,P|171:78|254:88,1,160,2|8,0:0|0:0,0:0:0:0:
375,205,3012,2,0,P|393:281|368:370,2,160,2|10|2,0:0|0:0|0:0,0:0:0:0:
297,46,5262,1,8,0:0:0:0:
142,130,6012,6,0,L|209:276,1,160,2|10,0:0|0:0,0:0:0:0:
43,336,7512,2,0,L|4:250,2,79.9999999999999,2|2|8,0:0|0:0|0:0,0:0:0:0:
217,359,9012,2,0,P|292:354|364:297,1,160,2|10,0:0|0:0,0:0:0:0:
291,142,10512,6,0,P|216:147|144:204,1,160,2|10,0:0|0:0,0:0:0:0:
323,225,12012,2,0,P|360:197|378:145,1,79.9999999999999,2|0,0:0|0:0,0:0:0:0:
360,80,12762,1,2,0:0:0:0:
447,67,13137,1,2,0:0:0:0:
464,153,13512,6,0,B|445:313,1,160,4|10,1:2|0:0,0:0:0:0:
278,256,15012,2,0,P|242:258|199:272,1,79.9999999999999,2|2,1:2|0:0,0:0:0:0:
139,335,15762,2,0,P|117:296|117:244,1,79.9999999999999,8|2,0:0|0:0,0:0:0:0:
163,188,16512,6,0,P|205:119|185:39,1,160,0|10,1:0|0:0,0:0:0:0:
18,86,18012,2,0,L|105:100,1,79.9999999999999,2|2,1:2|0:0,0:0:0:0:
125,181,18762,2,0,L|213:195,1,79.9999999999999,8|2,0:0|0:0,0:0:0:0:
267,254,19512,6,0,P|359:248|420:171,1,160,0|10,1:0|0:0,0:0:0:0:
407,28,21012,2,0,L|328:45,1,79.9999999999999,2|2,1:2|0:0,0:0:0:0:
350,130,21762,2,0,L|437:111,1,79.9999999999999,8|2,0:0|0:0,0:0:0:0:
450,197,22512,6,0,B|334:223|334:223|291:202,1,160,0|8,1:0|0:0,0:0:0:0:
166,86,24012,1,4,1:0:0:0:
103,318,25512,5,6,0:0:0:0:
188,297,25887,1,8,0:0:0:0:
128,231,26262,2,0,L|72:173,1,79.9999999999999,10|10,0:0|0:0,0:0:0:0:
136,113,27012,1,10,0:0:0:0:
196,176,27387,1,10,0:0:0:0:
283,176,27762,2,0,P|317:156|339:122,1,79.9999999999999,10|10,0:0|0:0,0:0:0:0:
373,41,28512,5,8,0:0:0:0:
455,70,28887,2,0,P|494:97|514:152,2,79.9999999999999,10|10|8,0:0|0:0|0:0,0:0:0:0:
426,153,30012,2,0,L|421:243,1,79.9999999999999,10|10,0:0|0:0,0:0:0:0:
333,227,30762,2,0,L|339:124,1,79.9999999999999,10|10,0:0|0:0,0:0:0:0:
249,141,31512,5,14,0:0:0:0:
174,188,31887,1,10,0:0:0:0:
173,275,32262,2,0,L|212:359,1,79.9999999999999,10|10,0:0|0:0,0:0:0:0:
118,347,33012,1,10,0:0:0:0:
33,321,33387,1,10,0:0:0:0:
23,233,33762,2,0,P|41:195|73:159,1,79.9999999999999,10|8,0:0|0:0,0:0:0:0:
146,133,34512,5,8,3:2:0:0:
223,173,34887,2,0,P|265:162|301:122,2,79.9999999999999,10|10|10,0:0|0:0|0:0,0:0:0:0:
223,86,36012,2,0,P|258:58|301:53,1,79.9999999999999,8|10,3:2|0:0,0:0:0:0:
370,92,36762,2,0,P|408:83|438:58,1,79.9999999999999,10|10,0:0|0:0,0:0:0:0:
501,120,37512,5,14,0:0:0:0:
484,206,37887,1,10,0:0:0:0:
417,263,38262,2,0,L|333:266,1,79.9999999999999,10|10,0:0|3:2,0:0:0:0:
263,217,39012,1,10,0:0:0:0:
177,239,39387,1,10,0:0:0:0:
145,321,39762,2,0,P|106:290|90:238,1,79.9999999999999,10|10,0:0|3:2,0:0:0:0:
109,177,40512,5,10,0:0:0:0:
191,147,40887,2,0,L|273:115,2,79.9999999999999,10|10|8,0:0|0:0|0:0,0:0:0:0:
155,66,42012,2,0,L|246:31,1,79.9999999999999,10|10,0:0|0:0,0:0:0:0:
317,40,42762,2,0,P|350:78|357:129,1,79.9999999999999,10|10,0:0|0:0,0:0:0:0:
326,188,43512,5,10,0:0:0:0:
388,249,43887,1,10,0:0:0:0:
343,324,44262,2,0,P|310:339|264:341,1,79.9999999999999,10|10,0:0|0:0,0:0:0:0:
188,301,45012,1,10,0:0:0:0:
178,213,45387,1,10,0:0:0:0:
211,131,45762,2,0,P|245:157|267:208,1,79.9999999999999,10|10,0:0|0:0,0:0:0:0:
256,192,46512,12,0,48012,0:0:0:0:
210,191,49512,6,0,L|295:162,1,79.9999999999999,4|10,1:2|1:2,0:0:0:0:
318,246,50262,2,0,L|162:300,1,160,2|0,1:2|1:0,0:0:0:0:
79,287,51387,1,10,1:2:0:0:
130,215,51762,2,0,P|147:173|144:101,1,79.9999999999999,0|10,1:0|1:2,0:0:0:0:
175,54,52512,6,0,P|215:78|237:120,1,79.9999999999999,2|10,1:2|1:2,0:0:0:0:
271,184,53262,2,0,P|350:191|406:121,1,160,2|2,1:2|1:2,0:0:0:0:
385,49,54387,1,10,1:2:0:0:
319,109,54762,2,0,L|221:97,1,79.9999999999999,4|0,1:3|0:0,0:0:0:0:
180,165,55512,6,0,P|183:213|215:260,1,79.9999999999999,6|10,0:0|1:2,0:0:0:0:
284,254,56262,2,0,P|362:232|435:302,1,160,2|0,1:2|1:0,0:0:0:0:
346,324,57387,1,10,1:2:0:0:
260,344,57762,2,0,L|174:344,1,79.9999999999999,0|10,1:0|1:2,0:0:0:0:
93,329,58512,6,0,P|110:289|163:257,1,79.9999999999999,2|10,1:2|0:0,0:0:0:0:
213,222,59262,2,0,P|181:189|137:177,1,79.9999999999999,2|10,1:2|0:2,0:0:0:0:
62,163,60012,2,0,L|27:91,2,79.9999999999999,2|2|0,1:2|1:2|0:0,0:0:0:0:
119,96,61137,1,0,0:0:0:0:
206,97,61512,6,0,P|253:100|308:119,1,79.9999999999999,6|10,1:2|1:2,0:0:0:0:
360,153,62262,2,0,P|361:229|325:335,1,160,2|2,1:2|1:2,0:0:0:0:
250,313,63387,1,10,1:2:0:0:
168,284,63762,2,0,P|127:273|75:277,1,79.9999999999999,0|10,1:0|1:2,0:0:0:0:
27,211,64512,6,0,P|63:170|79:112,1,79.9999999999999,2|8,1:2|0:0,0:0:0:0:
120,72,65262,2,0,P|166:115|277:119,1,160,2|2,1:2|1:2,0:0:0:0:
337,83,66387,1,10,1:2:0:0:
399,20,66762,2,0,P|424:63|415:120,1,79.9999999999999,4|0,1:3|0:0,0:0:0:0:
373,163,67512,6,0,P|376:202|398:235,1,79.9999999999999,6|10,1:2|1:2,0:0:0:0:
478,272,68262,2,0,B|454:307|454:307|310:339,1,160,2|0,1:2|1:0,0:0:0:0:
264,286,69387,1,10,1:2:0:0:
176,281,69762,2,0,P|139:297|106:329,1,79.9999999999999,0|10,1:2|1:2,0:0:0:0:
24,302,70512,6,0,L|24:206,1,79.9999999999999,2|8,1:2|0:0,0:0:0:0:
91,165,71262,2,0,L|90:65,1,79.9999999999999,2|10,1:2|0:0,0:0:0:0:
163,36,72012,1,2,1:2:0:0:
174,123,72387,2,0,P|199:149|253:164,2,79.9999999999999,2|2|2,1:2|0:0|0:0,0:0:0:0:
247,75,73512,5,4,0:0:0:0:
403,102,85512,6,0,P|323:60|246:115,1,160,0|8,1:0|1:2,0:0:0:0:
329,146,86637,1,0,0:0:0:0:
375,220,87012,2,0,P|380:268|367:305,1,79.9999999999999,0|0,1:0|1:0,0:0:0:0:
291,258,87762,2,0,P|252:248|213:253,1,79.9999999999999,8|0,1:2|0:0,0:0:0:0:
128,276,88512,6,0,L|59:110,1,160,0|8,1:0|1:2,0:0:0:0:
122,60,89637,1,0,0:0:0:0:
164,136,90012,2,0,P|192:111|208:65,1,79.9999999999999,0|0,1:0|1:0,0:0:0:0:
295,73,90762,2,0,P|309:110|338:136,1,79.9999999999999,8|0,1:2|0:0,0:0:0:0:
381,59,91512,6,0,P|425:137|396:206,1,160,0|8,1:0|1:2,0:0:0:0:
320,229,92637,1,0,0:0:0:0:
241,188,93012,2,0,P|197:186|161:193,1,79.9999999999999,0|0,1:0|1:0,0:0:0:0:
166,280,93762,2,0,P|209:281|245:274,1,79.9999999999999,8|0,1:2|0:0,0:0:0:0:
322,224,94512,5,4,1:0:0:0:
268,56,95262,1,4,1:0:0:0:
147,183,96012,1,8,3:0:0:0:
319,330,97512,5,6,0:0:0:0:
401,298,97887,1,10,0:0:0:0:
331,244,98262,2,0,P|290:248|258:269,1,79.9999999999999,10|10,0:0|0:0,0:0:0:0:
231,352,99012,1,10,0:0:0:0:
169,288,99387,1,10,0:0:0:0:
192,203,99762,2,0,L|215:115,1,79.9999999999999,10|10,0:0|0:0,0:0:0:0:
187,41,100512,5,10,0:0:0:0:
126,104,100887,2,0,L|104:187,2,79.9999999999999,10|10|8,0:0|0:0|0:0,0:0:0:0:
40,84,102012,2,0,L|15:179,1,79.9999999999999,10|10,0:0|0:0,0:0:0:0:
42,246,102762,2,0,P|80:269|125:271,1,79.9999999999999,10|10,0:0|0:0,0:0:0:0:
188,223,103512,5,14,0:0:0:0:
275,215,103887,1,10,0:0:0:0:
348,263,104262,2,0,P|363:221|354:179,1,79.9999999999999,10|10,0:0|0:0,0:0:0:0:
294,125,105012,1,10,0:0:0:0:
378,99,105387,1,10,0:0:0:0:
444,156,105762,2,0,L|497:235,1,79.9999999999999,10|10,0:0|0:0,0:0:0:0:
503,309,106512,5,10,3:2:0:0:
415,320,106887,2,0,L|335:330,2,79.9999999999999,10|10|10,0:0|0:0|0:0,0:0:0:0:
397,233,108012,2,0,L|317:243,1,79.9999999999999,10|10,0:0|0:0,0:0:0:0:
248,297,108762,2,0,P|209:314|168:310,1,79.9999999999999,10|10,0:0|0:0,0:0:0:0:
197,222,109512,5,14,0:0:0:0:
140,154,109887,1,10,0:0:0:0:
161,68,110262,2,0,L|248:49,1,79.9999999999999,10|8,0:0|0:0,0:0:0:0:
324,30,111012,1,10,0:0:0:0:
347,114,111387,1,10,0:0:0:0:
371,198,111762,2,0,P|328:200|289:178,1,79.9999999999999,10|10,0:0|0:0,0:0:0:0:
208,175,112512,5,10,0:0:0:0:
243,255,112887,2,0,L|282:337,2,79.9999999999999,10|10|10,0:0|0:0|0:0,0:0:0:0:
155,246,114012,2,0,P|126:210|121:160,1,79.9999999999999,10|10,0:0|0:0,0:0:0:0:
208,175,114762,2,0,L|294:144,1,79.9999999999999,10|10,0:0|0:0,0:0:0:0:
256,63,115512,5,10,0:0:0:0:
171,90,115887,1,10,0:0:0:0:
116,159,116262,2,0,P|79:173|32:166,1,79.9999999999999,10|10,0:0|0:0,0:0:0:0:
13,253,117012,1,10,0:0:0:0:
72,317,117387,1,10,0:0:0:0:
159,307,117762,2,0,L|234:260,1,79.9999999999999,10|10,0:0|0:0,0:0:0:0:
256,192,118512,12,0,120012,0:0:0:0:
354,200,121512,6,0,P|368:239|362:287,1,79.9999999999999,6|10,1:2|1:2,0:0:0:0:
281,249,122262,2,0,P|274:163|337:113,1,160,2|0,1:2|1:0,0:0:0:0:
411,127,123387,1,10,1:2:0:0:
375,46,123762,2,0,P|336:30|286:38,1,79.9999999999999,0|0,1:0|0:0,0:0:0:0:
239,97,124512,6,0,P|199:99|162:83,1,79.9999999999999,2|8,1:2|1:2,0:0:0:0:
74,83,125262,2,0,L|102:264,1,160,2|2,1:2|1:2,0:0:0:0:
171,290,126387,1,10,1:2:0:0:
258,288,126762,2,0,P|310:272|349:279,1,79.9999999999999,4|0,1:3|0:0,0:0:0:0:
403,330,127512,6,0,P|419:297|419:248,1,79.9999999999999,6|10,1:2|1:2,0:0:0:0:
360,189,128262,2,0,P|383:100|446:76,1,160,2|0,1:2|1:0,0:0:0:0:
447,166,129387,1,10,1:2:0:0:
420,254,129762,2,0,P|389:273|346:277,1,79.9999999999999,0|0,1:0|0:0,0:0:0:0:
274,225,130512,6,0,P|234:227|200:248,1,79.9999999999999,0|8,1:0|0:0,0:0:0:0:
175,332,131262,2,0,P|136:308|113:255,1,79.9999999999999,0|10,1:0|0:0,0:0:0:0:
132,192,132012,2,0,L|152:97,2,79.9999999999999,0|0|0,1:0|1:0|0:0,0:0:0:0:
49,222,133137,1,0,0:0:0:0:
57,134,133512,6,0,L|77:37,1,79.9999999999999,6|10,1:2|1:2,0:0:0:0:
148,113,134262,2,0,P|228:77|307:88,1,160,2|0,1:2|1:0,0:0:0:0:
360,146,135387,1,10,1:2:0:0:
349,233,135762,2,0,P|369:278|405:302,1,79.9999999999999,0|0,1:0|0:0,0:0:0:0:
455,358,136512,6,0,P|477:321|470:253,1,79.9999999999999,2|8,1:2|0:0,0:0:0:0:
465,198,137262,2,0,L|334:102,1,160,0|0,1:0|1:0,0:0:0:0:
248,111,138387,1,8,1:2:0:0:
294,185,138762,2,0,P|257:198|213:190,1,79.9999999999999,4|0,1:3|0:0,0:0:0:0:
157,127,139512,6,0,L|65:143,1,79.9999999999999,6|10,1:2|1:2,0:0:0:0:
34,217,140262,2,0,P|30:285|108:348,1,160,2|0,1:2|1:0,0:0:0:0:
164,293,141387,1,10,1:2:0:0:
251,298,141762,2,0,P|294:317|321:353,1,79.9999999999999,0|0,1:0|0:0,0:0:0:0:
389,293,142512,6,0,L|398:201,1,79.9999999999999,0|8,1:0|0:0,0:0:0:0:
335,149,143262,2,0,L|344:43,1,79.9999999999999,0|10,1:0|0:0,0:0:0:0:
254,61,144012,1,0,1:0:0:0:
245,148,144387,2,0,P|192:161|82:138,1,160,0|2,1:0|0:0,0:0:0:0:
19,89,145512,5,4,1:0:0:0:
8,176,145887,1,2,1:2:0:0:
75,232,146262,2,0,L|158:285,1,79.9999999999999,10|2,1:2|1:2,0:0:0:0:
226,299,147012,1,0,1:0:0:0:
295,244,147387,1,0,1:0:0:0:
381,261,147762,2,0,P|377:210|352:176,1,79.9999999999999,8|0,1:2|1:2,0:0:0:0:
278,158,148512,1,2,1:2:0:0:
418,52,149262,6,0,P|461:71|487:110,1,79.9999999999999,10|2,0:0|1:2,0:0:0:0:
400,140,150012,1,2,1:2:0:0:
335,80,150387,2,0,P|295:65|237:72,1,79.9999999999999,2|10,1:2|1:2,0:0:0:0:
174,93,151137,1,2,1:2:0:0:
196,178,151512,5,0,1:0:0:0:
281,153,151887,1,2,1:2:0:0:
263,239,152262,2,0,P|231:262|172:266,1,79.9999999999999,10|2,1:2|1:2,0:0:0:0:
113,227,153012,1,0,1:0:0:0:
32,261,153387,1,2,1:2:0:0:
15,347,153762,2,0,L|95:371,1,79.9999999999999,8|2,1:2|1:2,0:0:0:0:
179,361,154512,1,2,1:2:0:0:
334,279,155262,6,0,P|289:251|276:211,1,79.9999999999999,2|2,1:2|0:1,0:0:0:0:
305,144,156012,2,0,L|336:45,1,79.9999999999999,2|10,1:2|1:2,0:0:0:0:
414,89,156762,2,0,L|389:178,1,79.9999999999999,2|12,1:2|0:3,0:0:0:0:
333,231,157512,5,2,1:2:0:0:
245,218,157887,1,2,1:2:0:0:
211,136,158262,2,0,P|165:135|126:148,1,79.9999999999999,10|2,1:2|1:2,0:0:0:0:
71,208,159012,1,0,1:0:0:0:
93,293,159387,1,2,1:2:0:0:
176,320,159762,2,0,P|222:308|264:320,1,79.9999999999999,10|2,1:2|1:2,0:0:0:0:
331,353,160512,6,0,P|340:317|319:259,1,79.9999999999999,2|2,1:2|0:1,0:0:0:0:
257,225,161262,2,0,P|247:186|256:147,1,79.9999999999999,10|2,1:2|1:2,0:0:0:0:
326,95,162012,1,2,1:2:0:0:
337,182,162387,2,0,P|378:165|407:126,1,79.9999999999999,2|10,1:2|1:2,0:0:0:0:
412,51,163137,1,2,1:2:0:0:
486,99,163512,5,2,1:2:0:0:
488,186,163887,1,2,1:2:0:0:
418,239,164262,2,0,L|339:256,1,79.9999999999999,10|2,1:2|1:2,0:0:0:0:
256,227,165012,1,0,1:0:0:0:
235,141,165387,1,2,1:2:0:0:
292,74,165762,2,0,P|252:55|205:58,1,79.9999999999999,10|2,1:2|1:2,0:0:0:0:
149,112,166512,1,2,1:2:0:0:
192,282,167262,6,0,L|241:350,1,79.9999999999999,2|2,1:2|0:1,0:0:0:0:
313,299,168012,2,0,L|262:227,1,79.9999999999999,2|2,1:2|0:0,0:0:0:0:
189,190,168762,1,2,0:0:0:0:
234,114,169137,1,2,0:0:0:0:
310,157,169512,5,4,0:0:0:0:
